Tags
Language
Tags
July 2024
Su Mo Tu We Th Fr Sa
30 1 2 3 4 5 6
7 8 9 10 11 12 13
14 15 16 17 18 19 20
21 22 23 24 25 26 27
28 29 30 31 1 2 3

Judy Garland - Judy At Carnegie Hall: 40th Anniversary Edition (2001) 2CDs

Posted By: Designol
Judy Garland - Judy At Carnegie Hall: 40th Anniversary Edition (2001) 2CDs

Judy Garland - Judy At Carnegie Hall, 1961: 40th Anniversary Edition (2001) 2CDs
EAC | FLAC | Image (Cue&Log) ~ 630 Mb | Mp3 (CBR320) ~ 280 Mb | Scans ~ 44 Mb
Label: Capitol Records | # 7243 5 27876 2 3 | Time: 02:02:29
Vocal Jazz, Traditional Pop, Easy Listening, Show Tunes

The late 1950s were tough on Judy Garland, but this live recording, cut on April 23, 1961, at Carnegie Hall, would (rightfully) bring the legendary icon back into the spotlight. Live would go on to win five Grammys, be Garland's bestselling record, and confirm that, yes, on certain levels, she still had it. Her vocals are as strong as ever on these tunes, and Garland has fun with an audience obviously enraptured by her charms. She's self-deprecating where necessary–on "You Go to My Head" she "forgets" the lyrics but pretends to improvise. Mostly she just shines, especially on tunes she made famous, such as "Come Rain or Come Shine," "Stormy Weather," and "Over the Rainbow." This is easily one of pop music's greatest live recordings and a fine testament to Garland's recorded legacy. This two-CD set has been remastered for EMI's 40th-anniversary reissue to coincide with the ABC film based on daughter Lorna Luft's memoir Me and My Shadows.

Review by Jason Verlinde

This 40th anniversary edition of Garland's seminal Judy at Carnegie Hall recording is a completely fresh experience even for those intimately familiar with previous versions. By accessing tapes which have not been used on any other release – including the pricey DCC gold disc – many sonic foibles which plagued the original have now been repaired. The overwhelming success of this album, which initially spent 95 weeks on the charts and garnered five Grammy Awards, makes it a prime candidate for a sonic overhaul. By reclaiming tapes that were once considered MIA, the sound is now notably more balanced. In addition, much of the fake applause has been thoughtfully removed, unveiling previously masked dramatic pacing and audience interplay between songs. But the highlight of the entire package is the return of "Alone Together" from the actual Carnegie Hall performance. The song had been replaced by a studio version on the 1989 CD reissue due to missing master tapes. Since then, those tapes have been put back into commission and provide the jaw-dropping sound on this delightful set.

There is a good reason that Garland historian Scott Schechter titled his specially-penned liner notes essay "Two Hours of POW!" With relentless verve, Garland takes on her entire musical catalogue with astonishing aplomb. There is little sign of the decades of self-abuse which had left her frail by the early '60s. But what we are fortunate enough to have is the magic and youth of her voice. Especially poignant are "You Go to My Head," "Just You, Just Me," and her quintessential reading of "Somewhere Over the Rainbow." Judy at Carnegie Hall is far and away the finest live performance to be issued during her lifetime. The numerous improvements made on this 40th anniversary edition will no doubt serve her legacy well.

Review by Lindsay Planer, Allmusic.com

Judy Garland - Judy At Carnegie Hall: 40th Anniversary Edition (2001) 2CDs



Tracklist:

CD1:

01. Overture: The Trolley Song / Over The Rainbow/ The Man That Got Away (05:46)
02. When You're Smiling (The Whole World Smiles With You) (03:24)
03. Almost Like Being In Love / This Can't Be Love (Medley) (06:28)
04. Do It Again (06:19)
05. You Go To My Head (02:36)
06. Alone Together (05:47)
07. Who Cares (As Long As You Care For Me) (02:06)
08. Puttin' On The Ritz (02:17)
09. How Long Has This Been Going On (04:07)
10. Just You, Just Me (01:59)
11. The Man That Got Away (05:03)
12. San Francisco (04:43)

CD2:

01. That's Entertainment! (06:49)
02. I Can't Give You Anything But Love (06:43)
03. Come Rain Or Come Shine (07:45)
04. You're Nearer (02:14)
05. A Foggy Day (03:36)
06. If Love Were All (02:18)
07. Zing! Went The Strings Of My Heart (04:04)
08. Stormy Weather (06:10)
09. You Made Me Love You / For Me And My Gal / The Trolley Song (Medley) (03:55)
10. Rock-A-Bye Your Baby With A Dixie Melody (05:27)
11. Over The Rainbow (05:41)
12. Swanee (07:35)
13. After You've Gone (04:30)
14. Chicago (04:51)


Exact Audio Copy V1.0 beta 3 from 29. August 2011

EAC extraction logfile from 30. June 2014, 23:12

Judy Garland / Judy at Carnegie Hall (Disc One)

Used drive : SAMSUNG DVD-ROM SD-616E Adapter: 3 ID: 0

Read mode : Secure
Utilize accurate stream : Yes
Defeat audio cache : Yes
Make use of C2 pointers : No

Read offset correction : 12
Overread into Lead-In and Lead-Out : No
Fill up missing offset samples with silence : Yes
Delete leading and trailing silent blocks : No
Null samples used in CRC calculations : Yes
Used interface : Native Win32 interface for Win NT & 2000

Used output format : User Defined Encoder
Selected bitrate : 768 kBit/s
Quality : High
Add ID3 tag : No
Command line compressor : C:\Program Files\Exact Audio Copy\FLAC\FLAC.EXE
Additional command line options : -6 -V -T "ARTIST=%artist%" -T "TITLE=%title%" -T "ALBUM=%albumtitle%" -T "DATE=%year%" -T "TRACKNUMBER=%tracknr%" -T "GENRE=%genre%" -T "COMMENT=%comment%" -T "BAND=%albuminterpret%" -T "ALBUMARTIST=%albuminterpret%" -T "COMPOSER=%composer%" %haslyrics%–tag-from-file=LYRICS="%lyricsfile%"%haslyrics% -T "DISCNUMBER=%cdnumber%" -T "TOTALDISCS=%totalcds%" -T "TOTALTRACKS=%numtracks%" %hascover%–picture="%coverfile%"%hascover% %source% -o %dest%


TOC of the extracted CD

Track | Start | Length | Start sector | End sector
––––––––––––––––––––––––––––-
1 | 0:00.00 | 5:46.45 | 0 | 25994
2 | 5:46.45 | 3:24.50 | 25995 | 41344
3 | 9:11.20 | 6:28.67 | 41345 | 70511
4 | 15:40.12 | 6:19.03 | 70512 | 98939
5 | 21:59.15 | 2:36.25 | 98940 | 110664
6 | 24:35.40 | 5:47.55 | 110665 | 136744
7 | 30:23.20 | 2:06.47 | 136745 | 146241
8 | 32:29.67 | 2:17.40 | 146242 | 156556
9 | 34:47.32 | 4:07.70 | 156557 | 175151
10 | 38:55.27 | 1:59.00 | 175152 | 184076
11 | 40:54.27 | 5:03.10 | 184077 | 206811
12 | 45:57.37 | 4:43.65 | 206812 | 228101


Range status and errors

Selected range

Filename C:\Documents and Settings\Borya\Desktop\Jurland\cd1\Judy Garland - Judy at Carnegie Hall (Disc One).wav

Peak level 98.8 %
Extraction speed 3.1 X
Range quality 100.0 %
Test CRC C4CA9192
Copy CRC C4CA9192
Copy OK

No errors occurred


AccurateRip summary

Track 1 accurately ripped (confidence 8) [CE1146F7] (AR v2)
Track 2 accurately ripped (confidence 8) [319542C6] (AR v2)
Track 3 accurately ripped (confidence 8) [2CBA5381] (AR v2)
Track 4 accurately ripped (confidence 8) [8CD64C53] (AR v2)
Track 5 accurately ripped (confidence 8) [64FC4BBA] (AR v2)
Track 6 accurately ripped (confidence 8) [DEEB68C8] (AR v2)
Track 7 accurately ripped (confidence 8) [59DEB85D] (AR v2)
Track 8 accurately ripped (confidence 8) [C253973B] (AR v2)
Track 9 accurately ripped (confidence 8) [B795BB54] (AR v2)
Track 10 accurately ripped (confidence 8) [19D711A5] (AR v2)
Track 11 accurately ripped (confidence 8) [60E9B1E4] (AR v2)
Track 12 accurately ripped (confidence 8) [21AE833E] (AR v2)

All tracks accurately ripped

End of status report

==== Log checksum B2CD3C3073E927D43232D8F5C52D03228CF5CF14B04D4FE4E71FE95DC6D6FD71 ====

foobar2000 1.2 / Dynamic Range Meter 1.1.1
log date: 2014-07-15 11:19:56

––––––––––––––––––––––––––––––––––––––––
Analyzed: Judy Garland / Judy At Carnegie Hall (Disc One)
––––––––––––––––––––––––––––––––––––––––

DR Peak RMS Duration Track
––––––––––––––––––––––––––––––––––––––––
DR13 -0.10 dB -17.70 dB 5:47 01-Overture: The Trolley Song / Over The Rainbow/ The Man That Got Away
DR12 -0.10 dB -16.92 dB 3:25 02-When You're Smiling (The Whole World Smiles With You)
DR12 -0.10 dB -15.88 dB 6:29 03-Almost Like Being In Love / This Can't Be Love (Medley)
DR13 -2.61 dB -21.52 dB 6:19 04-Do It Again
DR12 -0.10 dB -15.38 dB 2:36 05-You Go To My Head
DR12 -0.95 dB -18.59 dB 5:48 06-Alone Together
DR13 -0.83 dB -18.36 dB 2:07 07-Who Cares (As Long As You Care For Me)
DR13 -0.10 dB -17.13 dB 2:18 08-Puttin' On The Ritz
DR12 -0.26 dB -20.27 dB 4:08 09-How Long Has This Been Going On
DR15 -0.10 dB -19.60 dB 1:59 10-Just You, Just Me
DR13 -0.10 dB -17.00 dB 5:03 11-The Man That Got Away
DR12 -0.10 dB -16.71 dB 4:44 12-San Francisco
––––––––––––––––––––––––––––––––––––––––

Number of tracks: 12
Official DR value: DR13

Samplerate: 44100 Hz
Channels: 2
Bits per sample: 16
Bitrate: 708 kbps
Codec: FLAC
================================================================================


Exact Audio Copy V1.0 beta 3 from 29. August 2011

EAC extraction logfile from 1. July 2014, 13:48

Judy Garland / Judy at Carnegie Hall (Disc Two)

Used drive : SAMSUNG DVD-ROM SD-616E Adapter: 3 ID: 0

Read mode : Secure
Utilize accurate stream : Yes
Defeat audio cache : Yes
Make use of C2 pointers : No

Read offset correction : 12
Overread into Lead-In and Lead-Out : No
Fill up missing offset samples with silence : Yes
Delete leading and trailing silent blocks : No
Null samples used in CRC calculations : Yes
Used interface : Native Win32 interface for Win NT & 2000

Used output format : User Defined Encoder
Selected bitrate : 768 kBit/s
Quality : High
Add ID3 tag : No
Command line compressor : C:\Program Files\Exact Audio Copy\FLAC\FLAC.EXE
Additional command line options : -6 -V -T "ARTIST=%artist%" -T "TITLE=%title%" -T "ALBUM=%albumtitle%" -T "DATE=%year%" -T "TRACKNUMBER=%tracknr%" -T "GENRE=%genre%" -T "COMMENT=%comment%" -T "BAND=%albuminterpret%" -T "ALBUMARTIST=%albuminterpret%" -T "COMPOSER=%composer%" %haslyrics%–tag-from-file=LYRICS="%lyricsfile%"%haslyrics% -T "DISCNUMBER=%cdnumber%" -T "TOTALDISCS=%totalcds%" -T "TOTALTRACKS=%numtracks%" %hascover%–picture="%coverfile%"%hascover% %source% -o %dest%


TOC of the extracted CD

Track | Start | Length | Start sector | End sector
––––––––––––––––––––––––––––-
1 | 0:00.00 | 6:49.62 | 0 | 30736
2 | 6:49.62 | 6:43.68 | 30737 | 61029
3 | 13:33.55 | 7:45.67 | 61030 | 95971
4 | 21:19.47 | 2:14.23 | 95972 | 106044
5 | 23:33.70 | 3:36.15 | 106045 | 122259
6 | 27:10.10 | 2:18.27 | 122260 | 132636
7 | 29:28.37 | 4:04.65 | 132637 | 151001
8 | 33:33.27 | 6:10.73 | 151002 | 178824
9 | 39:44.25 | 3:56.30 | 178825 | 196554
10 | 43:40.55 | 5:27.67 | 196555 | 221146
11 | 49:08.47 | 5:41.65 | 221147 | 246786
12 | 54:50.37 | 7:36.00 | 246787 | 280986
13 | 62:26.37 | 4:30.60 | 280987 | 301296
14 | 66:57.22 | 4:51.50 | 301297 | 323171


Range status and errors

Selected range

Filename C:\Documents and Settings\Borya\Desktop\Jurland\cd2\Judy Garland - Judy at Carnegie Hall (Disc Two).wav

Peak level 98.8 %
Extraction speed 3.6 X
Range quality 100.0 %
Test CRC D0060A13
Copy CRC D0060A13
Copy OK

No errors occurred


AccurateRip summary

Track 1 accurately ripped (confidence 8) [63865602] (AR v2)
Track 2 accurately ripped (confidence 8) [29500CD4] (AR v2)
Track 3 accurately ripped (confidence 8) [28628027] (AR v2)
Track 4 accurately ripped (confidence 8) [F6ADE9BD] (AR v2)
Track 5 accurately ripped (confidence 8) [7AF1DC0F] (AR v2)
Track 6 accurately ripped (confidence 8) [10310426] (AR v2)
Track 7 accurately ripped (confidence 8) [B2322A71] (AR v2)
Track 8 accurately ripped (confidence 8) [08C0A63D] (AR v2)
Track 9 accurately ripped (confidence 8) [78263BEB] (AR v2)
Track 10 accurately ripped (confidence 8) [3154A662] (AR v2)
Track 11 accurately ripped (confidence 8) [67BDA828] (AR v2)
Track 12 accurately ripped (confidence 8) [AFB52D73] (AR v2)
Track 13 accurately ripped (confidence 8) [5FD56A78] (AR v2)
Track 14 accurately ripped (confidence 7) [8550BD75] (AR v2)

All tracks accurately ripped

End of status report

==== Log checksum 50ABADA045D52DFCD0AD31473A1BA8583378AB34850B0F98515B6869A8055DE1 ====

foobar2000 1.2 / Dynamic Range Meter 1.1.1
log date: 2014-07-15 11:20:20

––––––––––––––––––––––––––––––––––––––––
Analyzed: Judy Garland / Judy At Carnegie Hall (Disc Two)
––––––––––––––––––––––––––––––––––––––––

DR Peak RMS Duration Track
––––––––––––––––––––––––––––––––––––––––
DR14 -0.10 dB -19.33 dB 6:50 01-That's Entertainment!
DR13 -1.87 dB -21.72 dB 6:44 02-I Can't Give You Anything But Love
DR13 -2.50 dB -19.77 dB 7:46 03-Come Rain Or Come Shine
DR11 -2.35 dB -19.94 dB 2:14 04-You're Nearer
DR13 -0.46 dB -20.38 dB 3:36 05-A Foggy Day
DR11 -0.10 dB -18.73 dB 2:18 06-If Love Were All
DR12 -0.91 dB -16.53 dB 4:05 07-Zing! Went The Strings Of My Heart
DR13 -0.46 dB -18.93 dB 6:11 08-Stormy Weather
DR13 -0.10 dB -16.08 dB 3:56 09-You Made Me Love You / For Me And My Gal / The Trolley Song (Medley)
DR12 -0.10 dB -16.19 dB 5:28 10-Rock-A-Bye Your Baby With A Dixie Melody
DR13 -0.83 dB -18.92 dB 5:42 11-Over The Rainbow
DR13 -0.71 dB -17.96 dB 7:36 12-Swanee
DR13 -1.08 dB -18.29 dB 4:31 13-After You've Gone
DR14 -0.12 dB -16.66 dB 4:52 14-Chicago
––––––––––––––––––––––––––––––––––––––––

Number of tracks: 14
Official DR value: DR13

Samplerate: 44100 Hz
Channels: 2
Bits per sample: 16
Bitrate: 726 kbps
Codec: FLAC
================================================================================

Judy Garland - Judy At Carnegie Hall: 40th Anniversary Edition (2001) 2CDs

Judy Garland - Judy At Carnegie Hall: 40th Anniversary Edition (2001) 2CDs

All thanks to original releaser

More interesting music in My Blog

See also:
Judy Garland - Over The Rainbow (2005) 4 CD Set