Subcategories
Tags
Language
Tags

Juilliard String Quartet, Christopher Oldfather - Elliott Carter: The Four String Quartets, Duo For Violin and Piano (1991) 2CD

Posted By: Designol
Juilliard String Quartet, Christopher Oldfather - Elliott Carter: The Four String Quartets, Duo For Violin and Piano (1991) 2CD

Elliott Carter: The Four String Quartets, Duo For Violin and Piano (1991) 2CDs
Juilliard String Quartet; Christopher Oldfather, piano

EAC | FLAC | Tracks (Cue&Log) ~ 603 Mb | Mp3 (CBR320) ~ 330 Mb | Scans included
Classical, Contemporary, Avant-Garde | Label: Sony Classical | # S2K 47229 | 02:16:59

These quartets are Juilliard specialties, and anyone wanting to hear this music played with a near ideal combination of virtuosity and humanity need look no further. Carter's quartets are not for the musically faint of heart: they are uncompromisingly thorny, intricate pieces that require lots of intense, dedicated listening. Very few people doubt their seriousness–or even their claims to musical greatness–but just as few people enjoy listening to them. Perhaps this spectacular set will encourage the adventurous to give them a shot. They're worth the time.

David Hurwitz

From a purely heuristic perspective, the Carter quartets represent an astonishing achievement, adumbrating the medium’s almost mystical reputation for musical sublimity while retaining traditional notational conventions. It didn’t have to be that way. Epistemologically speaking, the works build on the tradition of the Second Viennese School, with some Bartók and, perhaps, Ives thrown in for good measure. After all, as Ives would have said, there is no particular reason why the four members of a string quartet need to pay special attention to what any of the others are doing, nor, for that matter, should they necessarily sound like four players at all. In his Third Quartet, especially, with its two simultaneous atonal duos pursuing independent courses throughout, Carter puts this theory into vivid practice.

Partly as a result, these quartets enjoy a fearsome reputation for their difficulty and complexity. As an ontological proposition, this is nonsense. They require little more than a willingness to listen and accept whatever motivic element bobs to the surface at any particular time. In the first two quartets, traditional forms and expressive topoi remain clearly detectable, but even in the late Fifth Quartet of 1995 Carter takes pains to ensure that his inimitable energy and joie de vivre never compromise expressive directness. Consider, for example, two versions of the work’s principal thesis (I hesitate to call it a melody in the traditional sense), one resolutely determined, the other a witty scherzando in which delicious pizzicato timbres evoke the strumming of Flamenco guitars and Catalan folk music in the manner of Roberto Gerhard (sound clips).

When these performances first appeared they were considered remarkable by virtue of the fact that the Juilliard Quartet (or anyone) could play the music at all. Since then, while not exactly repertory pieces, the music has achieved a level of acceptance beyond the merely hagiographic, and the quartets have received fairly regular performances and recordings. If the early Juilliard performances haven’t quite the same measure of executional ease that we hear from the Pacifica Quartet on Naxos, you can argue that the few moments of stress and strain belong to the music’s aural persona. In any case, this set represents a major achievement, a long time in coming.

Review by David Hurwitz, ClassicsToday.com

While other ensembles have given noteworthy readings of these complex and challenging modernist works, perhaps only the Juilliard has had the technical virtuosity and expressive depth to master all five quartets, as well as a special connection to the composer as a friend and colleague. Carter's work with the Juilliard was essential to the comprehension of his intentions, and the musicians' contributions to the discussions gave Carter the opportunity to clarify his music. The writing of the quartets spanned the peak years of the avant-garde, from 1951 to 1995, and Carter developed his own systems and strategies, including his innovation of metric modulation, the use of chronometric and psychological time, and the characterization of the quartet's parts in dramatic dialogues. While these aspects of his music invite adventurous listeners to explore his methods, the string quartets have not won over a large audience and are still thought to be difficult. Nevertheless, they are landmarks of 20th century chamber music, alongside the great quartets of Bartók, Schoenberg, and Shostakovich, and this set is essential listening for all Carter aficionados.

Review by Blair Sanderson, Allmusic.com

Juilliard String Quartet, Christopher Oldfather - Elliott Carter: The Four String Quartets, Duo For Violin and Piano (1991) 2CD



Juilliard String Quartet, Christopher Oldfather - Elliott Carter: The Four String Quartets, Duo For Violin and Piano (1991) 2CD



Juilliard String Quartet
1st Violin - Robert Mann
2nd Violin - Joel Smirnoff
Viola - Samuel Rhodes
Cello - Joel Krosnick

Piano - Christopher Oldfather

rec. American Academy and Institute of Arts and Letters, New York City,
December 8-10 1990 (Quartet No.1); May 28 - June 15 1991 (Quartets Nos.2-4 & Duo)

Tracklist:

Elliott CARTER (1908-2012)

CD1 (1:05:30)

String Quartet No.1 (1951)
01. I.Fantasia: Maestoso (9:32)
02. I. Allegro scorrevole (3:44)
03. II. Allegro scorrevole (1:18)
04. II. Adagio - Variations (12:15)
05. III. Variations (15:14)

String Quartet No.2 (1959)
06. Introduction (1:16)
07. I. Allegro fantastico (3:02)
08. I. Cadenza for Viola (1:33)
09. II. Presto scherzando (2:20)
10. II. Cadenza for Cello (2:19)
11. III. Andante espressivo (4:33)
12. III. Cadenza for Violin I (1:54)
13. IV. Allegro (5:06)
14. Conclusion (1:23)


CD2 (1:11:29)

String Quartet No.3 (1971)
01. Duo II: Maestoso - Duo I: Furioso (4:16)
02. Duo II: Guisto, meccanico - Duo I: Giocoso (2:09)
03. Duo II: Scorrevole - Duo I: Leggerissimo (2:46)
04. Duo II: Grazioso - Duo I: Giocoso (2:34)
05. Duo II: Largo tranquillo - Duo I: Andante espressivo (5:20)
06. Duo II: Scorrevole - Duo I: Furioso (4:15)

String Quartet No.4 (1986)
07. I. Appassionato (7:15)
08. II. Scherzando (stesso tempo) (6:39)
09. III. Lento (stesso tempo) (7:39)
10. IV. Presto (7:27)

Duo for Violin and Piano (1974)
11. I. Quarter = 84 (5:57)
12. II. Quarter = 96 (6:06)
13. III. Quarter = 48 (2:30)
14. IV. Quarter = 126 (2:50)
15. V. Dotted-Eighth = 96 (3:44)


Exact Audio Copy V1.0 beta 1 from 15. November 2010

EAC extraction logfile from 21. October 2011, 0:04

Elliott Carter / String Quartets [Disc 1]

Used drive : MATSHITADVD-RAM UJ-860S Adapter: 2 ID: 0

Read mode : Secure
Utilize accurate stream : Yes
Defeat audio cache : Yes
Make use of C2 pointers : No

Read offset correction : 102
Overread into Lead-In and Lead-Out : No
Fill up missing offset samples with silence : Yes
Delete leading and trailing silent blocks : No
Null samples used in CRC calculations : Yes
Used interface : Native Win32 interface for Win NT & 2000
Gap handling : Appended to previous track

Used output format : User Defined Encoder
Selected bitrate : 128 kBit/s
Quality : High
Add ID3 tag : No
Command line compressor : D:\Program Files\Exact Audio Copy\flac.exe
Additional command line options : -8 -V -T "ARTIST=%a" -T "TITLE=%t" -T "ALBUM=%g" -T "DATE=%y" -T "TRACKNUMBER=%n" -T "GENRE=%m" -T "COMMENT=EAC FLAC -8" %s


TOC of the extracted CD

Track | Start | Length | Start sector | End sector
––––––––––––––––––––––––––––-
1 | 0:00.00 | 9:32.05 | 0 | 42904
2 | 9:32.05 | 3:43.60 | 42905 | 59689
3 | 13:15.65 | 1:18.32 | 59690 | 65571
4 | 14:34.22 | 12:14.50 | 65572 | 120671
5 | 26:48.72 | 15:14.15 | 120672 | 189236
6 | 42:03.12 | 1:16.15 | 189237 | 194951
7 | 43:19.27 | 3:01.53 | 194952 | 208579
8 | 46:21.05 | 1:33.17 | 208580 | 215571
9 | 47:54.22 | 2:19.68 | 215572 | 226064
10 | 50:14.15 | 2:18.60 | 226065 | 236474
11 | 52:33.00 | 4:32.67 | 236475 | 256941
12 | 57:05.67 | 1:54.25 | 256942 | 265516
13 | 59:00.17 | 5:06.28 | 265517 | 288494
14 | 64:06.45 | 1:23.12 | 288495 | 294731


Track 1

Filename C:\Documents and Settings\Admin\Рабочий стол\String Quartets\String Quartets [Disc 1]\01. Elliott Carter – String Quartet No.1 (1951) I.Fantasia- Maestoso.wav

Pre-gap length 0:00:02.00

Peak level 97.7 %
Extraction speed 0.5 X
Track quality 100.0 %
Test CRC 883D9487
Copy CRC 883D9487
Accurately ripped (confidence 5) [1A4A6DD8]
Copy OK

Track 2

Filename C:\Documents and Settings\Admin\Рабочий стол\String Quartets\String Quartets [Disc 1]\02. Elliott Carter – String Quartet No.1 (1951) I. Allegro scorrevole.wav

Peak level 92.9 %
Extraction speed 0.5 X
Track quality 99.9 %
Test CRC CF09F9DE
Copy CRC CF09F9DE
Accurately ripped (confidence 5) [7C5AB472]
Copy OK

Track 3

Filename C:\Documents and Settings\Admin\Рабочий стол\String Quartets\String Quartets [Disc 1]\03. Elliott Carter – String Quartet No.1 (1951) II. Allegro scorrevole.wav

Pre-gap length 0:00:00.04

Peak level 83.3 %
Extraction speed 0.5 X
Track quality 100.0 %
Test CRC ED1F06B9
Copy CRC ED1F06B9
Accurately ripped (confidence 5) [0A5E05C4]
Copy OK

Track 4

Filename C:\Documents and Settings\Admin\Рабочий стол\String Quartets\String Quartets [Disc 1]\04. Elliott Carter – String Quartet No.1 (1951) II. Adagio - Variations.wav

Pre-gap length 0:00:00.02

Peak level 89.4 %
Extraction speed 0.7 X
Track quality 100.0 %
Test CRC A8DDF940
Copy CRC A8DDF940
Accurately ripped (confidence 5) [D68BD833]
Copy OK

Track 5

Filename C:\Documents and Settings\Admin\Рабочий стол\String Quartets\String Quartets [Disc 1]\05. Elliott Carter – String Quartet No.1 (1951) III. Variations.wav

Pre-gap length 0:00:00.02

Peak level 97.1 %
Extraction speed 0.8 X
Track quality 100.0 %
Test CRC F7647075
Copy CRC F7647075
Accurately ripped (confidence 5) [83C00F27]
Copy OK

Track 6

Filename C:\Documents and Settings\Admin\Рабочий стол\String Quartets\String Quartets [Disc 1]\06. Elliott Carter – String Quartet No.2 (1959) Introduction.wav

Pre-gap length 0:00:06.33

Peak level 49.7 %
Extraction speed 0.6 X
Track quality 100.0 %
Test CRC 8EE2572D
Copy CRC 8EE2572D
Accurately ripped (confidence 5) [B290AAA0]
Copy OK

Track 7

Filename C:\Documents and Settings\Admin\Рабочий стол\String Quartets\String Quartets [Disc 1]\07. Elliott Carter – String Quartet No.2 (1959) I. Allegro fantastico.wav

Peak level 74.4 %
Extraction speed 0.7 X
Track quality 100.0 %
Test CRC 0A15DF66
Copy CRC 0A15DF66
Accurately ripped (confidence 5) [0A78EA06]
Copy OK

Track 8

Filename C:\Documents and Settings\Admin\Рабочий стол\String Quartets\String Quartets [Disc 1]\08. Elliott Carter – String Quartet No.2 (1959) I. Cadenza for Viola.wav

Peak level 73.3 %
Extraction speed 0.6 X
Track quality 100.0 %
Test CRC 04E1A1F6
Copy CRC 04E1A1F6
Accurately ripped (confidence 5) [EFE46C3B]
Copy OK

Track 9

Filename C:\Documents and Settings\Admin\Рабочий стол\String Quartets\String Quartets [Disc 1]\09. Elliott Carter – String Quartet No.2 (1959) II. Presto scherzando.wav

Peak level 93.8 %
Extraction speed 0.7 X
Track quality 100.0 %
Test CRC 04DAB7A0
Copy CRC 04DAB7A0
Accurately ripped (confidence 5) [48050E70]
Copy OK

Track 10

Filename C:\Documents and Settings\Admin\Рабочий стол\String Quartets\String Quartets [Disc 1]\10. Elliott Carter – String Quartet No.2 (1959) II. Cadenza for Cello.wav

Peak level 43.4 %
Extraction speed 0.6 X
Track quality 99.9 %
Test CRC 46247449
Copy CRC 46247449
Accurately ripped (confidence 5) [F29CD091]
Copy OK

Track 11

Filename C:\Documents and Settings\Admin\Рабочий стол\String Quartets\String Quartets [Disc 1]\11. Elliott Carter – String Quartet No.2 (1959) III. Andante espressivo.wav

Pre-gap length 0:00:00.04

Peak level 81.1 %
Extraction speed 0.8 X
Track quality 100.0 %
Test CRC 59278FE5
Copy CRC 59278FE5
Accurately ripped (confidence 5) [5BF30640]
Copy OK

Track 12

Filename C:\Documents and Settings\Admin\Рабочий стол\String Quartets\String Quartets [Disc 1]\12. Elliott Carter – String Quartet No.2 (1959) III. Cadenza for Violin I.wav

Pre-gap length 0:00:00.02

Peak level 37.0 %
Extraction speed 0.7 X
Track quality 100.0 %
Test CRC 3B3E6C9B
Copy CRC 3B3E6C9B
Accurately ripped (confidence 5) [41E33582]
Copy OK

Track 13

Filename C:\Documents and Settings\Admin\Рабочий стол\String Quartets\String Quartets [Disc 1]\13. Elliott Carter – String Quartet No.2 (1959) IV. Allegro.wav

Peak level 99.0 %
Extraction speed 0.9 X
Track quality 100.0 %
Test CRC EFCBD656
Copy CRC EFCBD656
Accurately ripped (confidence 5) [122FC873]
Copy OK

Track 14

Filename C:\Documents and Settings\Admin\Рабочий стол\String Quartets\String Quartets [Disc 1]\14. Elliott Carter – String Quartet No.2 (1959) Conclusion.wav

Peak level 75.9 %
Extraction speed 0.7 X
Track quality 100.0 %
Test CRC A8529FFE
Copy CRC A8529FFE
Accurately ripped (confidence 5) [96530673]
Copy OK


All tracks accurately ripped

No errors occurred

End of status report

==== Log checksum 6DF473A555642182B66F3B4A2E558A0013ABE0ECF3A400FCEC7F6AF43BEC27EA ====

[CUETools log; Date: 18.01.2018 0:56:51; Version: 2.1.4]
[CTDB TOCID: QoOI0eCIaJmXuVU_ZvdqX9zYyoc-] found.
Track | CTDB Status
1 | (25/25) Accurately ripped
2 | (25/25) Accurately ripped
3 | (25/25) Accurately ripped
4 | (25/25) Accurately ripped
5 | (25/25) Accurately ripped
6 | (25/25) Accurately ripped
7 | (25/25) Accurately ripped
8 | (25/25) Accurately ripped
9 | (25/25) Accurately ripped
10 | (25/25) Accurately ripped
11 | (25/25) Accurately ripped
12 | (25/25) Accurately ripped
13 | (25/25) Accurately ripped
14 | (25/25) Accurately ripped
[AccurateRip ID: 0028abbe-019d7495-d50f590e] found.
Track [ CRC | V2 ] Status
01 [1a4a6dd8|aaa82932] (5+0/9) Accurately ripped
02 [7c5ab472|e429b91f] (5+0/9) Accurately ripped
03 [0a5e05c4|b7139d32] (5+0/9) Accurately ripped
04 [d68bd833|fbf38383] (5+0/9) Accurately ripped
05 [83c00f27|cd82cb66] (5+0/9) Accurately ripped
06 [b290aaa0|e503a966] (5+0/9) Accurately ripped
07 [0a78ea06|ca002bc7] (5+0/9) Accurately ripped
08 [efe46c3b|55681460] (5+0/9) Accurately ripped
09 [48050e70|9843e7c5] (5+0/9) Accurately ripped
10 [f29cd091|9a67fc78] (5+0/9) Accurately ripped
11 [5bf30640|d371814a] (5+0/9) Accurately ripped
12 [41e33582|3bbcb706] (5+0/9) Accurately ripped
13 [122fc873|be63ba3e] (5+0/9) Accurately ripped
14 [96530673|b1b055a4] (5+0/9) Accurately ripped
Offsetted by -655:
01 [03a368dd] (0/9) No match (V2 was not tested)
02 [81bf9787] (0/9) No match (V2 was not tested)
03 [9aad1371] (0/9) No match (V2 was not tested)
04 [5e016aae] (0/9) No match (V2 was not tested)
05 [c57565ff] (0/9) No match (V2 was not tested)
06 [e6d7deda] (0/9) No match (V2 was not tested)
07 [5964d4ef] (0/9) No match (V2 was not tested)
08 [bde0d12b] (0/9) No match (V2 was not tested)
09 [a4e891a7] (0/9) No match (V2 was not tested)
10 [be33a03d] (0/9) No match (V2 was not tested)
11 [c348c533] (0/9) No match (V2 was not tested)
12 [fd2b152a] (0/9) No match (V2 was not tested)
13 [78708416] (0/9) No match (V2 was not tested)
14 [b34e8d8f] (0/9) No match (V2 was not tested)

Track Peak [ CRC32 ] [W/O NULL] [ LOG ]
– 99,0 [F40EA78D] [44ADDE8F]
01 97,7 [883D9487] [D2FF8AE8] CRC32
02 92,9 [CF09F9DE] [04810540] CRC32
03 83,3 [ED1F06B9] [E8B87B5E] CRC32
04 89,4 [A8DDF940] [FD636373] CRC32
05 97,1 [F7647075] [D93D8A26] CRC32
06 49,7 [8EE2572D] [1A1757DB] CRC32
07 74,4 [0A15DF66] [F848A931] CRC32
08 73,3 [04E1A1F6] [E351C963] CRC32
09 93,8 [04DAB7A0] [AE4C9E83] CRC32
10 43,4 [46247449] [0FE96419] CRC32
11 81,1 [59278FE5] [EC3AF78E] CRC32
12 37,0 [3B3E6C9B] [B9DD272B] CRC32
13 99,0 [EFCBD656] [19FE0A9A] CRC32
14 75,9 [A8529FFE] [216A7196] CRC32

foobar2000 1.2 / Dynamic Range Meter 1.1.1
log date: 2018-01-18 00:55:41

––––––––––––––––––––––––––––––––––––––––
Analyzed: Elliott Carter / String Quartets [Disc 1]
––––––––––––––––––––––––––––––––––––––––

DR Peak RMS Duration Track
––––––––––––––––––––––––––––––––––––––––
DR15 -0.20 dB -19.99 dB 9:32 01-String Quartet No.1 (1951) I.Fantasia: Maestoso
DR14 -0.64 dB -21.62 dB 3:44 02-String Quartet No.1 (1951) I. Allegro scorrevole
DR15 -1.58 dB -23.62 dB 1:18 03-String Quartet No.1 (1951) II. Allegro scorrevole
DR16 -0.97 dB -22.61 dB 12:15 04-String Quartet No.1 (1951) II. Adagio - Variations
DR15 -0.25 dB -20.28 dB 15:14 05-String Quartet No.1 (1951) III. Variations
DR12 -6.06 dB -23.61 dB 1:16 06-String Quartet No.2 (1959) Introduction
DR15 -2.57 dB -22.56 dB 3:02 07-String Quartet No.2 (1959) I. Allegro fantastico
DR15 -2.69 dB -23.00 dB 1:33 08-String Quartet No.2 (1959) I. Cadenza for Viola
DR15 -0.55 dB -25.14 dB 2:20 09-String Quartet No.2 (1959) II. Presto scherzando
DR14 -7.24 dB -27.30 dB 2:19 10-String Quartet No.2 (1959) II. Cadenza for Cello
DR15 -1.82 dB -25.22 dB 4:33 11-String Quartet No.2 (1959) III. Andante espressivo
DR14 -8.61 dB -27.65 dB 1:54 12-String Quartet No.2 (1959) III. Cadenza for Violin I
DR14 -0.08 dB -20.94 dB 5:06 13-String Quartet No.2 (1959) IV. Allegro
DR15 -2.39 dB -26.22 dB 1:23 14-String Quartet No.2 (1959) Conclusion
––––––––––––––––––––––––––––––––––––––––

Number of tracks: 14
Official DR value: DR15

Samplerate: 44100 Hz
Channels: 2
Bits per sample: 16
Bitrate: 488 kbps
Codec: FLAC
================================================================================


Exact Audio Copy V1.0 beta 1 from 15. November 2010

EAC extraction logfile from 21. October 2011, 8:27

Elliott Carter / String Quartets [Disc 2]

Used drive : MATSHITADVD-RAM UJ-860S Adapter: 2 ID: 0

Read mode : Secure
Utilize accurate stream : Yes
Defeat audio cache : Yes
Make use of C2 pointers : No

Read offset correction : 102
Overread into Lead-In and Lead-Out : No
Fill up missing offset samples with silence : Yes
Delete leading and trailing silent blocks : No
Null samples used in CRC calculations : Yes
Used interface : Native Win32 interface for Win NT & 2000
Gap handling : Appended to previous track

Used output format : User Defined Encoder
Selected bitrate : 128 kBit/s
Quality : High
Add ID3 tag : No
Command line compressor : D:\Program Files\Exact Audio Copy\flac.exe
Additional command line options : -8 -V -T "ARTIST=%a" -T "TITLE=%t" -T "ALBUM=%g" -T "DATE=%y" -T "TRACKNUMBER=%n" -T "GENRE=%m" -T "COMMENT=EAC FLAC -8" %s


TOC of the extracted CD

Track | Start | Length | Start sector | End sector
––––––––––––––––––––––––––––-
1 | 0:00.00 | 4:16.27 | 0 | 19226
2 | 4:16.27 | 2:09.33 | 19227 | 28934
3 | 6:25.60 | 2:45.57 | 28935 | 41366
4 | 9:11.42 | 2:34.33 | 41367 | 52949
5 | 11:46.00 | 5:20.20 | 52950 | 76969
6 | 17:06.20 | 4:14.67 | 76970 | 96086
7 | 21:21.12 | 7:15.10 | 96087 | 128721
8 | 28:36.22 | 6:39.08 | 128722 | 158654
9 | 35:15.30 | 7:39.00 | 158655 | 193079
10 | 42:54.30 | 7:26.57 | 193080 | 226586
11 | 50:21.12 | 5:57.25 | 226587 | 253386
12 | 56:18.37 | 6:05.73 | 253387 | 280834
13 | 62:24.35 | 2:30.32 | 280835 | 292116
14 | 64:54.67 | 2:50.15 | 292117 | 304881
15 | 67:45.07 | 3:44.23 | 304882 | 321704


Track 1

Filename C:\Documents and Settings\Admin\Рабочий стол\String Quartets\String Quartets [Disc 2]\01. Elliott Carter – String Quartet No.3 (1971) Duo II- Maestoso - Duo I- Furioso.wav

Pre-gap length 0:00:02.00

Peak level 82.4 %
Extraction speed 0.7 X
Track quality 99.9 %
Test CRC 8EA915D5
Copy CRC 8EA915D5
Accurately ripped (confidence 6) [2D169FCE]
Copy OK

Track 2

Filename C:\Documents and Settings\Admin\Рабочий стол\String Quartets\String Quartets [Disc 2]\02. Elliott Carter – String Quartet No.3 (1971) Duo II- Guisto, meccanico - Duo I- Giocoso.wav

Peak level 84.6 %
Extraction speed 0.8 X
Track quality 100.0 %
Test CRC FFD8151A
Copy CRC FFD8151A
Accurately ripped (confidence 6) [BA8FABF2]
Copy OK

Track 3

Filename C:\Documents and Settings\Admin\Рабочий стол\String Quartets\String Quartets [Disc 2]\03. Elliott Carter – String Quartet No.3 (1971) Duo II- Scorrevole - Duo I- Leggerissimo.wav

Peak level 72.8 %
Extraction speed 0.8 X
Track quality 100.0 %
Test CRC AFB170CA
Copy CRC AFB170CA
Accurately ripped (confidence 6) [26DB13E4]
Copy OK

Track 4

Filename C:\Documents and Settings\Admin\Рабочий стол\String Quartets\String Quartets [Disc 2]\04. Elliott Carter – String Quartet No.3 (1971) Duo II- Grazioso - Duo I- Giocoso.wav

Peak level 78.2 %
Extraction speed 0.9 X
Track quality 100.0 %
Test CRC E9EA3104
Copy CRC E9EA3104
Accurately ripped (confidence 6) [B571950E]
Copy OK

Track 5

Filename C:\Documents and Settings\Admin\Рабочий стол\String Quartets\String Quartets [Disc 2]\05. Elliott Carter – String Quartet No.3 (1971) Duo II- Largo tranquillo - Duo I- Andante espressivo.wav

Peak level 62.5 %
Extraction speed 1.0 X
Track quality 100.0 %
Test CRC 3A162F99
Copy CRC 3A162F99
Accurately ripped (confidence 6) [7EC005C4]
Copy OK

Track 6

Filename C:\Documents and Settings\Admin\Рабочий стол\String Quartets\String Quartets [Disc 2]\06. Elliott Carter – String Quartet No.3 (1971) Duo II- Scorrevole - Duo I- Furioso.wav

Peak level 91.7 %
Extraction speed 1.0 X
Track quality 100.0 %
Test CRC EDAAF83B
Copy CRC EDAAF83B
Accurately ripped (confidence 6) [A1B73137]
Copy OK

Track 7

Filename C:\Documents and Settings\Admin\Рабочий стол\String Quartets\String Quartets [Disc 2]\07. Elliott Carter – String Quartet No.4 (1986) I. Appassionato.wav

Pre-gap length 0:00:05.82

Peak level 87.6 %
Extraction speed 1.1 X
Track quality 100.0 %
Test CRC F62CEEAF
Copy CRC F62CEEAF
Accurately ripped (confidence 6) [D6797455]
Copy OK

Track 8

Filename C:\Documents and Settings\Admin\Рабочий стол\String Quartets\String Quartets [Disc 2]\08. Elliott Carter – String Quartet No.4 (1986) II. Scherzando (stesso tempo).wav

Peak level 44.7 %
Extraction speed 1.0 X
Track quality 99.9 %
Test CRC 3FFEF413
Copy CRC 3FFEF413
Accurately ripped (confidence 6) [92A148B3]
Copy OK

Track 9

Filename C:\Documents and Settings\Admin\Рабочий стол\String Quartets\String Quartets [Disc 2]\09. Elliott Carter – String Quartet No.4 (1986) III. Lento (stesso tempo).wav

Peak level 57.5 %
Extraction speed 1.2 X
Track quality 100.0 %
Test CRC C93D22E4
Copy CRC C93D22E4
Accurately ripped (confidence 6) [DAAD83C9]
Copy OK

Track 10

Filename C:\Documents and Settings\Admin\Рабочий стол\String Quartets\String Quartets [Disc 2]\10. Elliott Carter – String Quartet No.4 (1986) IV. Presto.wav

Peak level 98.2 %
Extraction speed 1.2 X
Track quality 100.0 %
Test CRC 8E923A88
Copy CRC 8E923A88
Accurately ripped (confidence 6) [9060B332]
Copy OK

Track 11

Filename C:\Documents and Settings\Admin\Рабочий стол\String Quartets\String Quartets [Disc 2]\11. Elliott Carter – Duo for Violin and Piano (1974) I. Quarter = 84.wav

Pre-gap length 0:00:07.33

Peak level 45.6 %
Extraction speed 1.3 X
Track quality 100.0 %
Test CRC F48B867A
Copy CRC F48B867A
Accurately ripped (confidence 6) [2A960F56]
Copy OK

Track 12

Filename C:\Documents and Settings\Admin\Рабочий стол\String Quartets\String Quartets [Disc 2]\12. Elliott Carter – Duo for Violin and Piano (1974) II. Quarter = 96.wav

Peak level 72.3 %
Extraction speed 1.3 X
Track quality 100.0 %
Test CRC EFF9472E
Copy CRC EFF9472E
Accurately ripped (confidence 6) [F82CC1C5]
Copy OK

Track 13

Filename C:\Documents and Settings\Admin\Рабочий стол\String Quartets\String Quartets [Disc 2]\13. Elliott Carter – Duo for Violin and Piano (1974) III. Quarter = 48.wav

Peak level 68.3 %
Extraction speed 0.9 X
Track quality 99.9 %
Test CRC 9D89EF77
Copy CRC 9D89EF77
Accurately ripped (confidence 6) [8B3682EA]
Copy OK

Track 14

Filename C:\Documents and Settings\Admin\Рабочий стол\String Quartets\String Quartets [Disc 2]\14. Elliott Carter – Duo for Violin and Piano (1974) IV. Quarter = 126.wav

Peak level 100.0 %
Extraction speed 1.1 X
Track quality 100.0 %
Test CRC E93385E6
Copy CRC E93385E6
Accurately ripped (confidence 6) [267198F6]
Copy OK

Track 15

Filename C:\Documents and Settings\Admin\Рабочий стол\String Quartets\String Quartets [Disc 2]\15. Elliott Carter – Duo for Violin and Piano (1974) V. Dotted-Eighth = 96.wav

Peak level 75.0 %
Extraction speed 1.2 X
Track quality 100.0 %
Test CRC 6528E8F4
Copy CRC 6528E8F4
Accurately ripped (confidence 6) [37D3C485]
Copy OK


All tracks accurately ripped

No errors occurred

End of status report

==== Log checksum 11FC30196D2281AB8AD035D7FBC849B8BDF4C55738FA86618F29D34BC4E0E6D4 ====

[CUETools log; Date: 18.01.2018 0:57:12; Version: 2.1.4]
[CTDB TOCID: CJy5K.HeBXkQ3ktbTovnSdcakIc-] found.
Track | CTDB Status
1 | (5/5) Accurately ripped
2 | (5/5) Accurately ripped
3 | (5/5) Accurately ripped
4 | (5/5) Accurately ripped
5 | (5/5) Accurately ripped
6 | (5/5) Accurately ripped
7 | (5/5) Accurately ripped
8 | (5/5) Accurately ripped
9 | (5/5) Accurately ripped
10 | (5/5) Accurately ripped
11 | (5/5) Accurately ripped
12 | (5/5) Accurately ripped
13 | (5/5) Accurately ripped
14 | (5/5) Accurately ripped
15 | (5/5) Accurately ripped
[AccurateRip ID: 0025c5f2-01bb9c62-dd10c10f] found.
Track [ CRC | V2 ] Status
01 [2d169fce|a97232ef] (6+0/6) Accurately ripped
02 [ba8fabf2|426a8a34] (6+0/6) Accurately ripped
03 [26db13e4|77b26c5a] (6+0/6) Accurately ripped
04 [b571950e|fb01e12d] (6+0/6) Accurately ripped
05 [7ec005c4|d622c215] (6+0/6) Accurately ripped
06 [a1b73137|f64846ad] (6+0/6) Accurately ripped
07 [d6797455|eb78ba98] (6+0/6) Accurately ripped
08 [92a148b3|c317dca8] (6+0/6) Accurately ripped
09 [daad83c9|32c4b640] (6+0/6) Accurately ripped
10 [9060b332|3b3be15e] (6+0/6) Accurately ripped
11 [2a960f56|29bb876a] (6+0/6) Accurately ripped
12 [f82cc1c5|5baee250] (6+0/6) Accurately ripped
13 [8b3682ea|0553dfd8] (6+0/6) Accurately ripped
14 [267198f6|b3a2d0ff] (6+0/6) Accurately ripped
15 [37d3c485|325d11e4] (6+0/6) Accurately ripped

Track Peak [ CRC32 ] [W/O NULL] [ LOG ]
– 100,0 [164B10B5] [7D15CE2E]
01 82,4 [8EA915D5] [49B328DF] CRC32
02 84,6 [FFD8151A] [B6315B86] CRC32
03 72,8 [AFB170CA] [16437104] CRC32
04 78,2 [E9EA3104] [963B472B] CRC32
05 62,5 [3A162F99] [9E807347] CRC32
06 91,7 [EDAAF83B] [EDEE4606] CRC32
07 87,6 [F62CEEAF] [44BB9BE7] CRC32
08 44,7 [3FFEF413] [6BC73EF6] CRC32
09 57,5 [C93D22E4] [3093A9DB] CRC32
10 98,2 [8E923A88] [D290681F] CRC32
11 45,6 [F48B867A] [96B76C77] CRC32
12 72,3 [EFF9472E] [F9002716] CRC32
13 68,3 [9D89EF77] [DF728515] CRC32
14 100,0 [E93385E6] [D61F4321] CRC32
15 75,0 [6528E8F4] [21AA9026] CRC32

foobar2000 1.2 / Dynamic Range Meter 1.1.1
log date: 2018-01-18 00:56:20

––––––––––––––––––––––––––––––––––––––––
Analyzed: Elliott Carter / String Quartets [Disc 2]
––––––––––––––––––––––––––––––––––––––––

DR Peak RMS Duration Track
––––––––––––––––––––––––––––––––––––––––
DR15 -1.68 dB -22.27 dB 4:16 01-String Quartet No.3 (1971) Duo II: Maestoso - Duo I: Furioso
DR17 -1.45 dB -25.96 dB 2:09 02-String Quartet No.3 (1971) Duo II: Guisto, meccanico - Duo I: Giocoso
DR15 -2.75 dB -22.73 dB 2:46 03-String Quartet No.3 (1971) Duo II: Scorrevole - Duo I: Leggerissimo
DR15 -2.13 dB -23.08 dB 2:34 04-String Quartet No.3 (1971) Duo II: Grazioso - Duo I: Giocoso
DR14 -4.07 dB -23.86 dB 5:20 05-String Quartet No.3 (1971) Duo II: Largo tranquillo - Duo I: Andante espressivo
DR14 -0.75 dB -20.38 dB 4:15 06-String Quartet No.3 (1971) Duo II: Scorrevole - Duo I: Furioso
DR15 -1.14 dB -22.06 dB 7:15 07-String Quartet No.4 (1986) I. Appassionato
DR16 -6.99 dB -27.72 dB 6:39 08-String Quartet No.4 (1986) II. Scherzando (stesso tempo)
DR16 -4.80 dB -27.05 dB 7:39 09-String Quartet No.4 (1986) III. Lento (stesso tempo)
DR16 -0.15 dB -22.16 dB 7:27 10-String Quartet No.4 (1986) IV. Presto
DR17 -6.80 dB -29.89 dB 5:57 11-Duo for Violin and Piano (1974) I. Quarter = 84
DR15 -2.81 dB -24.50 dB 6:06 12-Duo for Violin and Piano (1974) II. Quarter = 96
DR14 -3.31 dB -26.00 dB 2:30 13-Duo for Violin and Piano (1974) III. Quarter = 48
DR14 0.00 dB -20.09 dB 2:50 14-Duo for Violin and Piano (1974) IV. Quarter = 126
DR16 -2.49 dB -26.79 dB 3:44 15-Duo for Violin and Piano (1974) V. Dotted-Eighth = 96
––––––––––––––––––––––––––––––––––––––––

Number of tracks: 15
Official DR value: DR15

Samplerate: 44100 Hz
Channels: 2
Bits per sample: 16
Bitrate: 515 kbps
Codec: FLAC
================================================================================

Juilliard String Quartet, Christopher Oldfather - Elliott Carter: The Four String Quartets, Duo For Violin and Piano (1991) 2CD

Juilliard String Quartet, Christopher Oldfather - Elliott Carter: The Four String Quartets, Duo For Violin and Piano (1991) 2CD

All thanks to original releaser - desordenado

More interesting music in My Blog