Subcategories

June Tabor - An Echo Of Hooves (2003)

Posted By: Designol
June Tabor - An Echo Of Hooves (2003)

June Tabor - An Echo Of Hooves (2003)
EAC | FLAC | Image (Cue&Log) ~ 244 Mb | Mp3 (CBR320) ~ 130 Mb | Scans ~ 69 Mb
British Folk, Folk-Rock | Label: Topic Records | # TSCD543 | Time: 00:56:24

Listening to this, it's easy to believe that June Tabor was made to sing these old border ballads, tales of the uneasy coexistence of families in the marches between England and Scotland. Her dark voice is well-suited to the texts, which are often bloody and vengeful, and quite certainly epic – in some respects, the very essence of British balladry, whether it's "The Battle of Otterburn," with its gloriously textured Kathryn Tickell arrangement, or the demanding "The Duke of Athole's Nurse," where Martin Simpson is reunited with Tabor, his guitar offering shining counterpoint to her voice. The songs, tried and tested over the centuries, are wonderful in themselves, but Tabor's presentation of them brings them fully to life, like "The Cruel Mother." Harrowing at the best of times, it becomes pure torment in her hands. And her "Sir Patrick Spens" makes the old Fairport Convention version sound like a playground romp. Intensity has always been one of Tabor's fortes, and here she takes full advantage of the opportunity to indulge it. While she's very good with other material, Tabor never sounds more at home than with traditional music, and on these ballads, in particular, she seems as if she's come home. A stunning jewel in a remarkable career, and one of the best things Tabor's ever released.

Review by Chris Nickson, Allmusic.com

June Tabor - An Echo Of Hooves (2003)



Tracklist:

01. Bonnie James Campbell (3:42)
02. The Duke of Athole's Nurse (4:23)
03. The Battle of Otterburn (5:54)
04. Lord Maxwell's Last Goodnight (4:21)
05. Hughie Graeme (3:24)
06. The Border Widow's Lament (5:59)
07. Fair Margaret and Sweet William (5:48)
08. Rare Willie (3:16)
09. Young Johnstone (6:23)
10. The Cruel Mother (6:10)
11. Sir Patrick Spens (7:06)


Exact Audio Copy V1.0 beta 3 from 29. August 2011

EAC extraction logfile from 19. October 2013, 21:48

June Tabor / An Echo of Hooves

Used drive : PLEXTOR DVDR PX-612U Adapter: 2 ID: 0

Read mode : Secure
Utilize accurate stream : Yes
Defeat audio cache : Yes
Make use of C2 pointers : No

Read offset correction : 6
Overread into Lead-In and Lead-Out : No
Fill up missing offset samples with silence : Yes
Delete leading and trailing silent blocks : No
Null samples used in CRC calculations : Yes
Used interface : Native Win32 interface for Win NT & 2000

Used output format : User Defined Encoder
Selected bitrate : 128 kBit/s
Quality : High
Add ID3 tag : No
Command line compressor : C:\Program Files (x86)\Exact Audio Copy\Flac\flac.exe
Additional command line options : -V -8 -T "Date=%year%" -T "Genre=%genre%" %source%


TOC of the extracted CD

Track | Start | Length | Start sector | End sector
––––––––––––––––––––––––––––-
1 | 0:00.00 | 3:41.39 | 0 | 16613
2 | 3:41.39 | 4:22.57 | 16614 | 36320
3 | 8:04.21 | 5:54.09 | 36321 | 62879
4 | 13:58.30 | 4:20.63 | 62880 | 82442
5 | 18:19.18 | 3:24.02 | 82443 | 97744
6 | 21:43.20 | 5:58.65 | 97745 | 124659
7 | 27:42.10 | 5:47.44 | 124660 | 150728
8 | 33:29.54 | 3:15.52 | 150729 | 165405
9 | 36:45.31 | 6:22.43 | 165406 | 194098
10 | 43:07.74 | 6:09.73 | 194099 | 221846
11 | 49:17.72 | 7:05.71 | 221847 | 253792


Range status and errors

Selected range

Filename D:\123\June Tabor - An Echo of Hooves.wav

Peak level 98.5 %
Extraction speed 4.3 X
Range quality 100.0 %
Test CRC C7097173
Copy CRC C7097173
Copy OK

No errors occurred


AccurateRip summary

Track 1 accurately ripped (confidence 12) [1D107618] (AR v2)
Track 2 accurately ripped (confidence 12) [D2473279] (AR v2)
Track 3 accurately ripped (confidence 12) [635A15BB] (AR v2)
Track 4 accurately ripped (confidence 12) [DF6B2E77] (AR v2)
Track 5 accurately ripped (confidence 12) [B898FBA5] (AR v2)
Track 6 accurately ripped (confidence 12) [D0163856] (AR v2)
Track 7 accurately ripped (confidence 12) [D44441FD] (AR v2)
Track 8 accurately ripped (confidence 12) [9A1D2C29] (AR v2)
Track 9 accurately ripped (confidence 12) [2B377172] (AR v2)
Track 10 accurately ripped (confidence 12) [306A0B3A] (AR v2)
Track 11 accurately ripped (confidence 12) [A89C33EE] (AR v2)

All tracks accurately ripped

End of status report

==== Log checksum 18644C9942EAC8A1B8B3784B124106BFE6581442E0AA3163325226287A89206B ====

foobar2000 1.2 / Dynamic Range Meter 1.1.1
log date: 2018-02-26 01:02:10

––––––––––––––––––––––––––––––––––––––––
Analyzed: June Tabor / An Echo of Hooves
––––––––––––––––––––––––––––––––––––––––

DR Peak RMS Duration Track
––––––––––––––––––––––––––––––––––––––––
DR13 -2.05 dB -20.22 dB 3:42 01-Bonnie James Campbell
DR14 -0.34 dB -19.79 dB 4:23 02-The Duke of Athole's Nurse
DR14 -0.28 dB -19.50 dB 5:54 03-The Battle of Otterburn
DR12 -3.26 dB -21.05 dB 4:21 04-Lord Maxwell's Last Goodnight
DR12 -0.13 dB -15.08 dB 3:24 05-Hughie Graeme
DR14 -3.67 dB -23.09 dB 5:59 06-The Border Widow's Lament
DR13 -0.14 dB -17.26 dB 5:48 07-Fair Margaret and Sweet William
DR12 -2.85 dB -23.70 dB 3:16 08-Rare Willie
DR16 -0.18 dB -19.73 dB 6:23 09-Young Johnstone
DR13 -7.54 dB -25.59 dB 6:10 10-The Cruel Mother
DR13 -0.17 dB -17.16 dB 7:06 11-Sir Patrick Spens
––––––––––––––––––––––––––––––––––––––––

Number of tracks: 11
Official DR value: DR13

Samplerate: 44100 Hz
Channels: 2
Bits per sample: 16
Bitrate: 603 kbps
Codec: FLAC
================================================================================

June Tabor - An Echo Of Hooves (2003)

June Tabor - An Echo Of Hooves (2003)