Tags
Language
Tags

Karla Bonoff - Karla Bonoff (1977); Restless Nights (1979); Wild Heart Of The Young (1982) 3 LP in 2 CD, Remastered 2013, Re-Up

Posted By: Designol
Karla Bonoff - Karla Bonoff (1977); Restless Nights (1979); Wild Heart Of The Young (1982) 3 LP in 2 CD, Remastered 2013, Re-Up

Karla Bonoff - Karla Bonoff; Restless Nights; Wild Heart Of The Young (2013) 3 LP in 2 CD
EAC | FLAC | Image (Cue&Log) ~ 635 Mb | Mp3 (CBR320) ~ 256 Mb | Scans ~ 31 Mb
Singer/Songwriter, Pop/Rock, Soft Rock, Folk Rock | Label: BGO | # BGOCD1126 | 01:52:17

Karla originally came to attention as an acclaimed Sony writer, and these three albums (released in 1977, 79 and 82) all made the Billboard Top 100 Albums chart. Due to the respect with which she is held, amongst the many musicians accompanying her on these recordings are Glen Frey, Linda Ronstadt, Andrew Gold, Don Henley, Garth Hudson, David Sanborn, Joe Walsh, Timothy B. Schmit, Russ Kunkel – et al! Digitally remastered and slipcased with new notes.

Singer/songwriter Karla Bonoff grew up in Los Angeles and briefly attended UCLA. Emerging from the Monday night hootenanny scene at the Troubadour nightclub, she was a member of Bryndle, a folk-rock group also featuring Wendy Waldman, Andrew Gold, and Kenny Edwards, that formed in 1969, signed to A&M, and cut an album that was never released. Edwards, a former member of the Stone Poneys (a band featuring Linda Ronstadt), and Gold were later part of Ronstadt's backing band, and they brought Bonoff to her attention. Ronstadt recorded three of Bonoff's songs on her 1976 album, Hasten Down the Wind, leading to a recording contract for Bonoff and the release of three albums on Columbia Records, the last of which, Wild Heart of the Young (1982), featured the Top 40 hit "Personally." Bonoff worked on movie soundtracks during the '80s, notably on Footloose (1984) and About Last Night (1986). She released her fourth album, New World, in 1988.

William Ruhlmann, Allmusic.com

Previously owned on (much mourned) vinyl I consider this to be an irresistible opportunity to reacquire this delightful set of Karla's first three albums at a bargain price. Much of the music contained herein reaches the peak of West Coast singer-songwriting and although most of the highlights are available via the 'All My Life' compilation these records should be heard in their entirety. The eponymous 1st album contains versions of three songs which Linda Ronstadt featured on 'Hasten Down The Wind' ('Someone To Lay Down Beside Me', 'Lose Again' and 'If He's Ever Near') and why other interpreters have not also picked up on the quality of these songs is quite unfathomable to me. The 2nd release, 'Restless Nights' is more varied with covers ('When You Walk Into the Room' and (for me) the definitive version of one of the best songs ever written, the old folk tune 'The Water Is Wide',) as well as more great self-penned tunes. Finally we have 'Wild Heart Of The Young' which is a bit smoother and over-produced, but still gorgeous!

…….but, why am I not rushing to the Amazon checkout to complete my purchase?! Well, the tracklisting appears to omit two of the tracks from 'Restless Nights', namely 'Baby Don't Go' and 'Only A Fool' and with the latter being one of my favourite tracks I am reluctant to take a chance. In any case the product description is unacceptably misleading. I shall retain my 5 star rating in hope that this is an error by Amazon and not shabby treatment of the fan by the record company.

Review by mathstutor, Amazon.co.uk

Karla Bonoff - Karla Bonoff (1977); Restless Nights (1979); Wild Heart Of The Young (1982) 3 LP in 2 CD, Remastered 2013, Re-Up



Tracklist:

CD1:

Karla Bonoff (1977):

01. Someone To Lay Down Beside Me (4:05)
02. I Can't Hold On (3:13)
03. Lose Again (3:39)
04. Home (4:18)
05. Faces In The Wind (3:06)
06. Isn't It Always Love (3:07)
07. If He's Ever Near (3:16)
08. Flying High (3:28)
09. Falling Star (4:29)
10. Rose in The Garden (4:43)

Restless Nights (1979):

11. Trouble Again (3:35)
12. Restless Nights (5:14)
13. The Letter (2:44)
14. When You Walk In The Room (2:57)
15. Only A Fool (6:01)
16. Baby Don't Go (3:18)
17. Never Stop Her Heart (4:46)
18. Loving You (3:23)
19. The Water Is Wide (4:58)

CD2:

01. Personally (3:38)
02. Please Be The One (4:07)
03. I Don't Want To Miss You (4:28)
04. Even If (4:05)
05. Just Walk Away (4:14)
06. Gonna Be Mine (3:59)
07. Wild Heart Of The Young (4:51)
08. It Just Takes One (4:41)
09. Dream (3:54)


Exact Audio Copy V1.3 from 2. September 2016

EAC extraction logfile from 8. May 2017, 15:28

Karla Bonoff / Karla Bonoff-Restless Nights-Wilde Heart Of The Young (CD1)

Used drive : HL-DT-STDVDRAM GH24NSB0 Adapter: 1 ID: 1

Read mode : Secure
Utilize accurate stream : Yes
Defeat audio cache : Yes
Make use of C2 pointers : No

Read offset correction : 6
Overread into Lead-In and Lead-Out : No
Fill up missing offset samples with silence : Yes
Delete leading and trailing silent blocks : No
Null samples used in CRC calculations : Yes
Used interface : Native Win32 interface for Win NT & 2000

Used output format : User Defined Encoder
Selected bitrate : 1024 kBit/s
Quality : High
Add ID3 tag : No
Command line compressor : C:\Program Files (x86)\Exact Audio Copy\Flac\flac.exe
Additional command line options : -V -6 %source% -o %dest%


TOC of the extracted CD

Track | Start | Length | Start sector | End sector
––––––––––––––––––––––––––––-
1 | 0:00.00 | 4:04.55 | 0 | 18354
2 | 4:04.55 | 3:13.30 | 18355 | 32859
3 | 7:18.10 | 3:39.28 | 32860 | 49312
4 | 10:57.38 | 4:18.07 | 49313 | 68669
5 | 15:15.45 | 3:06.28 | 68670 | 82647
6 | 18:21.73 | 3:06.66 | 82648 | 96663
7 | 21:28.64 | 3:16.24 | 96664 | 111387
8 | 24:45.13 | 3:27.71 | 111388 | 126983
9 | 28:13.09 | 4:28.52 | 126984 | 147135
10 | 32:41.61 | 4:42.51 | 147136 | 168336
11 | 37:24.37 | 3:34.49 | 168337 | 184435
12 | 40:59.11 | 5:14.25 | 184436 | 208010
13 | 46:13.36 | 2:43.73 | 208011 | 220308
14 | 48:57.34 | 2:56.46 | 220309 | 233554
15 | 51:54.05 | 6:01.29 | 233555 | 260658
16 | 57:55.34 | 3:18.13 | 260659 | 275521
17 | 61:13.47 | 4:45.45 | 275522 | 296941
18 | 65:59.17 | 3:23.31 | 296942 | 312197
19 | 69:22.48 | 4:58.16 | 312198 | 334563


Range status and errors

Selected range

Filename D:\WORKING\Karla Bonoff - Karla Bonoff-Restless Nights-Wilde Heart Of The Young (CD1).wav

Peak level 99.0 %
Extraction speed 8.0 X
Range quality 100.0 %
Test CRC FA50BBC3
Copy CRC FA50BBC3
Copy OK

No errors occurred


AccurateRip summary

Track 1 cannot be verified as accurate (confidence 6) [1E101123], AccurateRip returned [DF0262C8] (AR v2)
Track 2 cannot be verified as accurate (confidence 6) [846BC003], AccurateRip returned [3EC46650] (AR v2)
Track 3 cannot be verified as accurate (confidence 6) [650B3E98], AccurateRip returned [43A97FA2] (AR v2)
Track 4 cannot be verified as accurate (confidence 6) [30922053], AccurateRip returned [5B043413] (AR v2)
Track 5 cannot be verified as accurate (confidence 6) [811E8D1E], AccurateRip returned [74565DC2] (AR v2)
Track 6 cannot be verified as accurate (confidence 6) [B022B25A], AccurateRip returned [5E10E382] (AR v2)
Track 7 cannot be verified as accurate (confidence 6) [DED1F366], AccurateRip returned [43EC361E] (AR v2)
Track 8 cannot be verified as accurate (confidence 6) [3C35EA6E], AccurateRip returned [9EC7990D] (AR v2)
Track 9 cannot be verified as accurate (confidence 6) [5C08E8FF], AccurateRip returned [71395654] (AR v2)
Track 10 cannot be verified as accurate (confidence 6) [8EF68C7B], AccurateRip returned [8EE8917A] (AR v2)
Track 11 cannot be verified as accurate (confidence 5) [0FC2BEFA], AccurateRip returned [2F5F58F6] (AR v2)
Track 12 cannot be verified as accurate (confidence 5) [F2FA8869], AccurateRip returned [B4E5CEB4] (AR v2)
Track 13 cannot be verified as accurate (confidence 5) [8D6BDD29], AccurateRip returned [D4F3AB16] (AR v2)
Track 14 cannot be verified as accurate (confidence 5) [A2CCEF8F], AccurateRip returned [B33C1322] (AR v2)
Track 15 cannot be verified as accurate (confidence 5) [69C5DBF5], AccurateRip returned [11960489] (AR v2)
Track 16 cannot be verified as accurate (confidence 5) [5F6CAE9F], AccurateRip returned [0E32B23C] (AR v2)
Track 17 cannot be verified as accurate (confidence 5) [CB1C1BD5], AccurateRip returned [FB1888DF] (AR v2)
Track 18 cannot be verified as accurate (confidence 5) [C9E260D8], AccurateRip returned [2624CC5F] (AR v2)
Track 19 cannot be verified as accurate (confidence 5) [17F51A91], AccurateRip returned [ED779892] (AR v2)

No tracks could be verified as accurate
You may have a different pressing from the one(s) in the database

End of status report

–– CUETools DB Plugin V2.1.6

[CTDB TOCID: 4.E2IamMx71JKNVTHAua5hETNYs-] found
Submit result: 4.E2IamMx71JKNVTHAua5hETNYs- has been confirmed
Track | CTDB Status
1 | (12/12) Accurately ripped
2 | (12/12) Accurately ripped
3 | (12/12) Accurately ripped
4 | (12/12) Accurately ripped
5 | (12/12) Accurately ripped
6 | (12/12) Accurately ripped
7 | (12/12) Accurately ripped
8 | (12/12) Accurately ripped
9 | (12/12) Accurately ripped
10 | (12/12) Accurately ripped
11 | (12/12) Accurately ripped
12 | (12/12) Accurately ripped
13 | (12/12) Accurately ripped
14 | (12/12) Accurately ripped
15 | (11/12) Accurately ripped
16 | (12/12) Accurately ripped
17 | (12/12) Accurately ripped
18 | (12/12) Accurately ripped
19 | (12/12) Accurately ripped


==== Log checksum D6AA71505FED4C8A65D949CF4E163F1DF1FEA847F189B56B087372129A54550B ====

foobar2000 1.2 / Dynamic Range Meter 1.1.1
log date: 2017-05-09 01:34:09

––––––––––––––––––––––––––––––––––––––––
Analyzed: Karla Bonoff / Karla Bonoff-Restless Nights-Wild Heart Of The Young (CD1)
––––––––––––––––––––––––––––––––––––––––

DR Peak RMS Duration Track
––––––––––––––––––––––––––––––––––––––––
DR13 -0.46 dB -17.06 dB 4:05 01-Someone To Lay Down Beside Me
DR12 -0.96 dB -14.92 dB 3:13 02-I Can't Hold On
DR11 -1.33 dB -16.09 dB 3:39 03-Lose Again
DR13 -0.56 dB -16.02 dB 4:18 04-Home
DR13 -0.63 dB -17.60 dB 3:06 05-Faces In The Wind
DR13 -0.85 dB -16.08 dB 3:07 06-Isn't It Always Love
DR12 -0.55 dB -15.49 dB 3:16 07-If He's Ever Near
DR12 -0.52 dB -15.67 dB 3:28 08-Flying High
DR13 -0.46 dB -16.54 dB 4:29 09-Falling Star
DR12 -0.22 dB -17.20 dB 4:43 10-Rose in The Garden
DR13 -0.11 dB -15.61 dB 3:35 11-Trouble Again
DR12 -0.76 dB -15.93 dB 5:14 12-Restless Nights
DR13 -6.01 dB -22.46 dB 2:44 13-The Letter
DR11 -0.39 dB -13.53 dB 2:57 14-When You Walk In The Room
DR15 -1.14 dB -19.85 dB 6:01 15-Only A Fool
DR13 -0.10 dB -14.68 dB 3:18 16-Baby Don't Go
DR13 -0.08 dB -15.56 dB 4:46 17-Never Stop Her Heart
DR11 -0.31 dB -13.23 dB 3:23 18-Loving You
DR11 -2.11 dB -16.43 dB 4:58 19-The Water Is Wide
––––––––––––––––––––––––––––––––––––––––

Number of tracks: 19
Official DR value: DR12

Samplerate: 44100 Hz
Channels: 2
Bits per sample: 16
Bitrate: 791 kbps
Codec: FLAC
================================================================================


Exact Audio Copy V1.3 from 2. September 2016

EAC extraction logfile from 8. May 2017, 15:55

Karla Bonoff / Karla Bonoff - Karla Bonoff-Restless Nights-Wild Heart Of The Young (CD2)

Used drive : HL-DT-STDVDRAM GH24NSB0 Adapter: 1 ID: 1

Read mode : Secure
Utilize accurate stream : Yes
Defeat audio cache : Yes
Make use of C2 pointers : No

Read offset correction : 6
Overread into Lead-In and Lead-Out : No
Fill up missing offset samples with silence : Yes
Delete leading and trailing silent blocks : No
Null samples used in CRC calculations : Yes
Used interface : Native Win32 interface for Win NT & 2000

Used output format : User Defined Encoder
Selected bitrate : 1024 kBit/s
Quality : High
Add ID3 tag : No
Command line compressor : C:\Program Files (x86)\Exact Audio Copy\Flac\flac.exe
Additional command line options : -V -6 %source% -o %dest%


TOC of the extracted CD

Track | Start | Length | Start sector | End sector
––––––––––––––––––––––––––––-
1 | 0:00.00 | 3:38.05 | 0 | 16354
2 | 3:38.05 | 4:06.50 | 16355 | 34854
3 | 7:44.55 | 4:28.12 | 34855 | 54966
4 | 12:12.67 | 4:04.63 | 54967 | 73329
5 | 16:17.55 | 4:14.07 | 73330 | 92386
6 | 20:31.62 | 3:59.19 | 92387 | 110330
7 | 24:31.06 | 4:51.26 | 110331 | 132181
8 | 29:22.32 | 4:40.40 | 132182 | 153221
9 | 34:02.72 | 3:53.39 | 153222 | 170735


Range status and errors

Selected range

Filename D:\WORKING\Karla Bonoff - Karla Bonoff - Karla Bonoff-Restless Nights-Wild Heart Of The Young (CD2).wav

Peak level 99.8 %
Extraction speed 6.7 X
Range quality 100.0 %
Test CRC D838DD54
Copy CRC D838DD54
Copy OK

No errors occurred


AccurateRip summary

Track 1 cannot be verified as accurate (confidence 5) [ED915379], AccurateRip returned [5A6EE3C3] (AR v2)
Track 2 cannot be verified as accurate (confidence 5) [DECAEF06], AccurateRip returned [14FE7856] (AR v2)
Track 3 cannot be verified as accurate (confidence 5) [ACE5E7CF], AccurateRip returned [18A46DF6] (AR v2)
Track 4 cannot be verified as accurate (confidence 5) [ABD65F63], AccurateRip returned [EDE3F495] (AR v2)
Track 5 cannot be verified as accurate (confidence 5) [90741CF4], AccurateRip returned [1FF2B558] (AR v2)
Track 6 cannot be verified as accurate (confidence 5) [34E55F21], AccurateRip returned [FF404B2C] (AR v2)
Track 7 cannot be verified as accurate (confidence 5) [E998F51A], AccurateRip returned [F347F407] (AR v2)
Track 8 cannot be verified as accurate (confidence 5) [93E13A68], AccurateRip returned [CD712E32] (AR v2)
Track 9 cannot be verified as accurate (confidence 5) [FA87F6A2], AccurateRip returned [76EFD888] (AR v2)

No tracks could be verified as accurate
You may have a different pressing from the one(s) in the database

End of status report

–– CUETools DB Plugin V2.1.6

[CTDB TOCID: tuawRtfXlqwMSLHEjptrDITcwTw-] found
Submit result: tuawRtfXlqwMSLHEjptrDITcwTw- has been confirmed
Track | CTDB Status
1 | (13/13) Accurately ripped
2 | (13/13) Accurately ripped
3 | (13/13) Accurately ripped
4 | (13/13) Accurately ripped
5 | (13/13) Accurately ripped
6 | (13/13) Accurately ripped
7 | (13/13) Accurately ripped
8 | (13/13) Accurately ripped
9 | (13/13) Accurately ripped


==== Log checksum AD9EC2D0E28A1E6F045796CBC853B54158369752FE35C8F21E57BEEF9A965573 ====

foobar2000 1.2 / Dynamic Range Meter 1.1.1
log date: 2017-05-09 01:34:26

––––––––––––––––––––––––––––––––––––––––
Analyzed: Karla Bonoff / Karla Bonoff-Restless Nights-Wild Heart Of The Young (CD2)
––––––––––––––––––––––––––––––––––––––––

DR Peak RMS Duration Track
––––––––––––––––––––––––––––––––––––––––
DR12 -0.29 dB -14.96 dB 3:38 01-Personally
DR12 -1.51 dB -16.47 dB 4:07 02-Please Be The One
DR12 -0.01 dB -15.01 dB 4:28 03-I Don't Want To Miss You
DR12 -0.05 dB -15.67 dB 4:05 04-Even If
DR13 -0.01 dB -16.73 dB 4:14 05-Just Walk Away
DR14 -0.19 dB -16.58 dB 3:59 06-Gonna Be Mine
DR12 -0.04 dB -16.46 dB 4:51 07-Wild Heart Of The Young
DR13 -0.74 dB -16.59 dB 4:41 08-It Just Takes One
DR12 -0.29 dB -15.98 dB 3:54 09-Dream
––––––––––––––––––––––––––––––––––––––––

Number of tracks: 9
Official DR value: DR13

Samplerate: 44100 Hz
Channels: 2
Bits per sample: 16
Bitrate: 794 kbps
Codec: FLAC
================================================================================

Karla Bonoff - Karla Bonoff (1977); Restless Nights (1979); Wild Heart Of The Young (1982) 3 LP in 2 CD, Remastered 2013, Re-Up

Karla Bonoff - Karla Bonoff (1977); Restless Nights (1979); Wild Heart Of The Young (1982) 3 LP in 2 CD, Remastered 2013, Re-Up

All thanks to original releaser - doolykim

More interesting music in My Blog