Tags
Language
Tags

Kate Bush - Remastered Part I (7CD Edition) (2018)

Posted By: Pisulik
Kate Bush - Remastered Part I (7CD Edition) (2018)

Kate Bush - Remastered Part I (7CD Edition) (2018)
EAC Rip | FLAC (Tracks) +cue, log, m3u - 1.65 GB | 05:05:07
Pop, Pop Rock | Label: Fish People / Parlophone

One of the most successful and popular solo female performers to come out of England during the last several decades of the 20th century, Kate Bush was also one of the most unusual, with her keening vocals and unusually literate and complex body of songs. As a girl, Catherine Bush studied piano and violin while attending the St. Joseph's Convent Grammar School in Abbey Wood in South London. She also amused herself playing an organ in the barn behind her parents' house. By the time she was a teenager, Bush was writing songs of her own. A family friend, Ricky Hopper, heard her music and brought Bush to the attention of Pink Floyd lead guitarist David Gilmour, who arranged for the 15-year-old Bush to record her first demo. With Gilmour's help, Bush was signed to EMI Records at age 16, though the company made the decision to bring her along slowly. She studied dance, mime, and voice, and continued writing. She also began thinking in terms of which of the 200 or so songs she'd written would be part of her first recording, and by 1977, she was ready to begin her formal career, which she did with an original song, "Wuthering Heights," based on material from Emily Bronte's novel (and more directly inspired by Bush's seeing the 1970 film directed by Robert Fuest and starring Timothy Dalton and Anna Caulder Marshall).

TRACKLIST

The Kick Inside (1978)

01. Moving
02. The Saxophone Song
03. Strange Phenomena
04. Kite
05. The Man With The Child In His Eyes
06. Wuthering Heights
07. James And The Cold Gun
08. Feel It
09. Oh To Be In Love
10. L'Amour Looks Something Like You
11. Them Heavy People
12. Room For The Life
13. The Kick Inside

Exact Audio Copy V1.3 from 2. September 2016

EAC extraction logfile from 19. November 2018, 14:24

Kate Bush / The Kick Inside

Used drive : PIONEER BD-RW BDR-XD05 Adapter: 1 ID: 1

Read mode : Secure
Utilize accurate stream : Yes
Defeat audio cache : Yes
Make use of C2 pointers : No

Read offset correction : 667
Overread into Lead-In and Lead-Out : No
Fill up missing offset samples with silence : Yes
Delete leading and trailing silent blocks : No
Null samples used in CRC calculations : Yes
Used interface : Native Win32 interface for Win NT & 2000
Gap handling : Appended to previous track

Used output format : User Defined Encoder
Selected bitrate : 1024 kBit/s
Quality : High
Add ID3 tag : No
Command line compressor : C:\Program Files (x86)\Exact Audio Copy\FLAC\FLAC.EXE
Additional command line options : -8 -e -p -V -T "ARTIST=%artist%" -T "TITLE=%title%" -T "ALBUM=%albumtitle%" -T "DATE=%year%" -T "TRACKNUMBER=%tracknr%" -T "GENRE=%genre%" -T "PERFORMER=%albuminterpret%" -T "COMPOSER=%composer%" %haslyrics%–tag-from-file=LYRICS="%lyricsfile%"%haslyrics% -T "ALBUMARTIST=%albumartist%" -T "DISCNUMBER=%cdnumber%" -T "TOTALDISCS=%totalcds%" -T "TOTALTRACKS=%numtracks%" -T "COMMENT=%comment%" %source% -o %dest%


TOC of the extracted CD

Track | Start | Length | Start sector | End sector
––––––––––––––––––––––––––––-
1 | 0:00.00 | 3:01.54 | 0 | 13628
2 | 3:01.54 | 3:54.42 | 13629 | 31220
3 | 6:56.21 | 2:56.66 | 31221 | 44486
4 | 9:53.12 | 2:57.70 | 44487 | 57831
5 | 12:51.07 | 2:41.11 | 57832 | 69917
6 | 15:32.18 | 4:28.70 | 69918 | 90087
7 | 20:01.13 | 3:36.35 | 90088 | 106322
8 | 23:37.48 | 3:02.68 | 106323 | 120040
9 | 26:40.41 | 3:18.19 | 120041 | 134909
10 | 29:58.60 | 2:28.04 | 134910 | 146013
11 | 32:26.64 | 3:04.58 | 146014 | 159871
12 | 35:31.47 | 4:06.33 | 159872 | 178354
13 | 39:38.05 | 3:38.10 | 178355 | 194714


Track 1

Filename E:\Kate Bush - Remastered Part I (2018) [FLAC]\Kate Bush - The Kick Inside (1978) [FLAC] {2018}\01 - Moving.wav

Pre-gap length 0:00:02.00

Peak level 90.5 %
Extraction speed 2.7 X
Track quality 100.0 %
Test CRC A89A77F0
Copy CRC A89A77F0
Track not present in AccurateRip database
Copy OK

Track 2

Filename E:\Kate Bush - Remastered Part I (2018) [FLAC]\Kate Bush - The Kick Inside (1978) [FLAC] {2018}\02 - The Saxophone Song.wav

Peak level 88.2 %
Extraction speed 3.1 X
Track quality 100.0 %
Test CRC 1FC1A8A2
Copy CRC 1FC1A8A2
Track not present in AccurateRip database
Copy OK

Track 3

Filename E:\Kate Bush - Remastered Part I (2018) [FLAC]\Kate Bush - The Kick Inside (1978) [FLAC] {2018}\03 - Strange Phenomena.wav

Peak level 71.5 %
Extraction speed 3.2 X
Track quality 100.0 %
Test CRC E5F6454C
Copy CRC E5F6454C
Track not present in AccurateRip database
Copy OK

Track 4

Filename E:\Kate Bush - Remastered Part I (2018) [FLAC]\Kate Bush - The Kick Inside (1978) [FLAC] {2018}\04 - Kite.wav

Peak level 87.5 %
Extraction speed 2.9 X
Track quality 99.9 %
Test CRC E9A6B954
Copy CRC E9A6B954
Track not present in AccurateRip database
Copy OK

Track 5

Filename E:\Kate Bush - Remastered Part I (2018) [FLAC]\Kate Bush - The Kick Inside (1978) [FLAC] {2018}\05 - The Man With The Child In His Eyes.wav

Peak level 68.6 %
Extraction speed 3.4 X
Track quality 100.0 %
Test CRC BD4D540C
Copy CRC BD4D540C
Track not present in AccurateRip database
Copy OK

Track 6

Filename E:\Kate Bush - Remastered Part I (2018) [FLAC]\Kate Bush - The Kick Inside (1978) [FLAC] {2018}\06 - Wuthering Heights.wav

Peak level 89.9 %
Extraction speed 3.5 X
Track quality 99.9 %
Test CRC A15A8B76
Copy CRC A15A8B76
Track not present in AccurateRip database
Copy OK

Track 7

Filename E:\Kate Bush - Remastered Part I (2018) [FLAC]\Kate Bush - The Kick Inside (1978) [FLAC] {2018}\07 - James and the Cold Gun.wav

Peak level 87.5 %
Extraction speed 3.5 X
Track quality 99.9 %
Test CRC 8A2C0E1D
Copy CRC 8A2C0E1D
Track not present in AccurateRip database
Copy OK

Track 8

Filename E:\Kate Bush - Remastered Part I (2018) [FLAC]\Kate Bush - The Kick Inside (1978) [FLAC] {2018}\08 - Feel It.wav

Peak level 66.4 %
Extraction speed 3.4 X
Track quality 99.9 %
Test CRC 741ED221
Copy CRC 741ED221
Track not present in AccurateRip database
Copy OK

Track 9

Filename E:\Kate Bush - Remastered Part I (2018) [FLAC]\Kate Bush - The Kick Inside (1978) [FLAC] {2018}\09 - Oh To Be In Love.wav

Peak level 94.4 %
Extraction speed 4.3 X
Track quality 100.0 %
Test CRC A094CC41
Copy CRC A094CC41
Track not present in AccurateRip database
Copy OK

Track 10

Filename E:\Kate Bush - Remastered Part I (2018) [FLAC]\Kate Bush - The Kick Inside (1978) [FLAC] {2018}\10 - L'Amour Looks Something Like You.wav

Peak level 87.4 %
Extraction speed 3.4 X
Track quality 99.9 %
Test CRC D73E1243
Copy CRC D73E1243
Track not present in AccurateRip database
Copy OK

Track 11

Filename E:\Kate Bush - Remastered Part I (2018) [FLAC]\Kate Bush - The Kick Inside (1978) [FLAC] {2018}\11 - Them Heavy People.wav

Peak level 82.2 %
Extraction speed 4.4 X
Track quality 100.0 %
Test CRC 8F619357
Copy CRC 8F619357
Track not present in AccurateRip database
Copy OK

Track 12

Filename E:\Kate Bush - Remastered Part I (2018) [FLAC]\Kate Bush - The Kick Inside (1978) [FLAC] {2018}\12 - Room For The Life.wav

Peak level 83.3 %
Extraction speed 4.7 X
Track quality 100.0 %
Test CRC 57897D10
Copy CRC 57897D10
Track not present in AccurateRip database
Copy OK

Track 13

Filename E:\Kate Bush - Remastered Part I (2018) [FLAC]\Kate Bush - The Kick Inside (1978) [FLAC] {2018}\13 - The Kick Inside.wav

Peak level 61.8 %
Extraction speed 4.2 X
Track quality 99.9 %
Test CRC EB99C311
Copy CRC EB99C311
Track not present in AccurateRip database
Copy OK


None of the tracks are present in the AccurateRip database

No errors occurred

End of status report

–– CUETools DB Plugin V2.1.6

[CTDB TOCID: h0f2DVbs7n19a_eGrGru8vkmajU-] found
Submit result: h0f2DVbs7n19a_eGrGru8vkmajU- has been confirmed
Track | CTDB Status
1 | (17/17) Accurately ripped
2 | (17/17) Accurately ripped
3 | (17/17) Accurately ripped
4 | (17/17) Accurately ripped
5 | (17/17) Accurately ripped
6 | (17/17) Accurately ripped
7 | (17/17) Accurately ripped
8 | (17/17) Accurately ripped
9 | (17/17) Accurately ripped
10 | (17/17) Accurately ripped
11 | (17/17) Accurately ripped
12 | (17/17) Accurately ripped
13 | (17/17) Accurately ripped


==== Log checksum 0D5775BEFA13F22B03023349F97B4A7E958156EE77A3424BC8EAB7CB0694DEB0 ====


Lionheart (1978)

01. Symphony In Blue
02. In Search Of Peter Pan
03. Wow
04. Don't Push Your Foot On The Heartbrake
05. Oh England My Lionheart
06. Full House
07. In The Warm Room
08. Kashka From Baghdad
09. Coffee Homeground
10. Hammer Horror

Exact Audio Copy V1.3 from 2. September 2016

EAC extraction logfile from 19. November 2018, 14:55

Kate Bush / Lionheart

Used drive : PIONEER BD-RW BDR-XD05 Adapter: 1 ID: 1

Read mode : Secure
Utilize accurate stream : Yes
Defeat audio cache : Yes
Make use of C2 pointers : No

Read offset correction : 667
Overread into Lead-In and Lead-Out : No
Fill up missing offset samples with silence : Yes
Delete leading and trailing silent blocks : No
Null samples used in CRC calculations : Yes
Used interface : Native Win32 interface for Win NT & 2000
Gap handling : Appended to previous track

Used output format : User Defined Encoder
Selected bitrate : 1024 kBit/s
Quality : High
Add ID3 tag : No
Command line compressor : C:\Program Files (x86)\Exact Audio Copy\FLAC\FLAC.EXE
Additional command line options : -8 -e -p -V -T "ARTIST=%artist%" -T "TITLE=%title%" -T "ALBUM=%albumtitle%" -T "DATE=%year%" -T "TRACKNUMBER=%tracknr%" -T "GENRE=%genre%" -T "PERFORMER=%albuminterpret%" -T "COMPOSER=%composer%" %haslyrics%–tag-from-file=LYRICS="%lyricsfile%"%haslyrics% -T "ALBUMARTIST=%albumartist%" -T "DISCNUMBER=%cdnumber%" -T "TOTALDISCS=%totalcds%" -T "TOTALTRACKS=%numtracks%" -T "COMMENT=%comment%" %source% -o %dest%


TOC of the extracted CD

Track | Start | Length | Start sector | End sector
––––––––––––––––––––––––––––-
1 | 0:00.00 | 3:37.56 | 0 | 16330
2 | 3:37.56 | 3:47.07 | 16331 | 33362
3 | 7:24.63 | 4:01.07 | 33363 | 51444
4 | 11:25.70 | 3:15.58 | 51445 | 66127
5 | 14:41.53 | 3:12.15 | 66128 | 80542
6 | 17:53.68 | 3:14.32 | 80543 | 95124
7 | 21:08.25 | 3:36.06 | 95125 | 111330
8 | 24:44.31 | 3:56.58 | 111331 | 129088
9 | 28:41.14 | 3:39.05 | 129089 | 145518
10 | 32:20.19 | 4:42.31 | 145519 | 166699


Track 1

Filename E:\Kate Bush - Remastered Part I (2018) [FLAC]\Kate Bush - Lionheart (1978) [FLAC] {2018}\01 - Symphony in Blue.wav

Pre-gap length 0:00:02.00

Peak level 91.7 %
Extraction speed 2.8 X
Track quality 100.0 %
Test CRC 6C7CC154
Copy CRC 6C7CC154
Track not present in AccurateRip database
Copy OK

Track 2

Filename E:\Kate Bush - Remastered Part I (2018) [FLAC]\Kate Bush - Lionheart (1978) [FLAC] {2018}\02 - In Search of Peter Pan.wav

Peak level 100.0 %
Extraction speed 2.7 X
Track quality 99.9 %
Test CRC 49AD5569
Copy CRC 49AD5569
Track not present in AccurateRip database
Copy OK

Track 3

Filename E:\Kate Bush - Remastered Part I (2018) [FLAC]\Kate Bush - Lionheart (1978) [FLAC] {2018}\03 - Wow.wav

Peak level 88.9 %
Extraction speed 3.4 X
Track quality 100.0 %
Test CRC 9F0E126D
Copy CRC 9F0E126D
Track not present in AccurateRip database
Copy OK

Track 4

Filename E:\Kate Bush - Remastered Part I (2018) [FLAC]\Kate Bush - Lionheart (1978) [FLAC] {2018}\04 - Don't Push Your Foot on the Heartbrake.wav

Peak level 97.7 %
Extraction speed 3.5 X
Track quality 100.0 %
Test CRC FDF927B2
Copy CRC FDF927B2
Track not present in AccurateRip database
Copy OK

Track 5

Filename E:\Kate Bush - Remastered Part I (2018) [FLAC]\Kate Bush - Lionheart (1978) [FLAC] {2018}\05 - Oh England My Lionheart.wav

Peak level 63.6 %
Extraction speed 3.2 X
Track quality 99.9 %
Test CRC 74A70757
Copy CRC 74A70757
Track not present in AccurateRip database
Copy OK

Track 6

Filename E:\Kate Bush - Remastered Part I (2018) [FLAC]\Kate Bush - Lionheart (1978) [FLAC] {2018}\06 - Fullhouse.wav

Peak level 96.6 %
Extraction speed 3.8 X
Track quality 100.0 %
Test CRC 3638B740
Copy CRC 3638B740
Track not present in AccurateRip database
Copy OK

Track 7

Filename E:\Kate Bush - Remastered Part I (2018) [FLAC]\Kate Bush - Lionheart (1978) [FLAC] {2018}\07 - In the Warm Room.wav

Peak level 63.2 %
Extraction speed 4.1 X
Track quality 100.0 %
Test CRC 5DF600C9
Copy CRC 5DF600C9
Track not present in AccurateRip database
Copy OK

Track 8

Filename E:\Kate Bush - Remastered Part I (2018) [FLAC]\Kate Bush - Lionheart (1978) [FLAC] {2018}\08 - Kashka from Baghdad.wav

Peak level 96.1 %
Extraction speed 4.3 X
Track quality 100.0 %
Test CRC 6757B979
Copy CRC 6757B979
Track not present in AccurateRip database
Copy OK

Track 9

Filename E:\Kate Bush - Remastered Part I (2018) [FLAC]\Kate Bush - Lionheart (1978) [FLAC] {2018}\09 - Coffee Homeground.wav

Peak level 63.6 %
Extraction speed 4.4 X
Track quality 100.0 %
Test CRC CF2FB849
Copy CRC CF2FB849
Track not present in AccurateRip database
Copy OK

Track 10

Filename E:\Kate Bush - Remastered Part I (2018) [FLAC]\Kate Bush - Lionheart (1978) [FLAC] {2018}\10 - Hammer Horror.wav

Peak level 99.4 %
Extraction speed 4.7 X
Track quality 100.0 %
Test CRC A76FCBE6
Copy CRC A76FCBE6
Track not present in AccurateRip database
Copy OK


None of the tracks are present in the AccurateRip database

No errors occurred

End of status report

–– CUETools DB Plugin V2.1.6

[CTDB TOCID: 2jLQ0evHP7ZwhqKLEHdvzITG16s-] found
Submit result: 2jLQ0evHP7ZwhqKLEHdvzITG16s- has been confirmed
Track | CTDB Status
1 | (19/19) Accurately ripped
2 | (19/19) Accurately ripped
3 | (19/19) Accurately ripped
4 | (19/19) Accurately ripped
5 | (19/19) Accurately ripped
6 | (19/19) Accurately ripped
7 | (19/19) Accurately ripped
8 | (19/19) Accurately ripped
9 | (19/19) Accurately ripped
10 | (19/19) Accurately ripped


==== Log checksum BC50DC58D7F2C08FD18258009587FED8EB52FBABCE04F6FA54382144BF43A335 ====


Never For Ever (1980)

01. Babooshka
02. Delius
03. Blow Away
04. All We Ever Look For
05. Egypt
06. The Wedding List
07. Violin
08. The Infant Kiss
09. Night Scented Stock
10. Army Dreamers
11. Breathing

Exact Audio Copy V1.3 from 2. September 2016

EAC extraction logfile from 19. November 2018, 15:29

Kate Bush / Never for Ever

Used drive : PIONEER BD-RW BDR-XD05 Adapter: 1 ID: 1

Read mode : Secure
Utilize accurate stream : Yes
Defeat audio cache : Yes
Make use of C2 pointers : No

Read offset correction : 667
Overread into Lead-In and Lead-Out : No
Fill up missing offset samples with silence : Yes
Delete leading and trailing silent blocks : No
Null samples used in CRC calculations : Yes
Used interface : Native Win32 interface for Win NT & 2000
Gap handling : Appended to previous track

Used output format : User Defined Encoder
Selected bitrate : 1024 kBit/s
Quality : High
Add ID3 tag : No
Command line compressor : C:\Program Files (x86)\Exact Audio Copy\FLAC\FLAC.EXE
Additional command line options : -8 -e -p -V -T "ARTIST=%artist%" -T "TITLE=%title%" -T "ALBUM=%albumtitle%" -T "DATE=%year%" -T "TRACKNUMBER=%tracknr%" -T "GENRE=%genre%" -T "PERFORMER=%albuminterpret%" -T "COMPOSER=%composer%" %haslyrics%–tag-from-file=LYRICS="%lyricsfile%"%haslyrics% -T "ALBUMARTIST=%albumartist%" -T "DISCNUMBER=%cdnumber%" -T "TOTALDISCS=%totalcds%" -T "TOTALTRACKS=%numtracks%" -T "COMMENT=%comment%" %source% -o %dest%


TOC of the extracted CD

Track | Start | Length | Start sector | End sector
––––––––––––––––––––––––––––-
1 | 0:00.00 | 3:20.05 | 0 | 15004
2 | 3:20.05 | 2:51.26 | 15005 | 27855
3 | 6:11.31 | 3:34.13 | 27856 | 43918
4 | 9:45.44 | 3:47.62 | 43919 | 61005
5 | 13:33.31 | 4:11.31 | 61006 | 79861
6 | 17:44.62 | 4:15.28 | 79862 | 99014
7 | 22:00.15 | 3:15.14 | 99015 | 113653
8 | 25:15.29 | 2:49.31 | 113654 | 126359
9 | 28:04.60 | 0:52.14 | 126360 | 130273
10 | 28:56.74 | 2:59.12 | 130274 | 143710
11 | 31:56.11 | 5:32.47 | 143711 | 168657


Track 1

Filename E:\Kate Bush - Remastered Part I (2018) [FLAC]\Kate Bush - Never for Ever (1980) [FLAC] {2018}\01 - Babooshka.wav

Pre-gap length 0:00:02.00

Peak level 89.6 %
Extraction speed 2.7 X
Track quality 100.0 %
Test CRC 85F629DD
Copy CRC 85F629DD
Track not present in AccurateRip database
Copy OK

Track 2

Filename E:\Kate Bush - Remastered Part I (2018) [FLAC]\Kate Bush - Never for Ever (1980) [FLAC] {2018}\02 - Delius (Song of Summer).wav

Peak level 60.9 %
Extraction speed 2.9 X
Track quality 100.0 %
Test CRC B400C5AF
Copy CRC B400C5AF
Track not present in AccurateRip database
Copy OK

Track 3

Filename E:\Kate Bush - Remastered Part I (2018) [FLAC]\Kate Bush - Never for Ever (1980) [FLAC] {2018}\03 - Blow Away.wav

Peak level 85.5 %
Extraction speed 3.2 X
Track quality 100.0 %
Test CRC DA2EFD49
Copy CRC DA2EFD49
Track not present in AccurateRip database
Copy OK

Track 4

Filename E:\Kate Bush - Remastered Part I (2018) [FLAC]\Kate Bush - Never for Ever (1980) [FLAC] {2018}\04 - All We Ever Look For.wav

Peak level 82.8 %
Extraction speed 3.5 X
Track quality 100.0 %
Test CRC AC61A3EE
Copy CRC AC61A3EE
Track not present in AccurateRip database
Copy OK

Track 5

Filename E:\Kate Bush - Remastered Part I (2018) [FLAC]\Kate Bush - Never for Ever (1980) [FLAC] {2018}\05 - Egypt.wav

Peak level 86.5 %
Extraction speed 3.8 X
Track quality 100.0 %
Test CRC 068401BF
Copy CRC 068401BF
Track not present in AccurateRip database
Copy OK

Track 6

Filename E:\Kate Bush - Remastered Part I (2018) [FLAC]\Kate Bush - Never for Ever (1980) [FLAC] {2018}\06 - The Wedding List.wav

Peak level 95.2 %
Extraction speed 4.0 X
Track quality 100.0 %
Test CRC 31995663
Copy CRC 31995663
Track not present in AccurateRip database
Copy OK

Track 7

Filename E:\Kate Bush - Remastered Part I (2018) [FLAC]\Kate Bush - Never for Ever (1980) [FLAC] {2018}\07 - Violin.wav

Peak level 83.0 %
Extraction speed 3.5 X
Track quality 99.9 %
Test CRC 270AB9BE
Copy CRC 270AB9BE
Track not present in AccurateRip database
Copy OK

Track 8

Filename E:\Kate Bush - Remastered Part I (2018) [FLAC]\Kate Bush - Never for Ever (1980) [FLAC] {2018}\08 - The Infant Kiss.wav

Peak level 75.6 %
Extraction speed 4.1 X
Track quality 100.0 %
Test CRC DB4BD8E3
Copy CRC DB4BD8E3
Track not present in AccurateRip database
Copy OK

Track 9

Filename E:\Kate Bush - Remastered Part I (2018) [FLAC]\Kate Bush - Never for Ever (1980) [FLAC] {2018}\09 - Night Scented Stock.wav

Peak level 53.3 %
Extraction speed 2.9 X
Track quality 100.0 %
Test CRC 1083C8FD
Copy CRC 1083C8FD
Track not present in AccurateRip database
Copy OK

Track 10

Filename E:\Kate Bush - Remastered Part I (2018) [FLAC]\Kate Bush - Never for Ever (1980) [FLAC] {2018}\10 - Army Dreamers.wav

Peak level 78.0 %
Extraction speed 4.3 X
Track quality 100.0 %
Test CRC F310DDA1
Copy CRC F310DDA1
Track not present in AccurateRip database
Copy OK

Track 11

Filename E:\Kate Bush - Remastered Part I (2018) [FLAC]\Kate Bush - Never for Ever (1980) [FLAC] {2018}\11 - Breathing.wav

Peak level 92.3 %
Extraction speed 4.8 X
Track quality 100.0 %
Test CRC 8632A2BB
Copy CRC 8632A2BB
Track not present in AccurateRip database
Copy OK


None of the tracks are present in the AccurateRip database

No errors occurred

End of status report

–– CUETools DB Plugin V2.1.6

[CTDB TOCID: J1fmNJ.TYQusd93Nm575xynSyic-] found
Submit result: J1fmNJ.TYQusd93Nm575xynSyic- has been confirmed
Track | CTDB Status
1 | (16/16) Accurately ripped
2 | (16/16) Accurately ripped
3 | (16/16) Accurately ripped
4 | (16/16) Accurately ripped
5 | (16/16) Accurately ripped
6 | (16/16) Accurately ripped
7 | (16/16) Accurately ripped
8 | (16/16) Accurately ripped
9 | (16/16) Accurately ripped
10 | (16/16) Accurately ripped
11 | (16/16) Accurately ripped


==== Log checksum 134A5215E8F218FE7C15F65880826BD312CAAFA193639D839C12BCC1FB13DE11 ====


The Dreaming (1982)

01. Sat In Your Lap
02. There Goes A Tenner
03. Pull Out The Pin
04. Suspended In Gaffa
05. Leave It Open
06. The Dreaming
07. Night Of The Swallow
08. All The Love
09. Houdini
10. Get Out Of My House

Exact Audio Copy V1.3 from 2. September 2016

EAC extraction logfile from 19. November 2018, 16:12

Kate Bush / The Dreaming

Used drive : PIONEER BD-RW BDR-XD05 Adapter: 1 ID: 1

Read mode : Secure
Utilize accurate stream : Yes
Defeat audio cache : Yes
Make use of C2 pointers : No

Read offset correction : 667
Overread into Lead-In and Lead-Out : No
Fill up missing offset samples with silence : Yes
Delete leading and trailing silent blocks : No
Null samples used in CRC calculations : Yes
Used interface : Native Win32 interface for Win NT & 2000
Gap handling : Appended to previous track

Used output format : User Defined Encoder
Selected bitrate : 1024 kBit/s
Quality : High
Add ID3 tag : No
Command line compressor : C:\Program Files (x86)\Exact Audio Copy\FLAC\FLAC.EXE
Additional command line options : -8 -e -p -V -T "ARTIST=%artist%" -T "TITLE=%title%" -T "ALBUM=%albumtitle%" -T "DATE=%year%" -T "TRACKNUMBER=%tracknr%" -T "GENRE=%genre%" -T "PERFORMER=%albuminterpret%" -T "COMPOSER=%composer%" %haslyrics%–tag-from-file=LYRICS="%lyricsfile%"%haslyrics% -T "ALBUMARTIST=%albumartist%" -T "DISCNUMBER=%cdnumber%" -T "TOTALDISCS=%totalcds%" -T "TOTALTRACKS=%numtracks%" -T "COMMENT=%comment%" %source% -o %dest%


TOC of the extracted CD

Track | Start | Length | Start sector | End sector
––––––––––––––––––––––––––––-
1 | 0:00.00 | 3:30.11 | 0 | 15760
2 | 3:30.11 | 3:24.67 | 15761 | 31127
3 | 6:55.03 | 5:25.59 | 31128 | 55561
4 | 12:20.62 | 3:54.41 | 55562 | 73152
5 | 16:15.28 | 3:19.72 | 73153 | 88149
6 | 19:35.25 | 4:40.66 | 88150 | 109215
7 | 24:16.16 | 5:22.17 | 109216 | 133382
8 | 29:38.33 | 4:28.52 | 133383 | 153534
9 | 34:07.10 | 3:49.18 | 153535 | 170727
10 | 37:56.28 | 5:27.48 | 170728 | 195300


Track 1

Filename E:\Kate Bush - Remastered Part I (2018) [FLAC]\Kate Bush - The Dreaming (1982) [FLAC] {2018}\01 - Sat In Your Lap.wav

Pre-gap length 0:00:02.00

Peak level 91.3 %
Extraction speed 2.4 X
Track quality 99.9 %
Test CRC E23D8204
Copy CRC E23D8204
Track not present in AccurateRip database
Copy OK

Track 2

Filename E:\Kate Bush - Remastered Part I (2018) [FLAC]\Kate Bush - The Dreaming (1982) [FLAC] {2018}\02 - There Goes a Tenner.wav

Peak level 81.2 %
Extraction speed 3.0 X
Track quality 100.0 %
Test CRC 7AC62D62
Copy CRC 7AC62D62
Track not present in AccurateRip database
Copy OK

Track 3

Filename E:\Kate Bush - Remastered Part I (2018) [FLAC]\Kate Bush - The Dreaming (1982) [FLAC] {2018}\03 - Pull Out the Pin.wav

Peak level 79.3 %
Extraction speed 3.5 X
Track quality 100.0 %
Test CRC AB1E6E64
Copy CRC AB1E6E64
Track not present in AccurateRip database
Copy OK

Track 4

Filename E:\Kate Bush - Remastered Part I (2018) [FLAC]\Kate Bush - The Dreaming (1982) [FLAC] {2018}\04 - Suspended in Gaffa.wav

Peak level 74.3 %
Extraction speed 3.6 X
Track quality 100.0 %
Test CRC 84B2538D
Copy CRC 84B2538D
Track not present in AccurateRip database
Copy OK

Track 5

Filename E:\Kate Bush - Remastered Part I (2018) [FLAC]\Kate Bush - The Dreaming (1982) [FLAC] {2018}\05 - Leave It Open.wav

Peak level 92.1 %
Extraction speed 3.8 X
Track quality 100.0 %
Test CRC A1AA3B41
Copy CRC A1AA3B41
Track not present in AccurateRip database
Copy OK

Track 6

Filename E:\Kate Bush - Remastered Part I (2018) [FLAC]\Kate Bush - The Dreaming (1982) [FLAC] {2018}\06 - The Dreaming.wav

Peak level 100.0 %
Extraction speed 3.7 X
Track quality 99.9 %
Test CRC 3A229485
Copy CRC 3A229485
Track not present in AccurateRip database
Copy OK

Track 7

Filename E:\Kate Bush - Remastered Part I (2018) [FLAC]\Kate Bush - The Dreaming (1982) [FLAC] {2018}\07 - Night of the Swallow.wav

Peak level 90.9 %
Extraction speed 4.5 X
Track quality 100.0 %
Test CRC F9288A09
Copy CRC F9288A09
Track not present in AccurateRip database
Copy OK

Track 8

Filename E:\Kate Bush - Remastered Part I (2018) [FLAC]\Kate Bush - The Dreaming (1982) [FLAC] {2018}\08 - All the Love.wav

Peak level 69.0 %
Extraction speed 4.5 X
Track quality 100.0 %
Test CRC 8D418534
Copy CRC 8D418534
Track not present in AccurateRip database
Copy OK

Track 9

Filename E:\Kate Bush - Remastered Part I (2018) [FLAC]\Kate Bush - The Dreaming (1982) [FLAC] {2018}\09 - Houdini.wav

Peak level 75.3 %
Extraction speed 4.6 X
Track quality 100.0 %
Test CRC 4826BEC1
Copy CRC 4826BEC1
Track not present in AccurateRip database
Copy OK

Track 10

Filename E:\Kate Bush - Remastered Part I (2018) [FLAC]\Kate Bush - The Dreaming (1982) [FLAC] {2018}\10 - Get Out of My House.wav

Peak level 77.7 %
Extraction speed 5.0 X
Track quality 100.0 %
Test CRC CE93AD38
Copy CRC CE93AD38
Track not present in AccurateRip database
Copy OK


None of the tracks are present in the AccurateRip database

No errors occurred

End of status report

–– CUETools DB Plugin V2.1.6

[CTDB TOCID: rdE8SbPmBRFTNY_uI2q47xVEHUs-] found
Submit result: rdE8SbPmBRFTNY_uI2q47xVEHUs- has been confirmed
Track | CTDB Status
1 | (18/18) Accurately ripped
2 | (18/18) Accurately ripped
3 | (18/18) Accurately ripped
4 | (18/18) Accurately ripped
5 | (18/18) Accurately ripped
6 | (18/18) Accurately ripped
7 | (18/18) Accurately ripped
8 | (18/18) Accurately ripped
9 | (18/18) Accurately ripped
10 | (18/18) Accurately ripped


==== Log checksum 7BA357D6510260F30F3B03BD0B5DF2EE1B3D22EE9ECFE0DA96B2274EF1E03BF5 ====


Hounds Of Love (1985)

01. Running Up That Hill (A Deal With God)
02. Hounds Of Love
03. The Big Sky (7" Mix)
04. Mother Stands For Comfort
05. Cloudbusting

Hounds Of Love - The Ninth Wave

06. And Dream Of Sheep
07. Under Ice
08. Waking The Witch
09. Watching You Without Me
10. Jig Of Life
11. Hello Earth
12. The Morning Fog

Exact Audio Copy V1.3 from 2. September 2016

EAC extraction logfile from 19. November 2018, 16:47

Kate Bush / Hounds of Love

Used drive : PIONEER BD-RW BDR-XD05 Adapter: 1 ID: 1

Read mode : Secure
Utilize accurate stream : Yes
Defeat audio cache : Yes
Make use of C2 pointers : No

Read offset correction : 667
Overread into Lead-In and Lead-Out : No
Fill up missing offset samples with silence : Yes
Delete leading and trailing silent blocks : No
Null samples used in CRC calculations : Yes
Used interface : Native Win32 interface for Win NT & 2000
Gap handling : Appended to previous track

Used output format : User Defined Encoder
Selected bitrate : 1024 kBit/s
Quality : High
Add ID3 tag : No
Command line compressor : C:\Program Files (x86)\Exact Audio Copy\FLAC\FLAC.EXE
Additional command line options : -8 -e -p -V -T "ARTIST=%artist%" -T "TITLE=%title%" -T "ALBUM=%albumtitle%" -T "DATE=%year%" -T "TRACKNUMBER=%tracknr%" -T "GENRE=%genre%" -T "PERFORMER=%albuminterpret%" -T "COMPOSER=%composer%" %haslyrics%–tag-from-file=LYRICS="%lyricsfile%"%haslyrics% -T "ALBUMARTIST=%albumartist%" -T "DISCNUMBER=%cdnumber%" -T "TOTALDISCS=%totalcds%" -T "TOTALTRACKS=%numtracks%" -T "COMMENT=%comment%" %source% -o %dest%


TOC of the extracted CD

Track | Start | Length | Start sector | End sector
––––––––––––––––––––––––––––-
1 | 0:00.00 | 5:01.51 | 0 | 22625
2 | 5:01.51 | 3:02.65 | 22626 | 36340
3 | 8:04.41 | 4:35.65 | 36341 | 57030
4 | 12:40.31 | 3:08.13 | 57031 | 71143
5 | 15:48.44 | 5:09.73 | 71144 | 94391
6 | 20:58.42 | 2:45.01 | 94392 | 106767
7 | 23:43.43 | 2:22.24 | 106768 | 117441
8 | 26:05.67 | 4:18.21 | 117442 | 136812
9 | 30:24.13 | 4:07.04 | 136813 | 155341
10 | 34:31.17 | 4:03.55 | 155342 | 173621
11 | 38:34.72 | 6:12.49 | 173622 | 201570
12 | 44:47.46 | 2:37.66 | 201571 | 213411


Track 1

Filename E:\Kate Bush - Remastered Part I (2018) [FLAC]\Kate Bush - Hounds of Love (1985) [FLAC] {2018}\01 - Running Up That Hill (A Deal with God).wav

Pre-gap length 0:00:02.00

Peak level 100.0 %
Extraction speed 3.0 X
Track quality 100.0 %
Test CRC 07833DF7
Copy CRC 07833DF7
Track not present in AccurateRip database
Copy OK

Track 2

Filename E:\Kate Bush - Remastered Part I (2018) [FLAC]\Kate Bush - Hounds of Love (1985) [FLAC] {2018}\02 - Hounds of Love.wav

Peak level 100.0 %
Extraction speed 3.1 X
Track quality 100.0 %
Test CRC BBD5AD2A
Copy CRC BBD5AD2A
Track not present in AccurateRip database
Copy OK

Track 3

Filename E:\Kate Bush - Remastered Part I (2018) [FLAC]\Kate Bush - Hounds of Love (1985) [FLAC] {2018}\03 - The Big Sky (7'' Mix).wav

Peak level 99.1 %
Extraction speed 3.1 X
Track quality 99.9 %
Test CRC B566B522
Copy CRC B566B522
Track not present in AccurateRip database
Copy OK

Track 4

Filename E:\Kate Bush - Remastered Part I (2018) [FLAC]\Kate Bush - Hounds of Love (1985) [FLAC] {2018}\04 - Mother Stands for Comfort.wav

Peak level 75.0 %
Extraction speed 3.5 X
Track quality 100.0 %
Test CRC B08EADC7
Copy CRC B08EADC7
Track not present in AccurateRip database
Copy OK

Track 5

Filename E:\Kate Bush - Remastered Part I (2018) [FLAC]\Kate Bush - Hounds of Love (1985) [FLAC] {2018}\05 - Cloudbusting.wav

Peak level 97.0 %
Extraction speed 4.0 X
Track quality 100.0 %
Test CRC 16FB3D3D
Copy CRC 16FB3D3D
Track not present in AccurateRip database
Copy OK

Track 6

Filename E:\Kate Bush - Remastered Part I (2018) [FLAC]\Kate Bush - Hounds of Love (1985) [FLAC] {2018}\06 - And Dream of Sheep.wav

Peak level 68.8 %
Extraction speed 3.3 X
Track quality 99.9 %
Test CRC 6BD6AE8D
Copy CRC 6BD6AE8D
Track not present in AccurateRip database
Copy OK

Track 7

Filename E:\Kate Bush - Remastered Part I (2018) [FLAC]\Kate Bush - Hounds of Love (1985) [FLAC] {2018}\07 - Under Ice.wav

Peak level 80.5 %
Extraction speed 3.8 X
Track quality 100.0 %
Test CRC C8225AFA
Copy CRC C8225AFA
Track not present in AccurateRip database
Copy OK

Track 8

Filename E:\Kate Bush - Remastered Part I (2018) [FLAC]\Kate Bush - Hounds of Love (1985) [FLAC] {2018}\08 - Waking the Witch.wav

Peak level 100.0 %
Extraction speed 3.9 X
Track quality 99.9 %
Test CRC FBF7DC49
Copy CRC FBF7DC49
Track not present in AccurateRip database
Copy OK

Track 9

Filename E:\Kate Bush - Remastered Part I (2018) [FLAC]\Kate Bush - Hounds of Love (1985) [FLAC] {2018}\09 - Watching You Without Me.wav

Peak level 94.2 %
Extraction speed 4.5 X
Track quality 100.0 %
Test CRC FD5D877E
Copy CRC FD5D877E
Track not present in AccurateRip database
Copy OK

Track 10

Filename E:\Kate Bush - Remastered Part I (2018) [FLAC]\Kate Bush - Hounds of Love (1985) [FLAC] {2018}\10 - Jig of Life.wav

Peak level 95.3 %
Extraction speed 4.7 X
Track quality 100.0 %
Test CRC 8C9C49BA
Copy CRC 8C9C49BA
Track not present in AccurateRip database
Copy OK

Track 11

Filename E:\Kate Bush - Remastered Part I (2018) [FLAC]\Kate Bush - Hounds of Love (1985) [FLAC] {2018}\11 - Hello Earth.wav

Peak level 95.8 %
Extraction speed 5.1 X
Track quality 100.0 %
Test CRC 209A97D4
Copy CRC 209A97D4
Track not present in AccurateRip database
Copy OK

Track 12

Filename E:\Kate Bush - Remastered Part I (2018) [FLAC]\Kate Bush - Hounds of Love (1985) [FLAC] {2018}\12 - The Morning Fog.wav

Peak level 93.8 %
Extraction speed 4.7 X
Track quality 100.0 %
Test CRC A587D090
Copy CRC A587D090
Track not present in AccurateRip database
Copy OK


None of the tracks are present in the AccurateRip database

No errors occurred

End of status report

–– CUETools DB Plugin V2.1.6

[CTDB TOCID: HhbsSn2l8PnE1Bub.pNyV09ig3U-] found
Submit result: HhbsSn2l8PnE1Bub.pNyV09ig3U- has been confirmed
Track | CTDB Status
1 | (19/19) Accurately ripped
2 | (19/19) Accurately ripped
3 | (19/19) Accurately ripped
4 | (19/19) Accurately ripped
5 | (19/19) Accurately ripped
6 | (19/19) Accurately ripped
7 | (19/19) Accurately ripped
8 | (19/19) Accurately ripped
9 | (19/19) Accurately ripped
10 | (19/19) Accurately ripped
11 | (19/19) Accurately ripped
12 | (19/19) Accurately ripped


==== Log checksum AC4E4771D5960D91BF59B840C085DAEFAAFEE89E614F29B47E43CF76F5C4F98C ====


The Sensual World (1989)

01. The Sensual World
02. Love And Anger
03. The Fog
04. Reaching Out
05. Heads We're Dancing
06. Deeper Understanding
07. Between A Man And A Woman
08. Never Be Mine
09. Rocket's Tail
10. This Woman's Work

Exact Audio Copy V1.3 from 2. September 2016

EAC extraction logfile from 19. November 2018, 17:21

Kate Bush / The Sensual World

Used drive : PIONEER BD-RW BDR-XD05 Adapter: 1 ID: 1

Read mode : Secure
Utilize accurate stream : Yes
Defeat audio cache : Yes
Make use of C2 pointers : No

Read offset correction : 667
Overread into Lead-In and Lead-Out : No
Fill up missing offset samples with silence : Yes
Delete leading and trailing silent blocks : No
Null samples used in CRC calculations : Yes
Used interface : Native Win32 interface for Win NT & 2000
Gap handling : Appended to previous track

Used output format : User Defined Encoder
Selected bitrate : 1024 kBit/s
Quality : High
Add ID3 tag : No
Command line compressor : C:\Program Files (x86)\Exact Audio Copy\FLAC\FLAC.EXE
Additional command line options : -8 -e -p -V -T "ARTIST=%artist%" -T "TITLE=%title%" -T "ALBUM=%albumtitle%" -T "DATE=%year%" -T "TRACKNUMBER=%tracknr%" -T "GENRE=%genre%" -T "PERFORMER=%albuminterpret%" -T "COMPOSER=%composer%" %haslyrics%–tag-from-file=LYRICS="%lyricsfile%"%haslyrics% -T "ALBUMARTIST=%albumartist%" -T "DISCNUMBER=%cdnumber%" -T "TOTALDISCS=%totalcds%" -T "TOTALTRACKS=%numtracks%" -T "COMMENT=%comment%" %source% -o %dest%


TOC of the extracted CD

Track | Start | Length | Start sector | End sector
––––––––––––––––––––––––––––-
1 | 0:00.00 | 3:57.70 | 0 | 17844
2 | 3:57.70 | 4:42.13 | 17845 | 39007
3 | 8:40.08 | 5:06.65 | 39008 | 62022
4 | 13:46.73 | 3:12.39 | 62023 | 76461
5 | 16:59.37 | 5:20.43 | 76462 | 100504
6 | 22:20.05 | 4:45.72 | 100505 | 121951
7 | 27:06.02 | 3:30.12 | 121952 | 137713
8 | 30:36.14 | 3:44.57 | 137714 | 154570
9 | 34:20.71 | 4:07.16 | 154571 | 173111
10 | 38:28.12 | 3:38.35 | 173112 | 189496


Track 1

Filename E:\Kate Bush - Remastered Part I (2018) [FLAC]\Kate Bush - The Sensual World (1989) [FLAC] {2018}\01 - The Sensual World.wav

Pre-gap length 0:00:02.00

Peak level 86.0 %
Extraction speed 2.9 X
Track quality 100.0 %
Test CRC C42CADA9
Copy CRC C42CADA9
Track not present in AccurateRip database
Copy OK

Track 2

Filename E:\Kate Bush - Remastered Part I (2018) [FLAC]\Kate Bush - The Sensual World (1989) [FLAC] {2018}\02 - Love and Anger.wav

Peak level 87.7 %
Extraction speed 2.9 X
Track quality 99.9 %
Test CRC 8F12756D
Copy CRC 8F12756D
Track not present in AccurateRip database
Copy OK

Track 3

Filename E:\Kate Bush - Remastered Part I (2018) [FLAC]\Kate Bush - The Sensual World (1989) [FLAC] {2018}\03 - The Fog.wav

Pre-gap length 0:00:00.02

Peak level 75.8 %
Extraction speed 3.6 X
Track quality 100.0 %
Test CRC 35C21E80
Copy CRC 35C21E80
Track not present in AccurateRip database
Copy OK

Track 4

Filename E:\Kate Bush - Remastered Part I (2018) [FLAC]\Kate Bush - The Sensual World (1989) [FLAC] {2018}\04 - Reaching Out.wav

Pre-gap length 0:00:00.02

Peak level 86.0 %
Extraction speed 3.6 X
Track quality 100.0 %
Test CRC 0E36CF6A
Copy CRC 0E36CF6A
Track not present in AccurateRip database
Copy OK

Track 5

Filename E:\Kate Bush - Remastered Part I (2018) [FLAC]\Kate Bush - The Sensual World (1989) [FLAC] {2018}\05 - Heads We're Dancing.wav

Pre-gap length 0:00:00.02

Peak level 98.7 %
Extraction speed 4.1 X
Track quality 100.0 %
Test CRC 50569C52
Copy CRC 50569C52
Track not present in AccurateRip database
Copy OK

Track 6

Filename E:\Kate Bush - Remastered Part I (2018) [FLAC]\Kate Bush - The Sensual World (1989) [FLAC] {2018}\06 - Deeper Understanding.wav

Pre-gap length 0:00:00.02

Peak level 87.6 %
Extraction speed 4.3 X
Track quality 100.0 %
Test CRC 988CED3B
Copy CRC 988CED3B
Track not present in AccurateRip database
Copy OK

Track 7

Filename E:\Kate Bush - Remastered Part I (2018) [FLAC]\Kate Bush - The Sensual World (1989) [FLAC] {2018}\07 - Between a Man and a Woman.wav

Pre-gap length 0:00:00.02

Peak level 99.6 %
Extraction speed 3.7 X
Track quality 99.9 %
Test CRC 7F6180F5
Copy CRC 7F6180F5
Track not present in AccurateRip database
Copy OK

Track 8

Filename E:\Kate Bush - Remastered Part I (2018) [FLAC]\Kate Bush - The Sensual World (1989) [FLAC] {2018}\08 - Never Be Mine.wav

Pre-gap length 0:00:00.02

Peak level 75.8 %
Extraction speed 3.9 X
Track quality 99.9 %
Test CRC DE2F85BA
Copy CRC DE2F85BA
Track not present in AccurateRip database
Copy OK

Track 9

Filename E:\Kate Bush - Remastered Part I (2018) [FLAC]\Kate Bush - The Sensual World (1989) [FLAC] {2018}\09 - Rocket's Tail.wav

Pre-gap length 0:00:00.02

Peak level 99.5 %
Extraction speed 4.7 X
Track quality 100.0 %
Test CRC 5FA719DD
Copy CRC 5FA719DD
Track not present in AccurateRip database
Copy OK

Track 10

Filename E:\Kate Bush - Remastered Part I (2018) [FLAC]\Kate Bush - The Sensual World (1989) [FLAC] {2018}\10 - This Woman's Work.wav

Pre-gap length 0:00:00.02

Peak level 81.2 %
Extraction speed 4.2 X
Track quality 99.9 %
Test CRC 61EE84A6
Copy CRC 61EE84A6
Track not present in AccurateRip database
Copy OK


None of the tracks are present in the AccurateRip database

No errors occurred

End of status report

–– CUETools DB Plugin V2.1.6

[CTDB TOCID: Y__sAMcqc50pK4ZbsgCrAanG6dE-] found
Submit result: Y__sAMcqc50pK4ZbsgCrAanG6dE- has been confirmed
Track | CTDB Status
1 | (18/18) Accurately ripped
2 | (18/18) Accurately ripped
3 | (18/18) Accurately ripped
4 | (18/18) Accurately ripped
5 | (18/18) Accurately ripped
6 | (18/18) Accurately ripped
7 | (18/18) Accurately ripped
8 | (18/18) Accurately ripped
9 | (18/18) Accurately ripped
10 | (18/18) Accurately ripped


==== Log checksum B2E26FF8B0A9688F093C8CA06FB8A60736E0DB94A5ACE45E87BD2E6A10C3D837 ====


The Red Shoes (1993)

01. Rubberband Girl
02. And So Is Love
03. Eat The Music
04. Moments Of Pleasure
05. The Song Of Solomon
06. Lily
07. The Red Shoes
08. Top Of The City
09. Constellation Of The Heart
10. Big Stripey Lie
11. Why Should I Love You?
12. You're The One

Exact Audio Copy V1.3 from 2. September 2016

EAC extraction logfile from 19. November 2018, 18:13

Kate Bush / The Red Shoes

Used drive : PIONEER BD-RW BDR-XD05 Adapter: 1 ID: 1

Read mode : Secure
Utilize accurate stream : Yes
Defeat audio cache : Yes
Make use of C2 pointers : No

Read offset correction : 667
Overread into Lead-In and Lead-Out : No
Fill up missing offset samples with silence : Yes
Delete leading and trailing silent blocks : No
Null samples used in CRC calculations : Yes
Used interface : Native Win32 interface for Win NT & 2000
Gap handling : Appended to previous track

Used output format : User Defined Encoder
Selected bitrate : 1024 kBit/s
Quality : High
Add ID3 tag : No
Command line compressor : C:\Program Files (x86)\Exact Audio Copy\FLAC\FLAC.EXE
Additional command line options : -8 -e -p -V -T "ARTIST=%artist%" -T "TITLE=%title%" -T "ALBUM=%albumtitle%" -T "DATE=%year%" -T "TRACKNUMBER=%tracknr%" -T "GENRE=%genre%" -T "PERFORMER=%albuminterpret%" -T "COMPOSER=%composer%" %haslyrics%–tag-from-file=LYRICS="%lyricsfile%"%haslyrics% -T "ALBUMARTIST=%albumartist%" -T "DISCNUMBER=%cdnumber%" -T "TOTALDISCS=%totalcds%" -T "TOTALTRACKS=%numtracks%" -T "COMMENT=%comment%" %source% -o %dest%


TOC of the extracted CD

Track | Start | Length | Start sector | End sector
––––––––––––––––––––––––––––-
1 | 0:00.00 | 4:44.59 | 0 | 21358
2 | 4:44.59 | 4:19.56 | 21359 | 40839
3 | 9:04.40 | 4:52.56 | 40840 | 62795
4 | 13:57.21 | 5:18.45 | 62796 | 86690
5 | 19:15.66 | 4:26.37 | 86691 | 106677
6 | 23:42.28 | 3:53.01 | 106678 | 124153
7 | 27:35.29 | 4:02.29 | 124154 | 142332
8 | 31:37.58 | 4:13.65 | 142333 | 161372
9 | 35:51.48 | 4:46.59 | 161373 | 182881
10 | 40:38.32 | 3:28.72 | 182882 | 198553
11 | 44:07.29 | 5:02.06 | 198554 | 221209
12 | 49:09.35 | 5:53.57 | 221210 | 247741


Track 1

Filename E:\Kate Bush - Remastered Part I (2018) [FLAC]\Kate Bush - The Red Shoes (1993) [FLAC] {2018}\01 - Rubberband Girl.wav

Pre-gap length 0:00:02.00

Peak level 83.0 %
Extraction speed 3.0 X
Track quality 100.0 %
Test CRC A75EAFED
Copy CRC A75EAFED
Track not present in AccurateRip database
Copy OK

Track 2

Filename E:\Kate Bush - Remastered Part I (2018) [FLAC]\Kate Bush - The Red Shoes (1993) [FLAC] {2018}\02 - And So Is Love.wav

Peak level 76.3 %
Extraction speed 3.2 X
Track quality 100.0 %
Test CRC 9CCA3AB4
Copy CRC 9CCA3AB4
Track not present in AccurateRip database
Copy OK

Track 3

Filename E:\Kate Bush - Remastered Part I (2018) [FLAC]\Kate Bush - The Red Shoes (1993) [FLAC] {2018}\03 - Eat the Music.wav

Peak level 95.7 %
Extraction speed 3.6 X
Track quality 100.0 %
Test CRC 68A87FF4
Copy CRC 68A87FF4
Track not present in AccurateRip database
Copy OK

Track 4

Filename E:\Kate Bush - Remastered Part I (2018) [FLAC]\Kate Bush - The Red Shoes (1993) [FLAC] {2018}\04 - Moments of Pleasure.wav

Peak level 95.9 %
Extraction speed 3.9 X
Track quality 100.0 %
Test CRC 4CB5C877
Copy CRC 4CB5C877
Track not present in AccurateRip database
Copy OK

Track 5

Filename E:\Kate Bush - Remastered Part I (2018) [FLAC]\Kate Bush - The Red Shoes (1993) [FLAC] {2018}\05 - The Song of Solomon.wav

Peak level 93.2 %
Extraction speed 4.1 X
Track quality 100.0 %
Test CRC AF945390
Copy CRC AF945390
Track not present in AccurateRip database
Copy OK

Track 6

Filename E:\Kate Bush - Remastered Part I (2018) [FLAC]\Kate Bush - The Red Shoes (1993) [FLAC] {2018}\06 - Lily.wav

Peak level 87.9 %
Extraction speed 3.7 X
Track quality 99.9 %
Test CRC FA595A30
Copy CRC FA595A30
Track not present in AccurateRip database
Copy OK

Track 7

Filename E:\Kate Bush - Remastered Part I (2018) [FLAC]\Kate Bush - The Red Shoes (1993) [FLAC] {2018}\07 - The Red Shoes.wav

Peak level 75.2 %
Extraction speed 4.3 X
Track quality 100.0 %
Test CRC 093A3521
Copy CRC 093A3521
Track not present in AccurateRip database
Copy OK

Track 8

Filename E:\Kate Bush - Remastered Part I (2018) [FLAC]\Kate Bush - The Red Shoes (1993) [FLAC] {2018}\08 - Top of the City.wav

Peak level 80.4 %
Extraction speed 4.6 X
Track quality 100.0 %
Test CRC 5186DBF0
Copy CRC 5186DBF0
Track not present in AccurateRip database
Copy OK

Track 9

Filename E:\Kate Bush - Remastered Part I (2018) [FLAC]\Kate Bush - The Red Shoes (1993) [FLAC] {2018}\09 - Constellation of the Heart.wav

Peak level 79.2 %
Extraction speed 4.8 X
Track quality 100.0 %
Test CRC A9A41002
Copy CRC A9A41002
Track not present in AccurateRip database
Copy OK

Track 10

Filename E:\Kate Bush - Remastered Part I (2018) [FLAC]\Kate Bush - The Red Shoes (1993) [FLAC] {2018}\10 - Big Stripey Lie.wav

Peak level 94.6 %
Extraction speed 4.8 X
Track quality 100.0 %
Test CRC 40734C92
Copy CRC 40734C92
Track not present in AccurateRip database
Copy OK

Track 11

Filename E:\Kate Bush - Remastered Part I (2018) [FLAC]\Kate Bush - The Red Shoes (1993) [FLAC] {2018}\11 - Why Should I Love You.wav

Peak level 83.4 %
Extraction speed 4.6 X
Track quality 99.9 %
Test CRC 0BB0B1D9
Copy CRC 0BB0B1D9
Track not present in AccurateRip database
Copy OK

Track 12

Filename E:\Kate Bush - Remastered Part I (2018) [FLAC]\Kate Bush - The Red Shoes (1993) [FLAC] {2018}\12 - You're the One.wav

Peak level 53.0 %
Extraction speed 5.5 X
Track quality 100.0 %
Test CRC A662A225
Copy CRC A662A225
Track not present in AccurateRip database
Copy OK


None of the tracks are present in the AccurateRip database

No errors occurred

End of status report

–– CUETools DB Plugin V2.1.6

[CTDB TOCID: Hr_nJ0n1laoM9iQyIDx6nug3K44-] found
Submit result: Hr_nJ0n1laoM9iQyIDx6nug3K44- has been confirmed
Track | CTDB Status
1 | (17/17) Accurately ripped
2 | (17/17) Accurately ripped
3 | (17/17) Accurately ripped
4 | (17/17) Accurately ripped
5 | (17/17) Accurately ripped
6 | (17/17) Accurately ripped
7 | (17/17) Accurately ripped
8 | (17/17) Accurately ripped
9 | (17/17) Accurately ripped
10 | (17/17) Accurately ripped
11 | (17/17) Accurately ripped
12 | (17/17) Accurately ripped


==== Log checksum 26DE597EEB961A2A3AD1D765A7250D215FAC540108A4F6D543DE6F2E25449402 ====


Kate Bush - Remastered Part I (7CD Edition) (2018)


All thanks go to the original releaser