Tags
Language
Tags

Kian Soltani - Cello Unlimited: Music by Hans Zimmer, Howard Shore, John Powell, Alfred Schnittke (2021)

Posted By: ArlegZ
Kian Soltani - Cello Unlimited: Music by Hans Zimmer, Howard Shore, John Powell, Alfred Schnittke (2021)

Kian Soltani - Cello Unlimited: Music by Hans Zimmer, Howard Shore, John Powell, Alfred Schnittke (2021)
EAC | FLAC | Image (Cue & Log) ~ 320 Mb | Total time: 60:12 | Scans included
Classical | Label: Deutsche Grammophon | # 486 0518 | Recorded: 2021

Kian Soltani has always been a big fan of movies, now he takes this passion one step further and creates an unprecedented album with his own arrangements of great blockbuster hits. Cello Unlimited is a collection of the most iconic movie soundtracks from the last 20 years, played on Kian's cello and his cello only! Including music by Hans Zimmer, Howard Shore, John Powell, Schnittke and more, all tracks are specially arranged for the cello and every voice is played by Kian himself.

Performer:
Kian Soltani, cello

Track List:
Hans Zimmer (°1957), Henry Jackman (°1976), John Sponsler (°1965), Tom Gire (°1968), Klaus Badelt (°1967)
(From "Pirates of the Caribbean")
01. Up is Down
02. One Day
03. Jack Sparrow
Howard Shore (°1946)
(From "The Lord of the Rings")
04. Prologue
05. Minas Tirith
06. Mordor and Isengard
07. Memories of Rivendell
08. The Final Battle
09. Epilogue. Into the West
Kian Soltani (°1992)
10. Intermezzo. A Scene from the Past
Alfred Schnittke (1934-1998)
11. Tango (From "Agony")
John Powell (°1963)
12. Main Theme (From "The Bourne Identity")
Hans Zimmer (°1957)
13. Chevaliers De Sangreal (From "The Da Vinci Code")
Tom Tykwer (°1965), Reinhold Heil (°1954), Johnny Klime (°1962)
14. Love and Death (From "Perfume")
Kian Soltani (°1992)
15. Cello Unlimited


Exact Audio Copy V1.6 from 23. October 2020

EAC extraction logfile from 29. January 2022, 16:18

Cello Unlimited / Kian Soltani - Hans Zimmer - Howard Shore

Used drive : PIONEER BD-RW BDR-209D Adapter: 1 ID: 0

Read mode : Secure
Utilize accurate stream : Yes
Defeat audio cache : Yes
Make use of C2 pointers : No

Read offset correction : 667
Overread into Lead-In and Lead-Out : No
Fill up missing offset samples with silence : Yes
Delete leading and trailing silent blocks : No
Null samples used in CRC calculations : Yes
Used interface : Native Win32 interface for Win NT & 2000

Used output format : User Defined Encoder
Selected bitrate : 1024 kBit/s
Quality : High
Add ID3 tag : No
Command line compressor : C:\Program Files (x86)\Exact Audio Copy\FLAC\FLAC.EXE
Additional command line options : -6 -V -T "ARTIST=%artist%" -T "TITLE=%title%" -T "ALBUM=%albumtitle%" -T "DATE=%year%" -T "TRACKNUMBER=%tracknr%" -T "GENRE=%genre%" -T "COMMENT=%comment%" -T "BAND=%albuminterpret%" -T "ALBUMARTIST=%albuminterpret%" -T "COMPOSER=%composer%" %haslyrics%–tag-from-file=LYRICS="%lyricsfile%"%haslyrics% -T "DISCNUMBER=%cdnumber%" -T "TOTALDISCS=%totalcds%" -T "TOTALTRACKS=%numtracks%" %hascover%–picture="%coverfile%"%hascover% %source% -o %dest%


TOC of the extracted CD

Track | Start | Length | Start sector | End sector
––––––––––––––––––––––––––––-
1 | 0:00.00 | 2:37.72 | 0 | 11846
2 | 2:37.72 | 4:05.41 | 11847 | 30262
3 | 6:43.38 | 3:46.04 | 30263 | 47216
4 | 10:29.42 | 4:33.65 | 47217 | 67756
5 | 15:03.32 | 2:59.33 | 67757 | 81214
6 | 18:02.65 | 4:24.03 | 81215 | 101017
7 | 22:26.68 | 4:30.15 | 101018 | 121282
8 | 26:57.08 | 3:29.33 | 121283 | 136990
9 | 30:26.41 | 4:40.24 | 136991 | 158014
10 | 35:06.65 | 3:42.11 | 158015 | 174675
11 | 38:49.01 | 4:09.48 | 174676 | 193398
12 | 42:58.49 | 3:35.52 | 193399 | 209575
13 | 46:34.26 | 4:05.15 | 209576 | 227965
14 | 50:39.41 | 4:24.48 | 227966 | 247813
15 | 55:04.14 | 5:08.51 | 247814 | 270964


Range status and errors

Selected range

Filename V:\Videos\LittleGrecy.Various.Cello.Unlimited.Kian.Soltani\Cello Unlimited - Kian Soltani - Hans Zimmer - Howard Shore.wav

Peak level 94.4 %
Extraction speed 7.7 X
Range quality 100.0 %
Test CRC CB00401B
Copy CRC CB00401B
Copy OK

No errors occurred


AccurateRip summary

Track 1 accurately ripped (confidence 1) [69E61683] (AR v2)
Track 2 accurately ripped (confidence 1) [A78C2F2C] (AR v2)
Track 3 accurately ripped (confidence 1) [027D9761] (AR v2)
Track 4 accurately ripped (confidence 1) [824166AC] (AR v2)
Track 5 accurately ripped (confidence 1) [BCF7A62D] (AR v2)
Track 6 accurately ripped (confidence 1) [A74D7A0E] (AR v2)
Track 7 accurately ripped (confidence 1) [14FA2ED3] (AR v2)
Track 8 accurately ripped (confidence 1) [BD59AB72] (AR v2)
Track 9 accurately ripped (confidence 1) [48A6B364] (AR v2)
Track 10 accurately ripped (confidence 1) [A677FE3B] (AR v2)
Track 11 accurately ripped (confidence 1) [63A107D8] (AR v2)
Track 12 accurately ripped (confidence 1) [4F659F6F] (AR v2)
Track 13 accurately ripped (confidence 1) [98954945] (AR v2)
Track 14 accurately ripped (confidence 1) [D090C897] (AR v2)
Track 15 accurately ripped (confidence 1) [2D712CEC] (AR v2)

All tracks accurately ripped

End of status report

–– CUETools DB Plugin V2.1.6

[CTDB TOCID: JEwF_MW6rBcjZwvNZ0RffTUNyMk-] found
Submit result: JEwF_MW6rBcjZwvNZ0RffTUNyMk- has been confirmed
Track | CTDB Status
1 | (16/16) Accurately ripped
2 | (16/16) Accurately ripped
3 | (16/16) Accurately ripped
4 | (16/16) Accurately ripped
5 | (16/16) Accurately ripped
6 | (16/16) Accurately ripped
7 | (16/16) Accurately ripped
8 | (16/16) Accurately ripped
9 | (16/16) Accurately ripped
10 | (16/16) Accurately ripped
11 | (16/16) Accurately ripped
12 | (16/16) Accurately ripped
13 | (16/16) Accurately ripped
14 | (16/16) Accurately ripped
15 | (16/16) Accurately ripped


==== Log checksum 2521622A86BBA3F0D5BDE60744EE09BEBD60AC658BA2FD4017EA3246A66F41CD ====

Kian Soltani - Cello Unlimited: Music by Hans Zimmer, Howard Shore, John Powell, Alfred Schnittke (2021)

Thanks to the original releaser