Tags
Language
Tags

King Crimson: Remastered CD Collection. Part 1 (1969-1970)

Posted By: v3122
King Crimson: Remastered CD Collection. Part 1 (1969-1970)

King Crimson: Remastered CD Collection. Part 1 (1969-1970)
EAC | Flac(Image) + Cue + Log & MP3 CBR 320Kbps
6CD | Label: Various | ~ 1433 or 631 Mb | Artwork -> 501 Mb
Progressive Rock

One of the pioneers of the progressive rock genre. The first official rehearsal of the band was on January 13, 1969. The first line-up comprised guitarist Robert Fripp, lyricist and lighting man Peter Sinfield (who “invented” the name of the band), composer and multi-instrumentalist Ian McDonald, bassist and vocalist Greg Lake, and drummer Michael Giles. They toured extensively and released the album In The Court Of The Crimson King (An Observation By King Crimson), a seminal piece of late ’60s music. Shortly afterwards, the band split to reform again suffering continuous personnel changes for a period of two and a half years (early 1970-mid 1972), releasing three more studio albums and one recorded live, with Robert Fripp as the only remaining member.

The new King Crimson that evolved in July 1972 (featuring ex-Yes drummer Bill Bruford, ex-Family (6) and later Asia (2) bassist/vocalist John Wetton and other more transitory members) marked a turn toward a heavier progressive sound, with experimental and fusion overtones, climaxing in unique semi-improvisatory live performances. This core line-up carried on until mid-1974, when Fripp broke up the band (as he thought) for good.

In mid-1981, after a full 7 years, a newly-formed band including Robert Fripp, with Adrian Belew on vocals and guitar, Tony Levin on bass and Chapman Stick, and Bill Bruford on acoustic and electronic drums, changed its name from Discipline to King Crimson. This line-up remained intact until summer 1984, releasing three studio albums.

Ten years later (May 1994), King Crimson started rehearsing again, this time as a "double trio" including Pat Mastelotto on drums and percussion and Trey Gunn on Stick in addition to the 1980s line-up; it released two full albums and a handful of EPs through Fripp's own Discipline Global Mobile label. A process of “fractalization” led to the creation of multiple spin-off groups containing three or four King Crimson members, dubbed "ProjeKcts" One, Two, Three, Four, and X, which released live and studio sessions through DGM. Having regained the rights to the full King Crimson catalogue, DGM put out numerous other recordings from all periods of the band's existence, including "King Crimson Collectors' Club" bi-monthly releases available only to members of the label's website. In the hands of DGM, the King Crimson back catalogue (with most late additions available only on FLAC/MP3 format rather than on CD) grew enormously, making it one of the biggest for any rock group ever.

The next reincarnation of the band, jokingly dubbed the "double duo", omitted Bill Bruford and Tony Levin. Its first complete studio album was “The ConstruKction of Light” (May 2000), and the line-up carried on until the end of 2003. Since then, Tony Levin rejoined the group and Trey Gunn departed. In 2008, with the addition of Gavin Harrison the new King Crimson began and performed a 40th Anniversary Tour.

Robert Fripp stated in an August 2012 interview that he had retired from the music business, but 2014 found a new King Crimson line-up touring, including Fripp (guitar), Mel Collins (saxophones, flute), Tony Levin (basses, stick), Pat Mastelotto (drums, percussion), Gavin Harrison (drums, percussion), Jakko M. Jakszyk (vocals, guitar, flute), and William Rieflin (drums, percussion, synthesizer). In 2016 Jeremy Stacey (drums, keyboards) joined as an eighth member making the group a "double quartet".

~ discogs
King Crimson: Remastered CD Collection. Part 1 (1969-1970):

King Crimson: Remastered CD Collection. Part 1 (1969-1970)

Tracklist CD01. 1969 - In The Court Of The Crimson King [1989, EGCD 1, UK]:

01. 21st Century Schizoid Man (including Mirrors) (07:20)
02. I Talk To The Wind (06:05)
03. Epitaph (including March For No Reason and Tomorrow And Tomorrow) (08:46)
04. Moonchild (including The Dream and The Illusion) (12:12)
05. The Court Of The Crimson King (including The Return Of The Fire Witch and The Dance Of The Puppets) (09:27)

Exact Audio Copy V1.0 beta 3 from 29. August 2011

EAC extraction logfile from 24. April 2014, 23:08

King Crimson / In The Court Of The Crimson King (EGCD 1) [DE]

Used drive : HL-DT-STDVDRAM GE20NU11 Adapter: 0 ID: 1

Read mode : Secure
Utilize accurate stream : Yes
Defeat audio cache : Yes
Make use of C2 pointers : No

Read offset correction : 667
Overread into Lead-In and Lead-Out : No
Fill up missing offset samples with silence : Yes
Delete leading and trailing silent blocks : No
Null samples used in CRC calculations : Yes
Used interface : Native Win32 interface for Win NT & 2000

Used output format : User Defined Encoder
Selected bitrate : 896 kBit/s
Quality : High
Add ID3 tag : No
Command line compressor : C:\Program Files\EAC 3\Exact Audio Copy\Flac\flac.exe
Additional command line options : -V -8 %source%


TOC of the extracted CD

Track | Start | Length | Start sector | End sector
––––––––––––––––––––––––––––-
1 | 0:00.50 | 7:20.70 | 50 | 33119
2 | 7:21.45 | 6:05.50 | 33120 | 60544
3 | 13:27.20 | 8:46.62 | 60545 | 100056
4 | 22:14.07 | 12:12.70 | 100057 | 155026
5 | 34:27.02 | 9:27.48 | 155027 | 197599


Range status and errors

Selected range

Filename C:\OdW\King Crimson\1969 - In The Court Of The Crimson King (EGCD 1) [DE]\King Crimson - In The Court Of The Crimson King (EGCD 1) [DE].wav

Peak level 100.0 %
Extraction speed 1.8 X
Range quality 100.0 %
Test CRC 9539EF69
Copy CRC 9539EF69
Copy OK

No errors occurred


AccurateRip summary

Track 1 accurately ripped (confidence 11) [9BE114A0] (AR v2)
Track 2 accurately ripped (confidence 11) [DF8B4235] (AR v2)
Track 3 accurately ripped (confidence 11) [D6B44391] (AR v2)
Track 4 accurately ripped (confidence 11) [C7C760AA] (AR v2)
Track 5 accurately ripped (confidence 11) [D7E13E6A] (AR v2)

All tracks accurately ripped

End of status report

==== Log checksum 851293535B7C89718CC411286191FF3DC7F3492AD672CFD9EDB80DD3120ABA19 ====


[CUETools log; Date: 26.04.2014 16:42:45; Version: 2.1.4]
Pregap length 00:00:50.
[CTDB TOCID: PMZXKJQuySuZjiFd3K5Y_WLArNM-] found.
Track | CTDB Status
1 | (2/2) Accurately ripped
2 | (2/2) Accurately ripped
3 | (2/2) Accurately ripped
4 | (2/2) Accurately ripped
5 | (2/2) Accurately ripped
[AccurateRip ID: 0008565f-0027cef8-3c0a4a05] found.
Track [ CRC | V2 ] Status
01 [a7e5e7da|9be114a0] (12+11/46) Accurately ripped
02 [ce75714b|df8b4235] (12+11/46) Accurately ripped
03 [3a33aa3a|d6b44391] (12+11/46) Accurately ripped
04 [b2cccdb6|c7c760aa] (13+11/47) Accurately ripped
05 [f2c670f2|d7e13e6a] (12+11/45) Accurately ripped
Offsetted by -245:
01 [712952d4] (14/46) Accurately ripped
02 [c2c79af1] (14/46) Accurately ripped
03 [93c74b0b] (14/46) Accurately ripped
04 [f8120633] (14/47) Accurately ripped
05 [be49a5fd] (13/45) Accurately ripped

Track Peak [ CRC32 ] [W/O NULL] [ LOG ]
– 100,0 [9539EF69] [5E1120AC] CRC32
01 100,0 [96CCA057] [7BAE3E7C]
02 49,9 [CB259ECA] [F852F0C3]
03 66,1 [EA2A0B00] [24EC137C]
04 35,7 [BE445A63] [276E776E]
05 94,8 [4F9D0833] [28026344]


King Crimson: Remastered CD Collection. Part 1 (1969-1970)

Tracklist CD02. 1969 - In The Court Of The Crimson King [1989, EGCD 1, US]:

01. 21st Century Schizoid Man (including Mirrors) (07:20)
02. I Talk To The Wind (06:05)
03. Epitaph (including March For No Reason and Tomorrow And Tomorrow) (08:47)
04. Moonchild (including The Dream and The Illusion) (12:13)
05. The Court Of The Crimson King (including The Return Of The Fire Witch and The Dance Of The Puppets) (09:25)

Exact Audio Copy V1.0 beta 3 from 29. August 2011

EAC extraction logfile from 25. April 2014, 22:13

King Crimson / In The Court Of The Crimson King (Remastered 1989)

Used drive : PLEXTOR CD-R PX-240A Adapter: 6 ID: 1

Read mode : Secure
Utilize accurate stream : Yes
Defeat audio cache : Yes
Make use of C2 pointers : No

Read offset correction : 6
Overread into Lead-In and Lead-Out : No
Fill up missing offset samples with silence : Yes
Delete leading and trailing silent blocks : No
Null samples used in CRC calculations : Yes
Used interface : Installed external ASPI interface

Used output format : Internal WAV Routines
Sample format : 44.100 Hz; 16 Bit; Stereo


TOC of the extracted CD

Track | Start | Length | Start sector | End sector
––––––––––––––––––––––––––––-
1 | 0:00.00 | 7:20.70 | 0 | 33069
2 | 7:20.70 | 6:05.15 | 33070 | 60459
3 | 13:26.10 | 8:47.25 | 60460 | 100009
4 | 22:13.35 | 12:13.07 | 100010 | 154991
5 | 34:26.42 | 9:25.40 | 154992 | 197406


Range status and errors

Selected range

Filename Z:\data\hexonut\Seeding\King Crimson\1969-In The Court Of The Crimson King\1989-E'G Records [USA, EGCD 1, Re-Mastered By Robert Fripp and Tony Arnold 1989]\In The Court Of The Crimson King (Remastered 1989).wav

Peak level 100.0 %
Extraction speed 9.1 X
Range quality 99.9 %
Test CRC 1CAC987D
Copy CRC 1CAC987D
Copy OK

No errors occurred


AccurateRip summary

Track 1 accurately ripped (confidence 7) [DF684600] (AR v2)
Track 2 accurately ripped (confidence 7) [1329E130] (AR v2)
Track 3 accurately ripped (confidence 7) [DD1C8EB8] (AR v2)
Track 4 accurately ripped (confidence 7) [B16A662C] (AR v2)
Track 5 accurately ripped (confidence 7) [33B04E6F] (AR v2)

All tracks accurately ripped

End of status report

==== Log checksum C59AA7726F7635EDD2EED73A0697377F791B2800B63F0B213CBD6E96EE196772 ====


[CUETools log; Date: 19.05.2014 1:25:01; Version: 2.1.4]
[CTDB TOCID: vkRZIiHS17BK46JEP0G2xy_vpZY-] found.
Track | CTDB Status
1 | (13/35) Accurately ripped, or (6/35) differs in 1 samples @03:36:01
2 | (19/35) Accurately ripped
3 | (18/35) Accurately ripped
4 | (19/35) Accurately ripped
5 | (17/35) Accurately ripped
[AccurateRip ID: 00085493-0027c773-380a4805] found.
Track [ CRC | V2 ] Status
01 [01c665bc|df684600] (006+007/144) Accurately ripped
02 [b22800ac|1329e130] (007+007/147) Accurately ripped
03 [bfce35e0|dd1c8eb8] (007+007/145) Accurately ripped
04 [54f21ff7|b16a662c] (007+007/145) Accurately ripped
05 [eb5f4fcf|33b04e6f] (007+007/147) Accurately ripped
Offsetted by -802:
01 [ef3a5bee] (002/144) Accurately ripped
02 [44c4adfa] (004/147) Accurately ripped
03 [1e277c45] (004/145) Accurately ripped
04 [2ef10197] (004/145) Accurately ripped
05 [ea7a5f7a] (004/147) Accurately ripped
Offsetted by -771:
01 [21a5b325] (004/144) Accurately ripped
02 [722419ba] (004/147) Accurately ripped
03 [0fe0d758] (004/145) Accurately ripped
04 [9c362c1e] (004/145) Accurately ripped
05 [6aa877b5] (004/147) Accurately ripped
Offsetted by 14:
01 [2e0b3905] (002/144) Accurately ripped
02 [b14e366e] (002/147) Accurately ripped
03 [cb016b61] (002/145) Accurately ripped
04 [93534cf7] (002/145) Accurately ripped
05 [efc080eb] (002/147) Accurately ripped
Offsetted by 366:
01 [d60835f1] (009/144) Accurately ripped
02 [3821f994] (009/147) Accurately ripped
03 [d83a2cd1] (009/145) Accurately ripped
04 [d076b72f] (009/145) Accurately ripped
05 [225f59b9] (009/147) Accurately ripped
Offsetted by -2327:
01 [001b1d7d] (000/144) No match (V2 was not tested)
02 [5f467cef] (010/147) Accurately ripped
03 [1fd93448] (010/145) Accurately ripped
04 [88b39ee2] (009/145) Accurately ripped
05 [ebc98b2c] (010/147) Accurately ripped
Offsetted by 72:
01 [7ea2f879] (000/144) No match (V2 was not tested)
02 [38e9d8f2] (000/147) No match (V2 was not tested)
03 [ea953a7d] (000/145) No match (V2 was not tested)
04 [bfa4f3fc] (000/145) No match (V2 was not tested)
05 [8a032c62] (000/147) No match (V2 was not tested)

Track Peak [ CRC32 ] [W/O NULL] [ LOG ]
– 100,0 [1CAC987D] [F323E125] CRC32
01 100,0 [0CA0DE1F] [5360643A]
02 49,9 [D029902E] [FA02C942]
03 66,1 [27DEFB68] [D21B2AA5]
04 31,8 [CD0435A6] [B750B295]
05 84,5 [90618E11] [8C26C127]


King Crimson: Remastered CD Collection. Part 1 (1969-1970)

Tracklist CD03. 1969 - In The Court Of The Crimson King [1990, VJCP-2301]:

01. 21st Century Schizoid Man (including Mirrors) (07:21)
02. I Talk To The Wind (06:05)
03. Epitaph (including March For No Reason and Tomorrow And Tomorrow) (08:47)
04. Moonchild (including The Dream and The Illusion) (12:13)
05. The Court Of The Crimson King (including The Return Of The Fire Witch and The Dance Of The Puppets) (09:27)

Exact Audio Copy V1.0 beta 3 from 29. August 2011

EAC extraction logfile from 13. April 2014, 19:29

King Crimson / In The Court Of The Crimson King [1990, VJCP-2301]

Used drive : ASUS DRW-22B3S Adapter: 0 ID: 0

Read mode : Secure
Utilize accurate stream : Yes
Defeat audio cache : Yes
Make use of C2 pointers : No

Read offset correction : 6
Overread into Lead-In and Lead-Out : No
Fill up missing offset samples with silence : Yes
Delete leading and trailing silent blocks : No
Null samples used in CRC calculations : Yes
Used interface : Installed external ASPI interface

Used output format : User Defined Encoder
Selected bitrate : 768 kBit/s
Quality : High
Add ID3 tag : No
Command line compressor : C:\Program Files\Exact Audio Copy\FLAC\FLAC.EXE
Additional command line options : -V -8 -T "Genre=%genre%" -T "Artist=%artist%" -T "Title=%title%" -T "Album=%albumtitle%" -T "Date=%year%" -T "Tracknumber=%tracknr%" -T "Comment=%comment%" %source%


TOC of the extracted CD

Track | Start | Length | Start sector | End sector
––––––––––––––––––––––––––––-
1 | 0:00.37 | 7:21.55 | 37 | 33166
2 | 7:22.17 | 6:05.15 | 33167 | 60556
3 | 13:27.32 | 8:47.05 | 60557 | 100086
4 | 22:14.37 | 12:13.28 | 100087 | 155089
5 | 34:27.65 | 9:27.10 | 155090 | 197624


Range status and errors

Selected range

Filename H:\gym1974 (rutracker.org)\King Crimson\1969 - In The Court Of The Crimson King [1990, VJCP-2301]\King Crimson - In The Court Of The Crimson King [1990, VJCP-2301].wav

Peak level 100.0 %
Extraction speed 3.1 X
Range quality 100.0 %
Test CRC 4416024C
Copy CRC 4416024C
Copy OK

No errors occurred


AccurateRip summary

Track 1 accurately ripped (confidence 6) [41D032CF] (AR v2)
Track 2 accurately ripped (confidence 6) [182E4F56] (AR v2)
Track 3 accurately ripped (confidence 5) [34621056] (AR v2)
Track 4 accurately ripped (confidence 5) [F7D4769D] (AR v2)
Track 5 accurately ripped (confidence 5) [C39320C3] (AR v2)

All tracks accurately ripped

End of status report

==== Log checksum E4AE0C356DE529075D59857D6723803F04843BD72A5525260FC11D4A71DFCF38 ====


[CUETools log; Date: 13.04.2014 19:31:08; Version: 2.1.4]
Pregap length 00:00:37.
[CTDB TOCID: W4s7YO4hzEMQXTWMgWUOPtX09CQ-] disk not present in database.
[AccurateRip ID: 00085703-0027d1b6-3d0a4b05] found.
Track [ CRC | V2 ] Status
01 [46ff4353|41d032cf] (04+06/10) Accurately ripped
02 [f1b65cc7|182e4f56] (03+06/09) Accurately ripped
03 [04645ccb|34621056] (03+05/08) Accurately ripped
04 [c3a06775|f7d4769d] (03+05/08) Accurately ripped
05 [e4e99600|c39320c3] (03+05/08) Accurately ripped

Track Peak [ CRC32 ] [W/O NULL] [ LOG ]
– 100,0 [4416024C] [2E5DDDC5] CRC32
01 100,0 [9A8D4EA4] [C29811AF]
02 49,9 [3BA74D8B] [AEC59809]
03 66,1 [C37087EF] [C7E803E1]
04 35,7 [080247FA] [53441FE3]
05 94,8 [8A6DE499] [72132965]


King Crimson: Remastered CD Collection. Part 1 (1969-1970)

Tracklist CD04. 1969 - In The Court Of The Crimson King [2004, DGM0501]:

01. 21st Century Schizoid Man (including Mirrors) (07:24)
02. I Talk To The Wind (06:05)
03. Epitaph (including March For No Reason and Tomorrow And Tomorrow) (08:47)
04. Moonchild (including The Dream and The Illusion) (12:12)
05. The Court Of The Crimson King (including The Return Of The Fire Witch and The Dance Of The Puppets) (09:22)

Exact Audio Copy V1.0 beta 3 from 29. August 2011

Отчёт EAC об извлечении, выполненном 22. августа 2013, 10:38

KING CRIMSON / In The Court Of The Crimson King

Дисковод: TSSTcorpCDDVDW SH-224DB Adapter: 4 ID: 1

Режим чтения : Достоверность
Использование точного потока : Да
Отключение кэша аудио : Да
Использование указателей C2 : Нет

Коррекция смещения при чтении : 6
Способность читать области Lead-in и Lead-out : Нет
Заполнение пропущенных сэмплов тишиной : Да
Удаление блоков с тишиной в начале и конце : Нет
При вычислениях CRC использовались нулевые сэмплы : Да
Интерфейс : Встроенный Win32-интерфейс для Win NT/2000

Выходной формат : Внутренние WAV-операции
Формат сэмплов : 44.100 Гц; 16 бит; стерео


TOC извлечённого CD

Трек | Старт | Длительность | Начальный сектор | Конечный сектор
––––––––––––––––––––––––––––––––––-
1 | 0:00.00 | 7:24.08 | 0 | 33307
2 | 7:24.08 | 6:05.13 | 33308 | 60695
3 | 13:29.21 | 8:47.45 | 60696 | 100265
4 | 22:16.66 | 12:12.58 | 100266 | 155223
5 | 34:29.49 | 9:22.42 | 155224 | 197415


Характеристики диапазона извлечения и сообщения об ошибках

Выбранный диапазон

Имя файла D:\TEMP\KING CRIMSON - 1969 - In The Court Of The Crimson King [2004 24-bit remaster, HDCD, DGM0501].wav

Пиковый уровень 100.0 %
Скорость извлечения 7.0 X
Качество диапазона 100.0 %
CRC теста C4FDD0A4
CRC копии C4FDD0A4
Копирование… OK

Ошибок не произошло


AccurateRip: сводка

Трек 1 : извлечено точно (доверие 48) [FFE44018] (AR v2)
Трек 2 : извлечено точно (доверие 49) [319C23BC] (AR v2)
Трек 3 : извлечено точно (доверие 48) [02674754] (AR v2)
Трек 4 : извлечено точно (доверие 48) [FD214366] (AR v2)
Трек 5 : извлечено точно (доверие 49) [142D6D87] (AR v2)

Все треки извлечены точно

Конец отчёта


[CUETools log; Date: 19.05.2014 1:53:42; Version: 2.1.4]
HDCD: peak extend: none, transient filter: none, gain: -4,0dB..0,0dB
[CTDB TOCID: pJmEzPHfy10nr1rSkPY7.fuLL38-] found.
Track | CTDB Status
1 | ( 46/162) Accurately ripped, or (110/162) differs in 360 samples @00:00:73-00:01:27,00:01:35-00:01:61,00:01:67-00:01:71,06:22:16-06:22:18
2 | ( 46/162) Accurately ripped, or (110/162) differs in 461 samples @00:00:09,06:01:40-06:06:70
3 | ( 46/162) Accurately ripped, or (110/162) differs in 201 samples @00:00:00-00:01:57
4 | (159/162) Accurately ripped
5 | ( 43/162) Accurately ripped, or (110/162) differs in 23 samples @00:00:04-00:00:06,06:29:73,06:42:29,06:42:40,07:54:55,08:31:54-08:31:60,08:51:18
[AccurateRip ID: 0008585e-0027d4d1-330a4805] found.
Track [ CRC | V2 ] Status
01 [e8d4861d|ffe44018] (106+066/506) Accurately ripped
02 [0bf836c5|319c23bc] (106+067/508) Accurately ripped
03 [9b8ef4f5|02674754] (105+066/504) Accurately ripped
04 [85a4fe0b|fd214366] (104+066/501) Accurately ripped
05 [1c2547ee|142d6d87] (098+066/493) Accurately ripped
Offsetted by -784:
01 [cee33fce] (000/506) No match (V2 was not tested)
02 [217c9e28] (000/508) No match (V2 was not tested)
03 [a2966558] (000/504) No match (V2 was not tested)
04 [a66e858c] (002/501) Accurately ripped
05 [9f6ead22] (000/493) No match (V2 was not tested)
Offsetted by -754:
01 [b035257d] (000/506) No match (V2 was not tested)
02 [54b5df77] (000/508) No match (V2 was not tested)
03 [5fcb7cb7] (000/504) No match (V2 was not tested)
04 [50d76bef] (002/501) Accurately ripped
05 [b0af57af] (000/493) No match (V2 was not tested)
Offsetted by -748:
01 [0202c694] (000/506) No match
02 [7e904d59] (000/508) No match
03 [b196eb2f] (000/504) No match
04 [26e1dcc0] (000/501) No match (V2 was not tested)
05 [84b0de04] (000/493) No match
Offsetted by -732:
01 [d96cf81d] (000/506) No match (V2 was not tested)
02 [c5fa0ca3] (000/508) No match (V2 was not tested)
03 [00ee726e] (000/504) No match (V2 was not tested)
04 [419ecb52] (004/501) Accurately ripped
05 [7f4d2fba] (000/493) No match (V2 was not tested)
Offsetted by -724:
01 [471498ce] (000/506) No match (V2 was not tested)
02 [7babba56] (000/508) No match (V2 was not tested)
03 [b29fc7ca] (000/504) No match (V2 was not tested)
04 [f173fa65] (000/501) No match (V2 was not tested)
05 [ec9532fc] (000/493) No match (V2 was not tested)
Offsetted by -721:
01 [76b63304] (000/506) No match (V2 was not tested)
02 [2f9f7979] (000/508) No match (V2 was not tested)
03 [332cca4f] (000/504) No match (V2 was not tested)
04 [7d323df4] (000/501) No match (V2 was not tested)
05 [405677f9] (000/493) No match (V2 was not tested)
Offsetted by -86:
01 [93c8d29e] (000/506) No match (V2 was not tested)
02 [e7766bd7] (000/508) No match (V2 was not tested)
03 [fc87ec4e] (000/504) No match (V2 was not tested)
04 [1f8d6f60] (025/501) Accurately ripped
05 [aefca1b1] (000/493) No match (V2 was not tested)
Offsetted by -84:
01 [f15a17a5] (000/506) No match (V2 was not tested)
02 [a92b633b] (000/508) No match (V2 was not tested)
03 [88cedacf] (000/504) No match (V2 was not tested)
04 [c8ead85e] (003/501) Accurately ripped
05 [0a0ebd4b] (000/493) No match (V2 was not tested)
Offsetted by -72:
01 [79368909] (000/506) No match (V2 was not tested)
02 [0a9347c1] (000/508) No match (V2 was not tested)
03 [e9f12449] (000/504) No match (V2 was not tested)
04 [35e30900] (002/501) Accurately ripped
05 [2f12630d] (000/493) No match (V2 was not tested)
Offsetted by -68:
01 [0a171ec3] (000/506) No match (V2 was not tested)
02 [440554ae] (000/508) No match (V2 was not tested)
03 [26943b00] (000/504) No match (V2 was not tested)
04 [20edac4d] (119/501) Accurately ripped
05 [e8a89a62] (000/493) No match (V2 was not tested)
Offsetted by -54:
01 [e3f35666] (000/506) No match (V2 was not tested)
02 [ce176f61] (000/508) No match (V2 was not tested)
03 [7993a1a7] (000/504) No match (V2 was not tested)
04 [b2519857] (039/501) Accurately ripped
05 [81d15bcf] (000/493) No match (V2 was not tested)

Track Peak [ CRC32 ] [W/O NULL] [ LOG ]
– 100,0 [C4FDD0A4] [825256B7] CRC32
01 100,0 [001E7044] [C09DA68B]
02 74,3 [4C216105] [EFC4ED2A]
03 100,0 [AD8187CD] [F5F9DF0C]
04 59,6 [132A6254] [DFEF4F46]
05 100,0 [9632CEA7] [E8EEE9A8]


King Crimson: Remastered CD Collection. Part 1 (1969-1970)

Tracklist CD05. 1970 - In The Wake Of Poseidon [2004, DGM0502]:

01. Peace — A Beginning (00:49)
02. Pictures Of A City (including 42nd At Treadmill) (08:01)
03. Cadence And Cascade (04:37)
04. In The Wake Of Poseidon (including Libra’s Theme) (07:56)
05. Peace — A Theme (01:15)
06. Cat Food (04:55)
07. The Devil’s Triangle (including: a) Merday Morn; b) Hand Or Sceiron; c) Garden Of Worm) (11:34)
08. Peace — An End (02:54)
09. Cat Food (Single Version) (02:47)
10. Groon (Single B-side) (03:32)

Exact Audio Copy V1.0 beta 3 from 29. August 2011

Отчёт EAC об извлечении, выполненном 23. августа 2013, 13:56

KING CRIMSON / In The Wake Of Poseidon

Дисковод: TSSTcorpCDDVDW SH-224DB Adapter: 4 ID: 1

Режим чтения : Достоверность
Использование точного потока : Да
Отключение кэша аудио : Да
Использование указателей C2 : Нет

Коррекция смещения при чтении : 6
Способность читать области Lead-in и Lead-out : Нет
Заполнение пропущенных сэмплов тишиной : Да
Удаление блоков с тишиной в начале и конце : Нет
При вычислениях CRC использовались нулевые сэмплы : Да
Интерфейс : Встроенный Win32-интерфейс для Win NT/2000

Выходной формат : Внутренние WAV-операции
Формат сэмплов : 44.100 Гц; 16 бит; стерео


TOC извлечённого CD

Трек | Старт | Длительность | Начальный сектор | Конечный сектор
––––––––––––––––––––––––––––––––––-
1 | 0:00.00 | 0:49.56 | 0 | 3730
2 | 0:49.56 | 8:01.04 | 3731 | 39809
3 | 8:50.60 | 4:37.56 | 39810 | 60640
4 | 13:28.41 | 7:56.67 | 60641 | 96407
5 | 21:25.33 | 1:15.00 | 96408 | 102032
6 | 22:40.33 | 4:55.15 | 102033 | 124172
7 | 27:35.48 | 11:34.62 | 124173 | 176284
8 | 39:10.35 | 2:54.05 | 176285 | 189339
9 | 42:04.40 | 2:47.25 | 189340 | 201889
10 | 44:51.65 | 3:31.51 | 201890 | 217765


Характеристики диапазона извлечения и сообщения об ошибках

Выбранный диапазон

Имя файла D:\TEMP\KING CRIMSON - 1970 - In The Wake Of Poseidon [2004 24-bit remaster, HDCD, DGM0502].wav

Пиковый уровень 88.3 %
Скорость извлечения 7.1 X
Качество диапазона 100.0 %
CRC теста 1680327A
CRC копии 1680327A
Копирование… OK

Ошибок не произошло


AccurateRip: сводка

Трек 1 : извлечено точно (доверие 13) [DA002C12] (AR v2)
Трек 2 : извлечено точно (доверие 13) [7ED334AA] (AR v2)
Трек 3 : извлечено точно (доверие 13) [BD471E92] (AR v2)
Трек 4 : извлечено точно (доверие 12) [1063E7E8] (AR v2)
Трек 5 : извлечено точно (доверие 13) [CA66271C] (AR v2)
Трек 6 : извлечено точно (доверие 13) [73B2AEEF] (AR v2)
Трек 7 : извлечено точно (доверие 12) [08838EDC] (AR v2)
Трек 8 : извлечено точно (доверие 13) [2A63CDB6] (AR v2)
Трек 9 : извлечено точно (доверие 13) [FEFC229D] (AR v2)
Трек 10 : извлечено точно (доверие 12) [C33AD545] (AR v2)

Все треки извлечены точно

Конец отчёта


[CUETools log; Date: 19.05.2014 19:29:41; Version: 2.1.4]
HDCD: peak extend: some, transient filter: none, gain: -4,0dB..0,0dB
[CTDB TOCID: bI11MJojBTj1vKJLhJtaFupHNOI-] found.
Track | CTDB Status
1 | (25/29) Accurately ripped
2 | (25/29) Accurately ripped
3 | (25/29) Accurately ripped
4 | (25/29) Accurately ripped
5 | (25/29) Accurately ripped
6 | (25/29) Accurately ripped
7 | (22/29) Accurately ripped
8 | (25/29) Accurately ripped
9 | (25/29) Accurately ripped
10 | (25/29) Accurately ripped
[AccurateRip ID: 00127ead-009679c4-7b0b570a] found.
Track [ CRC | V2 ] Status
01 [5d3205a0|da002c12] (029+021/101) Accurately ripped
02 [a41e8147|7ed334aa] (029+021/101) Accurately ripped
03 [5935f088|bd471e92] (029+021/100) Accurately ripped
04 [7aa5280b|1063e7e8] (029+020/099) Accurately ripped
05 [095724ed|ca66271c] (029+021/100) Accurately ripped
06 [7309c2bd|73b2aeef] (029+021/100) Accurately ripped
07 [262486e9|08838edc] (029+019/098) Accurately ripped
08 [6d956e8d|2a63cdb6] (029+021/101) Accurately ripped
09 [18144404|fefc229d] (028+021/099) Accurately ripped
10 [bb1149cd|c33ad545] (029+020/101) Accurately ripped
Offsetted by 86:
01 [3726465d] (014/101) Accurately ripped
02 [6a1eed1b] (015/101) Accurately ripped
03 [479445bf] (014/100) Accurately ripped
04 [1b57a856] (014/099) Accurately ripped
05 [4cc3a051] (014/100) Accurately ripped
06 [b9815873] (014/100) Accurately ripped
07 [a90f33ff] (014/098) Accurately ripped
08 [5f2ea695] (014/101) Accurately ripped
09 [a2b64f06] (014/099) Accurately ripped
10 [d39bc905] (015/101) Accurately ripped
Offsetted by 100:
01 [020b2ddf] (013/101) Accurately ripped
02 [9ffde982] (012/101) Accurately ripped
03 [59a85775] (012/100) Accurately ripped
04 [485f3589] (012/099) Accurately ripped
05 [f13064b8] (012/100) Accurately ripped
06 [c2dcfa4b] (012/100) Accurately ripped
07 [4503fb14] (012/098) Accurately ripped
08 [bee01212] (011/101) Accurately ripped
09 [17e5f579] (012/099) Accurately ripped
10 [7362121c] (012/101) Accurately ripped
Offsetted by -1223:
01 [4f8029c5] (000/101) No match
02 [55f0f5ab] (000/101) No match
03 [fb9eee3f] (000/100) No match
04 [2cef5db8] (000/099) No match
05 [cf807e28] (000/100) No match
06 [212013e5] (000/100) No match
07 [11c79615] (000/098) No match
08 [64ae5010] (000/101) No match
09 [85968871] (000/099) No match (V2 was not tested)
10 [78dafac9] (000/101) No match (V2 was not tested)
Offsetted by 68:
01 [1ebb1507] (000/101) No match (V2 was not tested)
02 [41a66106] (000/101) No match (V2 was not tested)
03 [668b9739] (000/100) No match (V2 was not tested)
04 [a110384a] (000/099) No match (V2 was not tested)
05 [f2b9f886] (000/100) No match (V2 was not tested)
06 [ce0df892] (000/100) No match (V2 was not tested)
07 [b4687661] (000/098) No match (V2 was not tested)
08 [e84cfe86] (000/101) No match (V2 was not tested)
09 [e9527379] (000/099) No match (V2 was not tested)
10 [ae2fa76b] (000/101) No match (V2 was not tested)
Offsetted by 106:
01 [e929b236] (000/101) No match
02 [901a6075] (000/101) No match
03 [89bd1a67] (000/100) No match
04 [ad1cb163] (000/099) No match
05 [64ce0eb2] (000/100) No match
06 [6dc8588f] (000/100) No match
07 [ec5216eb] (000/098) No match
08 [8934b153] (002/101) Accurately ripped
09 [25272105] (000/099) No match
10 [2398c186] (000/101) No match

Track Peak [ CRC32 ] [W/O NULL] [ LOG ]
– 88,3 [1680327A] [20434787] CRC32
01 13,5 [8C557DA1] [38BCA068]
02 88,3 [183B76BF] [D1C20D31]
03 45,5 [0EC75E71] [54A82877]
04 80,5 [81D651D4] [30AC4466]
05 28,2 [26999FC6] [65D9857A]
06 86,2 [E8270177] [0140354C]
07 86,9 [95976FBE] [3E672B82]
08 52,4 [A349C520] [AEC9CEFD]
09 83,7 [52691E69] [19CB62A4]
10 83,0 [0257714F] [F5DE8034]


King Crimson: Remastered CD Collection. Part 1 (1969-1970)

Tracklist CD06. 1970 - Lizard [1989, EGCD 4]:

01. Cirkus (including Entry Of The Chameleons) (06:28)
02. Indoor Games (05:39)
03. Happy Family (04:24)
04. Lady Of The Dancing Water (02:45)
05. Lizard ((a) Prince Rupert Awakes; (b) Bolero - The Peacock's Tale; © The Battle Of Glass Tears (including (i) Dawn Song; (ii) Last Skirmish; (iii) Prince Rupert's Lament); (d) Big Top) (23:23)

Exact Audio Copy V1.3 from 2. September 2016

EAC extraction logfile from 16. December 2016, 17:17

King Crimson / Lizard (EGCD 4)

Used drive : PLEXTOR DVDR PX-891SA Adapter: 1 ID: 0

Read mode : Secure
Utilize accurate stream : Yes
Defeat audio cache : Yes
Make use of C2 pointers : No

Read offset correction : 6
Overread into Lead-In and Lead-Out : No
Fill up missing offset samples with silence : Yes
Delete leading and trailing silent blocks : No
Null samples used in CRC calculations : Yes
Used interface : Native Win32 interface for Win NT & 2000

Used output format : User Defined Encoder
Selected bitrate : 128 kBit/s
Quality : High
Add ID3 tag : No
Command line compressor : C:\Program Files (x86)\Exact Audio Copy\Flac\flac.exe
Additional command line options : -V -8 -T "Genre=%genre%" -T "Artist=%artist%" -T "Title=%title%" -T "Album=%albumtitle%" -T "Date=%year%" -T "Tracknumber=%tracknr%" -T "Comment=%comment%" %source%


TOC of the extracted CD

Track | Start | Length | Start sector | End sector
––––––––––––––––––––––––––––-
1 | 0:00.50 | 6:28.70 | 50 | 29219
2 | 6:29.45 | 5:39.52 | 29220 | 54696
3 | 12:09.22 | 4:24.13 | 54697 | 74509
4 | 16:33.35 | 2:45.20 | 74510 | 86904
5 | 19:18.55 | 23:22.62 | 86905 | 192116


Range status and errors

Selected range

Filename H:\dafnaplus\King Crimson\1970 Lizard\King Crimson - Lizard (EGCD 4).wav

Peak level 100.0 %
Extraction speed 7.2 X
Range quality 100.0 %
Test CRC C7BEF028
Copy CRC C7BEF028
Copy OK

No errors occurred


AccurateRip summary

Track 1 accurately ripped (confidence 4) [EA399FD6] (AR v2)
Track 2 accurately ripped (confidence 4) [63CC81FF] (AR v2)
Track 3 accurately ripped (confidence 4) [8FB44E6E] (AR v2)
Track 4 accurately ripped (confidence 4) [92683EA2] (AR v2)
Track 5 accurately ripped (confidence 4) [BE24A375] (AR v2)

All tracks accurately ripped

End of status report

–– CUETools DB Plugin V2.1.6

[CTDB TOCID: mtsoWok0Of07_BJHf0gOGphTDaw-] found
Submit result: mtsoWok0Of07_BJHf0gOGphTDaw- has been confirmed
Track | CTDB Status
1 | (11/11) Accurately ripped
2 | (11/11) Accurately ripped
3 | (11/11) Accurately ripped
4 | (11/11) Accurately ripped
5 | (11/11) Accurately ripped


==== Log checksum DF0F718E91CD860339CAEBB4919366069990740F923DE13F5D5E363314338399 ====


[CUETools log; Date: 17.12.2016 14:38:13; Version: 2.1.5]
Pregap length 00:00:50.
[CTDB TOCID: mtsoWok0Of07_BJHf0gOGphTDaw-] found.
Track | CTDB Status
1 | (12/12) Accurately ripped
2 | (12/12) Accurately ripped
3 | (12/12) Accurately ripped
4 | (12/12) Accurately ripped
5 | (12/12) Accurately ripped
[AccurateRip ID: 0006acfb-002029c8-390a0105] found.
Track [ CRC | V2 ] Status
01 [6018a50d|ea399fd6] (14+04/18) Accurately ripped
02 [bd034a41|63cc81ff] (14+04/18) Accurately ripped
03 [fe679880|8fb44e6e] (13+04/17) Accurately ripped
04 [e50fc4ed|92683ea2] (14+04/18) Accurately ripped
05 [e12b579c|be24a375] (13+04/17) Accurately ripped

Track Peak [ CRC32 ] [W/O NULL] [ LOG ]
– 100,0 [C7BEF028] [5824F48D] CRC32
01 81,6 [684255BA] [FDB995D7]
02 71,0 [7820D3F3] [7CFA9344]
03 86,8 [6D03C8D4] [76DC6C37]
04 35,7 [C0E53850] [3BC2D181]
05 100,0 [4499ABA9] [6EFDA074]


All thanks go to the original releasers

King Crimson in my Blog

Download King Crimson: Remastered CD Collection. Part 1 (1969-1970):