Tags
Language
Tags

Kiss - Gods Of Thunder (Remastered) (2016)

Posted By: Rtax
Kiss - Gods Of Thunder (Remastered) (2016)

Kiss - Gods Of Thunder (Remastered) (2016)
EAC Rip | FLAC (tracks, cue, log) - 1.5 GB | MP3 CBR 320 kbps - 620 MB
4:30:50 | Rock, Hard Rock, Glam Rock | Label: Stormbird

This Four Cd Anthology Features Digitally Re-Mastered Versions Of Four Legendary Live Concert Broadcasts by Kiss. The Individual Concerts Are Beautifully Presented In Mini-Gatefold Album Covers.

Tracklist
Disc 1 - Wmms, Agora Ballroom, Cleveland, 1st April 1974
1. Deuce
2. Strutter
3. Cold Gin
4. She
5. Firehouse
6. Norhin´ To Lose
7. 100.00 Years
8. Black Diamond

Disc 2 - Wllz, Detroit, 8th Decenber 1984
1. Detroit Rock City
2. Cold Gin
3. Creatures Of The Night
4. Fits Like A Glove
5. Heaven´s On Fire
6. Thrills In The Night
7. Under the Gun
8. War Machine
9. Young And Wasted
10. I Love It Loud
11. I Still Love You
12. Love Gun
13. Black Diamond
14. Lick It Up
15. Rock And Roll All Nite

Disc 3 - The Ritz, Nyc, 12th August 1988
1. Deuce
2. Love Gun
3. Fits Like A Glove
4. Heaven´s On Fire
5. Cold Gin
6. Black Diamond
7. Bang Bang You
8. No No No
9. Firehouse
10. Crazy Crazy Nights
11. Calling Dr. Love
12. War Machine
13. Reason To Live
14. Tears Are Falling
15. I Love It Loud
16. Strutter
17. Shout It Out Loud
18. Lick It Up
19. Rock And Roll All Nite
20. Detroit Rock City

Disc 4 - Estadio Do Pacaembu, Sao Paulo, 27th August 1994
1. Creatures Of the Night
2. Parasite
3. Unholy
4. I Stole Your Love
5. Watchin´ You
6. Firehouse
7. Got To Choose
8. Calling Dr. Love
9. Makin´ Love
10. War Machine
11. I Was Made For Lovin´ You
12. Domino
13. Love Gun
14. God Of Thunder
15. I Love It Loud
16. Detroit Rock City
17. Black Diamond
18. Heaven´s On Fire
Exact Audio Copy V1.3 from 2. September 2016

EAC extraction logfile from 28. March 2017, 13:15

KISS / Gods of Thunder

Used drive : PLDS DVD+-RW DU-8A5LH Adapter: 1 ID: 0

Read mode : Secure
Utilize accurate stream : Yes
Defeat audio cache : Yes
Make use of C2 pointers : No

Read offset correction : 6
Overread into Lead-In and Lead-Out : No
Fill up missing offset samples with silence : Yes
Delete leading and trailing silent blocks : No
Null samples used in CRC calculations : Yes
Used interface : Native Win32 interface for Win NT & 2000
Gap handling : Appended to previous track

Used output format : User Defined Encoder
Selected bitrate : 128 kBit/s
Quality : High
Add ID3 tag : No
Command line compressor : C:\Program Files (x86)\Exact Audio Copy\Flac\flac.exe
Additional command line options : -8 -V -T "ARTIST=%artist%" -T "TITLE=%title%" -T "ALBUM=%albumtitle%" -T "DATE=%year%" -T "TRACKNUMBER=%tracknr%" -T "GENRE=%genre%" -T "PERFORMER=%albuminterpret%" -T "COMPOSER=%composer%" %haslyrics%–tag-from-file=LYRICS="%lyricsfile%"%haslyrics% -T "ALBUMARTIST=%albumartist%" -T "DISCNUMBER=%cdnumber%" -T "TOTALDISCS=%totalcds%" -T "TOTALTRACKS=%numtracks%" -T "COMMENT=%comment%" %source% -o %dest%


TOC of the extracted CD

Track | Start | Length | Start sector | End sector
––––––––––––––––––––––––––––-
1 | 0:00.00 | 3:31.05 | 0 | 15829
2 | 3:31.05 | 3:13.09 | 15830 | 30313
3 | 6:44.14 | 5:12.44 | 30314 | 53757
4 | 11:56.58 | 5:59.20 | 53758 | 80702
5 | 17:56.03 | 4:28.01 | 80703 | 100803
6 | 22:24.04 | 3:52.40 | 100804 | 118243
7 | 26:16.44 | 5:39.55 | 118244 | 143723
8 | 31:56.24 | 4:13.65 | 143724 | 162763


Track 1

Filename D:\Rips\Kiss - Gods of Thunder\1 - Having A Ball [1974-04-01, Cleveland, OH]\01 - Deuce.wav

Pre-gap length 0:00:02.00

Peak level 98.8 %
Extraction speed 1.1 X
Track quality 100.0 %
Test CRC 5D4403D3
Copy CRC 5D4403D3
Track not present in AccurateRip database
Copy OK

Track 2

Filename D:\Rips\Kiss - Gods of Thunder\1 - Having A Ball [1974-04-01, Cleveland, OH]\02 - Strutter.wav

Peak level 98.8 %
Extraction speed 1.2 X
Track quality 100.0 %
Test CRC EF82FA30
Copy CRC EF82FA30
Track not present in AccurateRip database
Copy OK

Track 3

Filename D:\Rips\Kiss - Gods of Thunder\1 - Having A Ball [1974-04-01, Cleveland, OH]\03 - Cold Gin.wav

Peak level 98.8 %
Extraction speed 1.4 X
Track quality 100.0 %
Test CRC 4EB5CE13
Copy CRC 4EB5CE13
Track not present in AccurateRip database
Copy OK

Track 4

Filename D:\Rips\Kiss - Gods of Thunder\1 - Having A Ball [1974-04-01, Cleveland, OH]\04 - She.wav

Peak level 98.8 %
Extraction speed 1.6 X
Track quality 100.0 %
Test CRC 477AA1D1
Copy CRC 477AA1D1
Track not present in AccurateRip database
Copy OK

Track 5

Filename D:\Rips\Kiss - Gods of Thunder\1 - Having A Ball [1974-04-01, Cleveland, OH]\05 - Firehouse.wav

Peak level 98.8 %
Extraction speed 1.7 X
Track quality 100.0 %
Test CRC 8B820467
Copy CRC 8B820467
Track not present in AccurateRip database
Copy OK

Track 6

Filename D:\Rips\Kiss - Gods of Thunder\1 - Having A Ball [1974-04-01, Cleveland, OH]\06 - Nothin' To Lose.wav

Peak level 98.8 %
Extraction speed 1.7 X
Track quality 100.0 %
Test CRC 3427CA2B
Copy CRC 3427CA2B
Track not present in AccurateRip database
Copy OK

Track 7

Filename D:\Rips\Kiss - Gods of Thunder\1 - Having A Ball [1974-04-01, Cleveland, OH]\07 - 100,000 Years.wav

Peak level 98.8 %
Extraction speed 1.9 X
Track quality 100.0 %
Test CRC 47289710
Copy CRC 47289710
Track not present in AccurateRip database
Copy OK

Track 8

Filename D:\Rips\Kiss - Gods of Thunder\1 - Having A Ball [1974-04-01, Cleveland, OH]\08 - Black Diamond.wav

Peak level 98.8 %
Extraction speed 2.0 X
Track quality 100.0 %
Test CRC FCB99984
Copy CRC FCB99984
Track not present in AccurateRip database
Copy OK


None of the tracks are present in the AccurateRip database

No errors occurred

End of status report

–– CUETools DB Plugin V2.1.6

[CTDB TOCID: d_SXC6Bu_lA4Le8L4H6nCqEVZTg-] found
Submit result: d_SXC6Bu_lA4Le8L4H6nCqEVZTg- has been confirmed
Track | CTDB Status
1 | (2/3) Accurately ripped
2 | (2/3) Accurately ripped
3 | (2/3) Accurately ripped
4 | (2/3) Accurately ripped
5 | (2/3) Accurately ripped
6 | (2/3) Accurately ripped
7 | (2/3) Accurately ripped
8 | (2/3) Accurately ripped


==== Log checksum F90E37752127534C38D787D6743AE27B1B2C4A88BFE6A6640E145A1131D69CE8 ====


Exact Audio Copy V1.3 from 2. September 2016

EAC extraction logfile from 28. March 2017, 14:35

KISS / Gods of Thunder

Used drive : PLDS DVD+-RW DU-8A5LH Adapter: 1 ID: 0

Read mode : Secure
Utilize accurate stream : Yes
Defeat audio cache : Yes
Make use of C2 pointers : No

Read offset correction : 6
Overread into Lead-In and Lead-Out : No
Fill up missing offset samples with silence : Yes
Delete leading and trailing silent blocks : No
Null samples used in CRC calculations : Yes
Used interface : Native Win32 interface for Win NT & 2000
Gap handling : Appended to previous track

Used output format : User Defined Encoder
Selected bitrate : 128 kBit/s
Quality : High
Add ID3 tag : No
Command line compressor : C:\Program Files (x86)\Exact Audio Copy\Flac\flac.exe
Additional command line options : -8 -V -T "ARTIST=%artist%" -T "TITLE=%title%" -T "ALBUM=%albumtitle%" -T "DATE=%year%" -T "TRACKNUMBER=%tracknr%" -T "GENRE=%genre%" -T "PERFORMER=%albuminterpret%" -T "COMPOSER=%composer%" %haslyrics%–tag-from-file=LYRICS="%lyricsfile%"%haslyrics% -T "ALBUMARTIST=%albumartist%" -T "DISCNUMBER=%cdnumber%" -T "TOTALDISCS=%totalcds%" -T "TOTALTRACKS=%numtracks%" -T "COMMENT=%comment%" %source% -o %dest%


TOC of the extracted CD

Track | Start | Length | Start sector | End sector
––––––––––––––––––––––––––––-
1 | 0:00.00 | 5:20.06 | 0 | 24005
2 | 5:20.06 | 4:48.58 | 24006 | 45663
3 | 10:08.64 | 4:04.00 | 45664 | 63963
4 | 14:12.64 | 6:48.49 | 63964 | 94612
5 | 21:01.38 | 4:47.03 | 94613 | 116140
6 | 25:48.41 | 4:22.66 | 116141 | 135856
7 | 30:11.32 | 5:26.42 | 135857 | 160348
8 | 35:37.74 | 3:07.54 | 160349 | 174427
9 | 38:45.53 | 4:20.00 | 174428 | 193927
10 | 43:05.53 | 3:05.11 | 193928 | 207813
11 | 46:10.64 | 6:19.65 | 207814 | 236303
12 | 52:30.54 | 6:39.04 | 236304 | 266232
13 | 59:09.58 | 7:57.51 | 266233 | 302058
14 | 67:07.34 | 6:18.19 | 302059 | 330427
15 | 73:25.53 | 5:58.34 | 330428 | 357311


Track 1

Filename D:\Rips\Kiss - Gods of Thunder\2 - Unmasked in Detroit [1984-12-08, Detroit, MI]\01 - Detroit Rock City.wav

Pre-gap length 0:00:02.00

Peak level 98.8 %
Extraction speed 1.3 X
Track quality 100.0 %
Test CRC 69B8DB68
Copy CRC 69B8DB68
Track not present in AccurateRip database
Copy OK

Track 2

Filename D:\Rips\Kiss - Gods of Thunder\2 - Unmasked in Detroit [1984-12-08, Detroit, MI]\02 - Cold Gin.wav

Peak level 98.8 %
Extraction speed 1.4 X
Track quality 100.0 %
Test CRC 59CD2F4F
Copy CRC 59CD2F4F
Track not present in AccurateRip database
Copy OK

Track 3

Filename D:\Rips\Kiss - Gods of Thunder\2 - Unmasked in Detroit [1984-12-08, Detroit, MI]\03 - Creatures Of The Night.wav

Peak level 98.8 %
Extraction speed 1.3 X
Track quality 99.9 %
Test CRC 63CB518A
Copy CRC 63CB518A
Track not present in AccurateRip database
Copy OK

Track 4

Filename D:\Rips\Kiss - Gods of Thunder\2 - Unmasked in Detroit [1984-12-08, Detroit, MI]\04 - Fits Like A Glove.wav

Peak level 98.8 %
Extraction speed 1.6 X
Track quality 99.9 %
Test CRC 28ACA3B3
Copy CRC 28ACA3B3
Track not present in AccurateRip database
Copy OK

Track 5

Filename D:\Rips\Kiss - Gods of Thunder\2 - Unmasked in Detroit [1984-12-08, Detroit, MI]\05 - Heaven's On Fire.wav

Peak level 98.8 %
Extraction speed 1.8 X
Track quality 100.0 %
Test CRC 93121477
Copy CRC 93121477
Track not present in AccurateRip database
Copy OK

Track 6

Filename D:\Rips\Kiss - Gods of Thunder\2 - Unmasked in Detroit [1984-12-08, Detroit, MI]\06 - Thrills In The Night.wav

Peak level 98.8 %
Extraction speed 1.9 X
Track quality 100.0 %
Test CRC DFB4C95D
Copy CRC DFB4C95D
Track not present in AccurateRip database
Copy OK

Track 7

Filename D:\Rips\Kiss - Gods of Thunder\2 - Unmasked in Detroit [1984-12-08, Detroit, MI]\07 - Under The Gun.wav

Peak level 98.8 %
Extraction speed 2.0 X
Track quality 100.0 %
Test CRC 9E5E8C5C
Copy CRC 9E5E8C5C
Track not present in AccurateRip database
Copy OK

Track 8

Filename D:\Rips\Kiss - Gods of Thunder\2 - Unmasked in Detroit [1984-12-08, Detroit, MI]\08 - War Machine.wav

Peak level 98.8 %
Extraction speed 2.0 X
Track quality 100.0 %
Test CRC C2A53B75
Copy CRC C2A53B75
Track not present in AccurateRip database
Copy OK

Track 9

Filename D:\Rips\Kiss - Gods of Thunder\2 - Unmasked in Detroit [1984-12-08, Detroit, MI]\09 - Young And Wasted.wav

Peak level 98.8 %
Extraction speed 2.1 X
Track quality 100.0 %
Test CRC E60A7957
Copy CRC E60A7957
Track not present in AccurateRip database
Copy OK

Track 10

Filename D:\Rips\Kiss - Gods of Thunder\2 - Unmasked in Detroit [1984-12-08, Detroit, MI]\10 - I Love It Loud.wav

Peak level 98.8 %
Extraction speed 2.1 X
Track quality 100.0 %
Test CRC F5166FFC
Copy CRC F5166FFC
Track not present in AccurateRip database
Copy OK

Track 11

Filename D:\Rips\Kiss - Gods of Thunder\2 - Unmasked in Detroit [1984-12-08, Detroit, MI]\11 - I Still Love You.wav

Peak level 98.8 %
Extraction speed 2.4 X
Track quality 100.0 %
Test CRC 33B3709F
Copy CRC 33B3709F
Track not present in AccurateRip database
Copy OK

Track 12

Filename D:\Rips\Kiss - Gods of Thunder\2 - Unmasked in Detroit [1984-12-08, Detroit, MI]\12 - Love Gun.wav

Peak level 98.8 %
Extraction speed 2.3 X
Track quality 99.9 %
Test CRC 228BE4FF
Copy CRC 228BE4FF
Track not present in AccurateRip database
Copy OK

Track 13

Filename D:\Rips\Kiss - Gods of Thunder\2 - Unmasked in Detroit [1984-12-08, Detroit, MI]\13 - Black Diamond.wav

Peak level 98.8 %
Extraction speed 2.7 X
Track quality 100.0 %
Test CRC 87FF1E45
Copy CRC 87FF1E45
Track not present in AccurateRip database
Copy OK

Track 14

Filename D:\Rips\Kiss - Gods of Thunder\2 - Unmasked in Detroit [1984-12-08, Detroit, MI]\14 - Lick It Up.wav

Peak level 98.8 %
Extraction speed 2.7 X
Track quality 100.0 %
Test CRC 15AC94C3
Copy CRC 15AC94C3
Track not present in AccurateRip database
Copy OK

Track 15

Filename D:\Rips\Kiss - Gods of Thunder\2 - Unmasked in Detroit [1984-12-08, Detroit, MI]\15 - Rock And Roll All Nite.wav

Peak level 98.8 %
Extraction speed 2.8 X
Track quality 100.0 %
Test CRC 9527DBC7
Copy CRC 9527DBC7
Track not present in AccurateRip database
Copy OK


None of the tracks are present in the AccurateRip database

No errors occurred

End of status report

–– CUETools DB Plugin V2.1.6

[CTDB TOCID: jEdbJVnjRkGP.mdThgehKPVBEuU-] found
Submit result: jEdbJVnjRkGP.mdThgehKPVBEuU- has been confirmed
Track | CTDB Status
1 | (2/2) Accurately ripped
2 | (2/2) Accurately ripped
3 | (2/2) Accurately ripped
4 | (2/2) Accurately ripped
5 | (2/2) Accurately ripped
6 | (2/2) Accurately ripped
7 | (2/2) Accurately ripped
8 | (2/2) Accurately ripped
9 | (2/2) Accurately ripped
10 | (2/2) Accurately ripped
11 | (2/2) Accurately ripped
12 | (2/2) Accurately ripped
13 | (2/2) Accurately ripped
14 | (2/2) Accurately ripped
15 | (2/2) Accurately ripped


==== Log checksum D75FEED032EB8F52D13C3B8D76D1C5C4437FC3DEB55AA788902F45D0FFD1CBCE ====


Exact Audio Copy V1.3 from 2. September 2016

EAC extraction logfile from 28. March 2017, 12:12

KISS / Gods of Thunder

Used drive : PLDS DVD+-RW DU-8A5LH Adapter: 1 ID: 0

Read mode : Secure
Utilize accurate stream : Yes
Defeat audio cache : Yes
Make use of C2 pointers : No

Read offset correction : 6
Overread into Lead-In and Lead-Out : No
Fill up missing offset samples with silence : Yes
Delete leading and trailing silent blocks : No
Null samples used in CRC calculations : Yes
Used interface : Native Win32 interface for Win NT & 2000
Gap handling : Appended to previous track

Used output format : User Defined Encoder
Selected bitrate : 128 kBit/s
Quality : High
Add ID3 tag : No
Command line compressor : C:\Program Files (x86)\Exact Audio Copy\Flac\flac.exe
Additional command line options : -8 -V -T "ARTIST=%artist%" -T "TITLE=%title%" -T "ALBUM=%albumtitle%" -T "DATE=%year%" -T "TRACKNUMBER=%tracknr%" -T "GENRE=%genre%" -T "PERFORMER=%albuminterpret%" -T "COMPOSER=%composer%" %haslyrics%–tag-from-file=LYRICS="%lyricsfile%"%haslyrics% -T "ALBUMARTIST=%albumartist%" -T "DISCNUMBER=%cdnumber%" -T "TOTALDISCS=%totalcds%" -T "TOTALTRACKS=%numtracks%" -T "COMMENT=%comment%" %source% -o %dest%


TOC of the extracted CD

Track | Start | Length | Start sector | End sector
––––––––––––––––––––––––––––-
1 | 0:00.00 | 3:17.04 | 0 | 14778
2 | 3:17.04 | 4:04.06 | 14779 | 33084
3 | 7:21.10 | 4:51.19 | 33085 | 54928
4 | 12:12.29 | 3:54.35 | 54929 | 72513
5 | 16:06.64 | 4:44.62 | 72514 | 93875
6 | 20:51.51 | 3:13.31 | 93876 | 108381
7 | 24:05.07 | 4:37.10 | 108382 | 129166
8 | 28:42.17 | 4:57.36 | 129167 | 151477
9 | 33:39.53 | 2:35.02 | 151478 | 163104
10 | 36:14.55 | 4:25.45 | 163105 | 183024
11 | 40:40.25 | 3:02.44 | 183025 | 196718
12 | 43:42.69 | 3:53.09 | 196719 | 214202
13 | 47:36.03 | 3:54.21 | 214203 | 231773
14 | 51:30.24 | 3:42.01 | 231774 | 248424
15 | 55:12.25 | 3:08.20 | 248425 | 262544
16 | 58:20.45 | 3:14.32 | 262545 | 277126
17 | 61:35.02 | 3:14.66 | 277127 | 291742
18 | 64:49.68 | 3:54.04 | 291743 | 309296
19 | 68:43.72 | 3:26.51 | 309297 | 324797
20 | 72:10.48 | 4:19.17 | 324798 | 344239


Track 1

Filename D:\Rips\Kiss - Gods of Thunder\3 - Crazy Night At The Ritz\01 - Deuce.wav

Pre-gap length 0:00:02.00

Peak level 98.8 %
Extraction speed 2.7 X
Track quality 100.0 %
Test CRC 002DE71C
Copy CRC 002DE71C
Track not present in AccurateRip database
Copy OK

Track 2

Filename D:\Rips\Kiss - Gods of Thunder\3 - Crazy Night At The Ritz\02 - Love Gun.wav

Peak level 98.8 %
Extraction speed 3.1 X
Track quality 100.0 %
Test CRC ACFEBB34
Copy CRC ACFEBB34
Track not present in AccurateRip database
Copy OK

Track 3

Filename D:\Rips\Kiss - Gods of Thunder\3 - Crazy Night At The Ritz\03 - Fits Like A Glove.wav

Peak level 98.8 %
Extraction speed 3.4 X
Track quality 100.0 %
Test CRC FD4E58BF
Copy CRC FD4E58BF
Track not present in AccurateRip database
Copy OK

Track 4

Filename D:\Rips\Kiss - Gods of Thunder\3 - Crazy Night At The Ritz\04 - Heaven's On Fire.wav

Peak level 98.8 %
Extraction speed 3.6 X
Track quality 100.0 %
Test CRC 9175BD07
Copy CRC 9175BD07
Track not present in AccurateRip database
Copy OK

Track 5

Filename D:\Rips\Kiss - Gods of Thunder\3 - Crazy Night At The Ritz\05 - Cold Gin.wav

Peak level 98.8 %
Extraction speed 3.4 X
Track quality 99.9 %
Test CRC 603C96C1
Copy CRC 603C96C1
Track not present in AccurateRip database
Copy OK

Track 6

Filename D:\Rips\Kiss - Gods of Thunder\3 - Crazy Night At The Ritz\06 - Black Diamond.wav

Peak level 98.8 %
Extraction speed 3.9 X
Track quality 100.0 %
Test CRC 65E0E633
Copy CRC 65E0E633
Track not present in AccurateRip database
Copy OK

Track 7

Filename D:\Rips\Kiss - Gods of Thunder\3 - Crazy Night At The Ritz\07 - Bang Bang You.wav

Peak level 98.8 %
Extraction speed 4.3 X
Track quality 100.0 %
Test CRC D884CC0A
Copy CRC D884CC0A
Track not present in AccurateRip database
Copy OK

Track 8

Filename D:\Rips\Kiss - Gods of Thunder\3 - Crazy Night At The Ritz\08 - No No No.wav

Peak level 98.8 %
Extraction speed 3.9 X
Track quality 99.9 %
Test CRC 649421FB
Copy CRC 649421FB
Track not present in AccurateRip database
Copy OK

Track 9

Filename D:\Rips\Kiss - Gods of Thunder\3 - Crazy Night At The Ritz\09 - Firehouse.wav

Peak level 98.8 %
Extraction speed 3.3 X
Track quality 99.9 %
Test CRC 283F1317
Copy CRC 283F1317
Track not present in AccurateRip database
Copy OK

Track 10

Filename D:\Rips\Kiss - Gods of Thunder\3 - Crazy Night At The Ritz\10 - Crazy Crazy Nights.wav

Peak level 98.8 %
Extraction speed 4.1 X
Track quality 99.9 %
Test CRC EB9E99B1
Copy CRC EB9E99B1
Track not present in AccurateRip database
Copy OK

Track 11

Filename D:\Rips\Kiss - Gods of Thunder\3 - Crazy Night At The Ritz\11 - Calling Dr. Love.wav

Peak level 98.8 %
Extraction speed 3.8 X
Track quality 99.9 %
Test CRC 28692D40
Copy CRC 28692D40
Track not present in AccurateRip database
Copy OK

Track 12

Filename D:\Rips\Kiss - Gods of Thunder\3 - Crazy Night At The Ritz\12 - War Machine.wav

Peak level 98.8 %
Extraction speed 5.0 X
Track quality 100.0 %
Test CRC B60111E9
Copy CRC B60111E9
Track not present in AccurateRip database
Copy OK

Track 13

Filename D:\Rips\Kiss - Gods of Thunder\3 - Crazy Night At The Ritz\13 - Reason To Live.wav

Peak level 98.8 %
Extraction speed 5.1 X
Track quality 100.0 %
Test CRC E1B18AAF
Copy CRC E1B18AAF
Track not present in AccurateRip database
Copy OK

Track 14

Filename D:\Rips\Kiss - Gods of Thunder\3 - Crazy Night At The Ritz\14 - Tears Are Falling.wav

Peak level 98.8 %
Extraction speed 5.2 X
Track quality 100.0 %
Test CRC E6F43AF1
Copy CRC E6F43AF1
Track not present in AccurateRip database
Copy OK

Track 15

Filename D:\Rips\Kiss - Gods of Thunder\3 - Crazy Night At The Ritz\15 - I Love It Loud.wav

Peak level 98.8 %
Extraction speed 5.1 X
Track quality 100.0 %
Test CRC 88DFF54B
Copy CRC 88DFF54B
Track not present in AccurateRip database
Copy OK

Track 16

Filename D:\Rips\Kiss - Gods of Thunder\3 - Crazy Night At The Ritz\16 - Strutter.wav

Peak level 98.8 %
Extraction speed 5.3 X
Track quality 100.0 %
Test CRC 7CF83234
Copy CRC 7CF83234
Track not present in AccurateRip database
Copy OK

Track 17

Filename D:\Rips\Kiss - Gods of Thunder\3 - Crazy Night At The Ritz\17 - Shout It Out Loud.wav

Peak level 98.8 %
Extraction speed 4.4 X
Track quality 99.9 %
Test CRC FD10E502
Copy CRC FD10E502
Track not present in AccurateRip database
Copy OK

Track 18

Filename D:\Rips\Kiss - Gods of Thunder\3 - Crazy Night At The Ritz\18 - Lick It Up.wav

Peak level 98.8 %
Extraction speed 4.8 X
Track quality 99.9 %
Test CRC B3861F0C
Copy CRC B3861F0C
Track not present in AccurateRip database
Copy OK

Track 19

Filename D:\Rips\Kiss - Gods of Thunder\3 - Crazy Night At The Ritz\19 - Rock And Roll All Nite.wav

Peak level 98.8 %
Extraction speed 5.7 X
Track quality 100.0 %
Test CRC E6965701
Copy CRC E6965701
Track not present in AccurateRip database
Copy OK

Track 20

Filename D:\Rips\Kiss - Gods of Thunder\3 - Crazy Night At The Ritz\20 - Detroit Rock City.wav

Peak level 98.8 %
Extraction speed 6.0 X
Track quality 100.0 %
Test CRC 47D48AC1
Copy CRC 47D48AC1
Track not present in AccurateRip database
Copy OK


None of the tracks are present in the AccurateRip database

No errors occurred

End of status report

–– CUETools DB Plugin V2.1.6

[CTDB TOCID: GW9qN8NUXDNl13D3jwmwhOSlMwY-] found
Submit result: GW9qN8NUXDNl13D3jwmwhOSlMwY- has been confirmed
Track | CTDB Status
1 | (2/2) Accurately ripped
2 | (2/2) Accurately ripped
3 | (2/2) Accurately ripped
4 | (2/2) Accurately ripped
5 | (2/2) Accurately ripped
6 | (2/2) Accurately ripped
7 | (2/2) Accurately ripped
8 | (2/2) Accurately ripped
9 | (2/2) Accurately ripped
10 | (2/2) Accurately ripped
11 | (2/2) Accurately ripped
12 | (2/2) Accurately ripped
13 | (2/2) Accurately ripped
14 | (2/2) Accurately ripped
15 | (2/2) Accurately ripped
16 | (2/2) Accurately ripped
17 | (2/2) Accurately ripped
18 | (2/2) Accurately ripped
19 | (2/2) Accurately ripped
20 | (2/2) Accurately ripped


==== Log checksum 4C4B80194AB8EC27ACC7D3F113C8C22337BCA7091F5FE2650710623539890413 ====


Exact Audio Copy V1.3 from 2. September 2016

EAC extraction logfile from 28. March 2017, 15:59

KISS / Gods of Thunder

Used drive : PLDS DVD+-RW DU-8A5LH Adapter: 1 ID: 0

Read mode : Secure
Utilize accurate stream : Yes
Defeat audio cache : Yes
Make use of C2 pointers : No

Read offset correction : 6
Overread into Lead-In and Lead-Out : No
Fill up missing offset samples with silence : Yes
Delete leading and trailing silent blocks : No
Null samples used in CRC calculations : Yes
Used interface : Native Win32 interface for Win NT & 2000
Gap handling : Appended to previous track

Used output format : User Defined Encoder
Selected bitrate : 128 kBit/s
Quality : High
Add ID3 tag : No
Command line compressor : C:\Program Files (x86)\Exact Audio Copy\Flac\flac.exe
Additional command line options : -8 -V -T "ARTIST=%artist%" -T "TITLE=%title%" -T "ALBUM=%albumtitle%" -T "DATE=%year%" -T "TRACKNUMBER=%tracknr%" -T "GENRE=%genre%" -T "PERFORMER=%albuminterpret%" -T "COMPOSER=%composer%" %haslyrics%–tag-from-file=LYRICS="%lyricsfile%"%haslyrics% -T "ALBUMARTIST=%albumartist%" -T "DISCNUMBER=%cdnumber%" -T "TOTALDISCS=%totalcds%" -T "TOTALTRACKS=%numtracks%" -T "COMMENT=%comment%" %source% -o %dest%


TOC of the extracted CD

Track | Start | Length | Start sector | End sector
––––––––––––––––––––––––––––-
1 | 0:00.00 | 4:21.54 | 0 | 19628
2 | 4:21.54 | 3:39.08 | 19629 | 36061
3 | 8:00.62 | 3:54.28 | 36062 | 53639
4 | 11:55.15 | 3:43.50 | 53640 | 70414
5 | 15:38.65 | 3:33.39 | 70415 | 86428
6 | 19:12.29 | 4:52.73 | 86429 | 108401
7 | 24:05.27 | 3:45.59 | 108402 | 125335
8 | 27:51.11 | 3:05.19 | 125336 | 139229
9 | 30:56.30 | 3:20.23 | 139230 | 154252
10 | 34:16.53 | 4:35.61 | 154253 | 174938
11 | 38:52.39 | 4:27.41 | 174939 | 195004
12 | 43:20.05 | 4:11.24 | 195005 | 213853
13 | 47:31.29 | 4:31.34 | 213854 | 234212
14 | 52:02.63 | 3:54.49 | 234213 | 251811
15 | 55:57.37 | 3:30.55 | 251812 | 267616
16 | 59:28.17 | 6:19.23 | 267617 | 296064
17 | 65:47.40 | 7:44.09 | 296065 | 330873
18 | 73:31.49 | 5:13.48 | 330874 | 354396


Track 1

Filename D:\Rips\Kiss - Gods of Thunder\4 - Doctor Love [1994-08-27, São Paulo, Brazil]\01 - Creatures Of The Night.wav

Pre-gap length 0:00:02.00

Peak level 98.8 %
Extraction speed 1.2 X
Track quality 100.0 %
Test CRC B94EC9EC
Copy CRC B94EC9EC
Track not present in AccurateRip database
Copy OK

Track 2

Filename D:\Rips\Kiss - Gods of Thunder\4 - Doctor Love [1994-08-27, São Paulo, Brazil]\02 - Parasite.wav

Peak level 98.8 %
Extraction speed 1.2 X
Track quality 99.9 %
Test CRC 20EA3A4F
Copy CRC 20EA3A4F
Track not present in AccurateRip database
Copy OK

Track 3

Filename D:\Rips\Kiss - Gods of Thunder\4 - Doctor Love [1994-08-27, São Paulo, Brazil]\03 - Unholy.wav

Peak level 98.9 %
Extraction speed 1.3 X
Track quality 99.9 %
Test CRC 9D59627C
Copy CRC 9D59627C
Track not present in AccurateRip database
Copy OK

Track 4

Filename D:\Rips\Kiss - Gods of Thunder\4 - Doctor Love [1994-08-27, São Paulo, Brazil]\04 - I Stole Your Love.wav

Peak level 98.8 %
Extraction speed 1.5 X
Track quality 100.0 %
Test CRC FFE58397
Copy CRC FFE58397
Track not present in AccurateRip database
Copy OK

Track 5

Filename D:\Rips\Kiss - Gods of Thunder\4 - Doctor Love [1994-08-27, São Paulo, Brazil]\05 - Watchin' You.wav

Peak level 98.8 %
Extraction speed 1.6 X
Track quality 100.0 %
Test CRC A7A27EE2
Copy CRC A7A27EE2
Track not present in AccurateRip database
Copy OK

Track 6

Filename D:\Rips\Kiss - Gods of Thunder\4 - Doctor Love [1994-08-27, São Paulo, Brazil]\06 - Firehouse.wav

Peak level 98.8 %
Extraction speed 1.7 X
Track quality 100.0 %
Test CRC 042001C0
Copy CRC 042001C0
Track not present in AccurateRip database
Copy OK

Track 7

Filename D:\Rips\Kiss - Gods of Thunder\4 - Doctor Love [1994-08-27, São Paulo, Brazil]\07 - Got To Choose.wav

Peak level 98.9 %
Extraction speed 1.8 X
Track quality 100.0 %
Test CRC 2F085C9E
Copy CRC 2F085C9E
Track not present in AccurateRip database
Copy OK

Track 8

Filename D:\Rips\Kiss - Gods of Thunder\4 - Doctor Love [1994-08-27, São Paulo, Brazil]\08 - Calling Dr. Love.wav

Peak level 98.8 %
Extraction speed 1.6 X
Track quality 99.9 %
Test CRC 8D628309
Copy CRC 8D628309
Track not present in AccurateRip database
Copy OK

Track 9

Filename D:\Rips\Kiss - Gods of Thunder\4 - Doctor Love [1994-08-27, São Paulo, Brazil]\09 - Makin' Love.wav

Peak level 98.8 %
Extraction speed 1.9 X
Track quality 100.0 %
Test CRC 00B26996
Copy CRC 00B26996
Track not present in AccurateRip database
Copy OK

Track 10

Filename D:\Rips\Kiss - Gods of Thunder\4 - Doctor Love [1994-08-27, São Paulo, Brazil]\10 - War Machine.wav

Peak level 98.9 %
Extraction speed 2.0 X
Track quality 100.0 %
Test CRC 9E1EF3A6
Copy CRC 9E1EF3A6
Track not present in AccurateRip database
Copy OK

Track 11

Filename D:\Rips\Kiss - Gods of Thunder\4 - Doctor Love [1994-08-27, São Paulo, Brazil]\11 - I Was Made For Lovin' You.wav

Peak level 98.8 %
Extraction speed 1.9 X
Track quality 99.9 %
Test CRC 6B2F9766
Copy CRC 6B2F9766
Track not present in AccurateRip database
Copy OK

Track 12

Filename D:\Rips\Kiss - Gods of Thunder\4 - Doctor Love [1994-08-27, São Paulo, Brazil]\12 - Domino.wav

Peak level 98.8 %
Extraction speed 1.9 X
Track quality 99.9 %
Test CRC 56DD6069
Copy CRC 56DD6069
Track not present in AccurateRip database
Copy OK

Track 13

Filename D:\Rips\Kiss - Gods of Thunder\4 - Doctor Love [1994-08-27, São Paulo, Brazil]\13 - Love Gun.wav

Peak level 98.8 %
Extraction speed 2.3 X
Track quality 100.0 %
Test CRC 6F09CF39
Copy CRC 6F09CF39
Track not present in AccurateRip database
Copy OK

Track 14

Filename D:\Rips\Kiss - Gods of Thunder\4 - Doctor Love [1994-08-27, São Paulo, Brazil]\14 - God Of Thunder.wav

Peak level 98.8 %
Extraction speed 2.3 X
Track quality 100.0 %
Test CRC D2AFBC50
Copy CRC D2AFBC50
Track not present in AccurateRip database
Copy OK

Track 15

Filename D:\Rips\Kiss - Gods of Thunder\4 - Doctor Love [1994-08-27, São Paulo, Brazil]\15 - I Love It Loud.wav

Peak level 98.8 %
Extraction speed 2.3 X
Track quality 100.0 %
Test CRC A554AF69
Copy CRC A554AF69
Track not present in AccurateRip database
Copy OK

Track 16

Filename D:\Rips\Kiss - Gods of Thunder\4 - Doctor Love [1994-08-27, São Paulo, Brazil]\16 - Detroit Rock City.wav

Peak level 98.8 %
Extraction speed 2.6 X
Track quality 100.0 %
Test CRC 059986E8
Copy CRC 059986E8
Track not present in AccurateRip database
Copy OK

Track 17

Filename D:\Rips\Kiss - Gods of Thunder\4 - Doctor Love [1994-08-27, São Paulo, Brazil]\17 - Black Diamond.wav

Peak level 98.8 %
Extraction speed 2.5 X
Track quality 99.9 %
Test CRC EB02A3E2
Copy CRC EB02A3E2
Track not present in AccurateRip database
Copy OK

Track 18

Filename D:\Rips\Kiss - Gods of Thunder\4 - Doctor Love [1994-08-27, São Paulo, Brazil]\18 - Heaven's On Fire.wav

Peak level 98.8 %
Extraction speed 2.7 X
Track quality 100.0 %
Test CRC DD953912
Copy CRC DD953912
Track not present in AccurateRip database
Copy OK


None of the tracks are present in the AccurateRip database

No errors occurred

End of status report

–– CUETools DB Plugin V2.1.6

[CTDB TOCID: e.YN1r3agT8sech55Nb5Feh5Ooo-] found
Submit result: e.YN1r3agT8sech55Nb5Feh5Ooo- has been confirmed
Track | CTDB Status
1 | (2/2) Accurately ripped
2 | (2/2) Accurately ripped
3 | (2/2) Accurately ripped
4 | (2/2) Accurately ripped
5 | (2/2) Accurately ripped
6 | (2/2) Accurately ripped
7 | (2/2) Accurately ripped
8 | (2/2) Accurately ripped
9 | (2/2) Accurately ripped
10 | (2/2) Accurately ripped
11 | (2/2) Accurately ripped
12 | (2/2) Accurately ripped
13 | (2/2) Accurately ripped
14 | (2/2) Accurately ripped
15 | (2/2) Accurately ripped
16 | (2/2) Accurately ripped
17 | (2/2) Accurately ripped
18 | (2/2) Accurately ripped


==== Log checksum B3D65917AB019531E6FC5546110E77C46C696C50CCF81FABB0FDEB3A6BB00652 ====