Tags
Language
Tags

KISS - Monster (2012) [International Tour Ed., 2013]

Posted By: Andi_Deris
KISS - Monster (2012) [International Tour Ed., 2013]

KISS - Monster (2012) [International Tour Ed., 2013]
EAC Rip | FLAC: Image+Cue+Log | 390 Mb | MP3 CBR 320 kbps | 134 Mb | Scans | Time: 47:37
Hard Rock, Heavy Metal, Glam Metal | Simstan Music, Ltd./Universal | 0602537499662

Monster is the 20th studio album by American rock band Kiss, released on October 9, 2012. To commemorate massive 18 date coast to coast Canadian summer tour, Kiss have re-issued a special Limited Tour Edition of Monster. Includes the bonus track Right Here Right Now, along with an exclusive poster. This track was previously an iTunes-exclusive album-only track, but is now available for the first time on a physical format.

KISS - Monster (2012) [International Tour Ed., 2013]




KISS - Monster (2012) [International Tour Ed., 2013]


Track Listing

01. Hell Or Halleluja (4:07)
02. Wall Of Sound (2:55)
03. Freak (3:35)
04. Back To The Stone Age (3:01)
05. Shout Mercy (4:04)
06. Long Way Down (3:51)
07. Eat Your Heart Out (4:06)
08. The Devil Is Me (3:41)
09. Otta This World (4:29)
10. All For The Love Of Rock & Roll (3:21)
11. Take Me Down Below (3:24)
12. Last Chance (3:05)
13. Right Here Right Now (Bonus track) (3:58)

Produced by Paul Stanley
Co-produced by Greg Collins

The Band

• Tommy Thayer: Lead guitar, Lead vocals
• Paul Stanley: Guitar, Lead vocals
• Eric Singer: Drums, Lead vocals
• Gene Simmons: Bass, Lead vocals

• Brian Whelan: Piano on "Freak"

KISS - Monster (2012) [International Tour Ed., 2013]


Exact Audio Copy V0.99 prebeta 5 from 4. May 2009

EAC extraction logfile from 21. June 2013, 22:54

KISS / Monster

Used drive : HL-DT-STDVD-RAM GH22NP20 Adapter: 0 ID: 0

Read mode : Secure
Utilize accurate stream : Yes
Defeat audio cache : Yes
Make use of C2 pointers : No

Read offset correction : 102
Overread into Lead-In and Lead-Out : No
Fill up missing offset samples with silence : Yes
Delete leading and trailing silent blocks : No
Null samples used in CRC calculations : Yes
Used interface : Native Win32 interface for Win NT & 2000

Used output format : User Defined Encoder
Selected bitrate : 32 kBit/s
Quality : High
Add ID3 tag : No
Command line compressor : C:\Programme\Exact Audio Copy\FLAC.EXE
Additional command line options : -6 -V %s


TOC of the extracted CD

Track | Start | Length | Start sector | End sector
––––––––––––––––––––––––––––-
1 | 0:00.00 | 4:07.27 | 0 | 18551
2 | 4:07.27 | 2:55.42 | 18552 | 31718
3 | 7:02.69 | 3:35.24 | 31719 | 47867
4 | 10:38.18 | 3:01.23 | 47868 | 61465
5 | 13:39.41 | 4:04.33 | 61466 | 79798
6 | 17:43.74 | 3:51.01 | 79799 | 97124
7 | 21:35.00 | 4:06.15 | 97125 | 115589
8 | 25:41.15 | 3:41.03 | 115590 | 132167
9 | 29:22.18 | 4:29.05 | 132168 | 152347
10 | 33:51.23 | 3:21.47 | 152348 | 167469
11 | 37:12.70 | 3:24.38 | 167470 | 182807
12 | 40:37.33 | 3:05.54 | 182808 | 196736
13 | 43:43.12 | 3:58.55 | 196737 | 214641


Range status and errors

Selected range

Filename D:\MMT\KISS [2013] [CD] Monster (International Tour Edition) [EAC-FLAC] by Long Metalhead\Monster (International Tour Edition)\KISS - Monster.wav

Peak level 100.0 %
Range quality 100.0 %
Test CRC C053CF0C
Copy CRC C053CF0C
Copy OK

No errors occurred


AccurateRip summary

Track 1 not present in database
Track 2 not present in database
Track 3 not present in database
Track 4 not present in database
Track 5 not present in database
Track 6 not present in database
Track 7 not present in database
Track 8 not present in database
Track 9 not present in database
Track 10 not present in database
Track 11 not present in database
Track 12 not present in database
Track 13 not present in database

None of the tracks are present in the AccurateRip database

End of status report


Many thanks to the original uploader: Long Metalhead

SEE also:
KISS 2005 Gold [Japan LTD SHM-CD, 2008] 2CD
KISS 2014 40 Years: Decades Of Decibels [Japanese Ed.] 2CD

Paul Stanley 2008 One Live Kiss (DVD9)

Stream 1998 Nothing Is Sacred [Japanese Ed.]
–––––––––
Nitroflare