Tags
Language
Tags
April 2024
Su Mo Tu We Th Fr Sa
31 1 2 3 4 5 6
7 8 9 10 11 12 13
14 15 16 17 18 19 20
21 22 23 24 25 26 27
28 29 30 1 2 3 4

Kotebel - Mysticae Visiones: 2018 Edition (2002) {2018, Reissue}

Posted By: popsakov
Kotebel - Mysticae Visiones: 2018 Edition (2002) {2018, Reissue}

Kotebel - Mysticae Visiones: 2018 Edition (2002) {2018, Reissue}
EAC Rip | WavPack (Img) + Cue + Log ~ 432 Mb | MP3 CBR320 ~ 217 Mb
Full Scans | 00:59:40 | RAR 5% Recovery
Progressive Rock, Sympho-Prog, Avant-Prog | Rock CD Records #RCDR2602

Kotebel's self-released debut, Structures, contained promises – but the production (synthesizer only with programmed tracks) held the music back. This second offering, released by the giant prog rock label Musea, is much more satisfying. Although still very much keyboard oriented, Mysticae Visiones is better programmed (the drums have considerably improved) and features other instrumentalists. The presence of guitarist César Garcia and flutist Omar Acosta provides a lush '70s progressive rock atmosphere not unlike Maneige circa Ni Vent Ni Nouvelle or the instrumental albums of Banco del Mutuo Soccorso. Cellist Francisco Ochando and singer Carolina Prieto add more occasional touches. The music of Carlos Plaza (the man behind the moniker Kotebel) remains romantic, symphonic, highly melodious. The compositions have improved, and are now more intricate. The title track consists of a 36-minute suite in 12 parts, taking listeners from birth to death, afterlife, and reincarnation. The piece's structure illustrates this cycle in minute detail. Some sections verge on lackluster synth music, but others, especially "Transition" and "Meditation," will satisfy any fan of the genre. The 15-minute piece "The River" rounds up the program, this one a typical shapeshifting prog composition. There is a naïveté in this music that gives it a strong '70s flavor, which may or may not be a good thing, depending on your own taste. But one thing is sure: This second opus sounds a lot more like the effort of a professional group.

~ François Couture, All Music

***************

Kotebel - Mysticae Visiones: 2018 Edition (2002) {2018, Reissue}

Kotebel - Mysticae Visiones: 2018 Edition (2002) {2018, Reissue}

Track List:

01. Mysticae Visiones (35:48)
I - Prologue
II - Birth and Childhood … The discovery
III - Youth … The dream
IV - Manhood … The construction
V - Reflection
VI - Death
VII - Transition
VIII - Meditation
IX - First Heaven … Punishment
X - Second Heaven … Reward
XI - Third Heaven … The beckoning
XII - Epilogue
02. The River (14:55)
03. Bonus: Entangled Universe Live Madrid 2017 (9:07)

Total Time: 59:39

Personnel:
Carlos Plaza - keyboards, bass, percussion
Omar Acosta - flute
César García - guitars
Carlos Franco - ethnic percussion
Adriana Plaza - tambourine

Exact Audio Copy V1.3 from 2. September 2016

EAC extraction logfile from 12. March 2019, 15:51

Kotebel / Mysticae Visiones 2018 Edition

Used drive : HL-DT-STBD-RE WH16NS40 Adapter: 1 ID: 0

Read mode : Secure
Utilize accurate stream : Yes
Defeat audio cache : Yes
Make use of C2 pointers : No

Read offset correction : 6
Overread into Lead-In and Lead-Out : No
Fill up missing offset samples with silence : Yes
Delete leading and trailing silent blocks : No
Null samples used in CRC calculations : Yes
Used interface : Native Win32 interface for Win NT & 2000

Used output format : User Defined Encoder
Selected bitrate : 768 kBit/s
Quality : High
Add ID3 tag : No
Command line compressor : C:\Program Files (x86)\Exact Audio Copy\Wavpack\wavpack.exe
Additional command line options : -hm %source% %dest%


TOC of the extracted CD

Track | Start | Length | Start sector | End sector
––––––––––––––––––––––––––––-
1 | 0:00.00 | 4:48.70 | 0 | 21669
2 | 4:48.70 | 2:27.49 | 21670 | 32743
3 | 7:16.44 | 2:09.15 | 32744 | 42433
4 | 9:25.59 | 1:34.38 | 42434 | 49521
5 | 11:00.22 | 1:47.02 | 49522 | 57548
6 | 12:47.24 | 2:35.05 | 57549 | 69178
7 | 15:22.29 | 3:39.55 | 69179 | 85658
8 | 19:02.09 | 5:04.33 | 85659 | 108491
9 | 24:06.42 | 3:43.64 | 108492 | 125280
10 | 27:50.31 | 3:20.08 | 125281 | 140288
11 | 31:10.39 | 1:36.17 | 140289 | 147505
12 | 32:46.56 | 2:57.18 | 147506 | 160798
13 | 35:43.74 | 14:48.58 | 160799 | 227456
14 | 50:32.57 | 9:06.51 | 227457 | 268457


Range status and errors

Selected range

Filename E:\_NL+_\_CD\Kotebel - Mysticae Visiones 2018 Edition.wav

Peak level 100.0 %
Extraction speed 5.4 X
Range quality 100.0 %
Test CRC F3061126
Copy CRC F3061126
Copy OK

No errors occurred


AccurateRip summary

Track 1 not present in database
Track 2 not present in database
Track 3 not present in database
Track 4 not present in database
Track 5 not present in database
Track 6 not present in database
Track 7 not present in database
Track 8 not present in database
Track 9 not present in database
Track 10 not present in database
Track 11 not present in database
Track 12 not present in database
Track 13 not present in database
Track 14 not present in database

None of the tracks are present in the AccurateRip database

End of status report

–– CUETools DB Plugin V2.1.6

[CTDB TOCID: .inYMVGg1mYZgDWr4WNBRemtip4-] disk not present in database
Submit result: .inYMVGg1mYZgDWr4WNBRemtip4- has been uploaded


==== Log checksum 52916019509EDBB5BD0F060056659AB4C75AA36D0233269B017E51C66A682521 ====

Kotebel - Mysticae Visiones: 2018 Edition (2002) {2018, Reissue}


See also:

Kotebel - Cosmology (2017)

All thanks go to tatuk

>>> My Blog <<<

DOWNLOAD: