Tags
Language
Tags
June 2024
Su Mo Tu We Th Fr Sa
26 27 28 29 30 31 1
2 3 4 5 6 7 8
9 10 11 12 13 14 15
16 17 18 19 20 21 22
23 24 25 26 27 28 29
30 1 2 3 4 5 6

Kylie Minogue - Golden (2018) {Deluxe Edition}

Posted By: BlondStyle
Kylie Minogue - Golden (2018) {Deluxe Edition}

Kylie Minogue - Golden (2018) {Deluxe Edition}
Pop, Country Pop, Electronic, Dance | EAC Rip | FLAC, Img+CUE+LOG+Scans (JPEG) | 54:10 | 545,88 Mb
Label: BMG (EU) | Cat.# 538360772 | Released: 2018-04-06

"Golden" is the fourteenth studio album by Australian singer Kylie Minogue. It was released on 6 April 2018 by BMG Rights Management. A large portion of the record was recorded in Nashville, Tennessee, where she found new inspiration with its music, and also recorded some material in London and Los Angeles, California. The album was co-produced by Minogue alongside a variety of producers including Ash Howes, Richard "Biff" Stannard, Sky Adams, Alex Smith, and Mark Taylor, among others. Each track was co-written by Minogue, making it her first album since Impossible Princess (1997) to do so. Musically, Golden is a pop record that is heavily influenced by country and dance music. Described by Minogue as one of her most personal efforts, the lyrics encompass a wide range of themes including failed relationships, death, dancing and having fun. Upon its release, Golden received generally positive reviews from music critics, a majority of whom commended Minogue's honesty and personality through her songwriting skills, as well as its catchiness. However, critics were divided by the composition and her experimentation with country music. Commercially, the album entered the top twenty in several markets, including Australia, Belgium, Germany, Ireland, New Zealand, Switzerland, and the United Kingdom; it became the singer's first album to peak at number one in both her native Australia and the United Kingdom since Fever in 2001. Golden has spawned two singles and one promotional recording. "Dancing" was released on 19 January 2018 to critical success, some highlighting as one of Minogue's best singles to date. Commercially, it achieved moderate success in several nations. "Stop Me from Falling" served as the second single on 9 March 2018, and has achieved minor impact on record charts around the world. In order to promote the album, Minogue made appearances on several shows including Saturday Night Takeaway, The Graham Norton Show and Sport Relief. Furthermore, she conducted her mini-tour Kylie Presents Golden in small gig-sized venues, and will further plan to commence her international Golden Tour in September 2018.
~Wikipedia

Kylie Minogue - Golden (2018) {Deluxe Edition}

After a long career full of many course corrections and detours, it seemed like Kylie Minogue was locked into being a shiny, glittery dance pop icon for life. A label change and some personal turmoil in the form of a soul-shattering breakup sent Minogue looking for something new musically. When planning her first album for BMG, a label rep asked if she had ever thought of recording country music in Nashville and she jumped at the chance. For 2018's Golden, Minogue went to Music City, got to work writing songs with some seasoned pros, and ended up co-writing all the songs on the record. It's heartbreaking and uplifting in turn as she makes sense of where her heart has taken her, set to the tune of fiddles, guitars, and woodsy backing vocals along with the more traditional synths, drum machines, and club beats one usually hears on a Minogue album. She and her team of musicians, writers, and producers straddle the line between twang and glitter on just about every song; sometimes, it leans more in favor of line dancing, sometimes the glitter ball takes over, especially on the shimmering "Raining Glitter." Sometimes, like on "Live a Little" or the very hooky single "Dancing," it's the best of both worlds. It's an interesting mix that puts her in line with much of what's happening in mainstream country. Certainly, the difference between most of Golden and, say, Kacey Musgraves' 2018 album is almost non-existent. The amazing thing about the album, and about Minogue, is that she pulls off the country as well as she's pulled off new wave, disco, electro, murder ballads, and everything else she's done in her long career. Her voice may not have the depth of some of the great Nashville singers, but she has tons of personality, and when she cuts loose there's more than a little Dolly Parton in her artistic DNA. She also does a fine job on ballads letting the heartbreak flow on "Radio On" and sounding like both Tegan and Sara on "Sincerely Yours." Golden is an odd detour for Minogue, and it's hard to imagine that the record will get much traction on the country side of the equation there's a strong chance her less devoted fans might find the new sound a little too much. As an artistic statement, it's pretty darn bold, though, and proves that she's still game for just about anything and able to make whatever she does sound exactly like herself.
~Review by Tim Sendra

Kylie Minogue - Golden (2018) {Deluxe Edition}

Kylie Minogue - Golden (2018) {Deluxe Edition}

Release of this album/CD: 2018, April, 6 [CD BMG (EU), Cat.# 538360772 / UPC: 4050538360776]
℗&© 2018 Kylie Minogue/Darenote Limited under exclusive licence to BMG Rights Management (UK) Limited.
Manufactured by Optimal Media GmbH, Germany

Credits:

Creative Director, Design – Leif Podhajsky
Management – A&P Artist Management Ltd.
Mastered By – Dick Beetham
Photography By – Simon Emmett
Producer, Written-By – Sky Adams (tracks: 1, 2, 4, 7, 10, 14 to 16)
Written-By – Kylie Minogue


Tracklist:

01. Dancing (02:59)
(Kylie Minogue, Nathan Chapman, Steve McEwan)
02. Stop Me from Falling (03:02)
(Danny Shah, Kylie Minogue, Sky Adams, Steve McEwan)
03. Golden (03:08)
(Kylie Minogue, Lindsay Rimes, Liz Rose, Steve McEwan)
04. A Lifetime to Repair (03:19)
(Danny Shah, Kiris Houston, Kylie Minogue, Sky Adams)
05. Sincerely Yours (03:29)
(Amy Wadge, Jesse Frasure, Kylie Minogue)
06. One Last Kiss (03:41)
(Ash Howes, Kylie Minogue, Richard Stannard, Seton Daunt)
07. Live a Little (03:08)
(Danny Shah, Kylie Minogue, Sky Adams)
08. Shelby '68 (03:35)
(Ash Howes, Kylie Minogue, Richard Stannard, Seton Daunt)
09. Radio On (03:43)
(Amy Wadge, Jon Green, Kylie Minogue)
10. Love (02:52)
(Kylie Minogue, Sky Adams, Steve McEwan)
11. Raining Glitter (03:33)
(Alex Smith, Francis White, Kylie Minogue, Mark Taylor)
12. Music's Too Sad Without You (with Jack Savoretti) (04:10)
(Jack Savoretti, Kylie Minogue, Samuel Dixon)
13. Lost Without You (04:05)
(Kylie Minogue, Jon Green)
14. Every Little Part of Me (02:58)
(Kylie Minogue, Amy Wadge, Sky Adams)
15. Rollin' (03:32)
(Kylie Minogue, Amy Wadge, Sky Adams)
16. Low Blow (02:56)
(Kylie Minogue, Danny Shah, Sky Adams, Steve McEwan)

Exact Audio Copy V1.3 from 2. September 2016

EAC extraction logfile from 1. May 2018, 15:35

Kylie Minogue / Golden (Deluxe Edition)

Used drive : PIONEER BD-RW BDR-208D Adapter: 1 ID: 0

Read mode : Secure
Utilize accurate stream : Yes
Defeat audio cache : Yes
Make use of C2 pointers : No

Read offset correction : 667
Overread into Lead-In and Lead-Out : No
Fill up missing offset samples with silence : Yes
Delete leading and trailing silent blocks : No
Null samples used in CRC calculations : Yes
Used interface : Native Win32 interface for Win NT & 2000

Used output format : Internal WAV Routines
Sample format : 44.100 Hz; 16 Bit; Stereo


TOC of the extracted CD

Track | Start | Length | Start sector | End sector
––––––––––––––––––––––––––––-
1 | 0:00.00 | 2:59.16 | 0 | 13440
2 | 2:59.16 | 3:01.54 | 13441 | 27069
3 | 6:00.70 | 3:07.73 | 27070 | 41167
4 | 9:08.68 | 3:19.04 | 41168 | 56096
5 | 12:27.72 | 3:28.73 | 56097 | 71769
6 | 15:56.70 | 3:41.05 | 71770 | 88349
7 | 19:38.00 | 3:07.63 | 88350 | 102437
8 | 22:45.63 | 3:35.16 | 102438 | 118578
9 | 26:21.04 | 3:42.44 | 118579 | 135272
10 | 30:03.48 | 2:52.12 | 135273 | 148184
11 | 32:55.60 | 3:33.28 | 148185 | 164187
12 | 36:29.13 | 4:09.50 | 164188 | 182912
13 | 40:38.63 | 4:04.38 | 182913 | 201250
14 | 44:43.26 | 2:58.13 | 201251 | 214613
15 | 47:41.39 | 3:32.21 | 214614 | 230534
16 | 51:13.60 | 2:56.29 | 230535 | 243763


Range status and errors

Selected range

Filename D:\BlondStyle\Golden (Deluxe Edition).wav

Peak level 100.0 %
Extraction speed 1.1 X
Range quality 100.0 %
Test CRC 6350EB8C
Copy CRC 6350EB8C
Copy OK

No errors occurred


AccurateRip summary

Track 1 not present in database
Track 2 not present in database
Track 3 not present in database
Track 4 not present in database
Track 5 not present in database
Track 6 not present in database
Track 7 not present in database
Track 8 not present in database
Track 9 not present in database
Track 10 not present in database
Track 11 not present in database
Track 12 not present in database
Track 13 not present in database
Track 14 not present in database
Track 15 not present in database
Track 16 not present in database

None of the tracks are present in the AccurateRip database

End of status report

–– CUETools DB Plugin V2.1.6

[CTDB TOCID: j3mz84NYyglED4LW1Gg5Y5SIWFs-] found
Submit result: j3mz84NYyglED4LW1Gg5Y5SIWFs- has been confirmed
Track | CTDB Status
1 | (81/81) Accurately ripped
2 | (81/81) Accurately ripped
3 | (81/81) Accurately ripped
4 | (81/81) Accurately ripped
5 | (81/81) Accurately ripped
6 | (81/81) Accurately ripped
7 | (81/81) Accurately ripped
8 | (81/81) Accurately ripped
9 | (81/81) Accurately ripped
10 | (81/81) Accurately ripped
11 | (81/81) Accurately ripped
12 | (81/81) Accurately ripped
13 | (81/81) Accurately ripped
14 | (81/81) Accurately ripped
15 | (81/81) Accurately ripped
16 | (81/81) Accurately ripped


==== Log checksum 64169EF4C7A79C78C1CF6998C19543A1B0BA0B0ED01AB0DF97756272A9DAA2BA ====

––––––––––––––––––––––––––––––––––––––––
Analyzed: Kylie Minogue / Golden (Deluxe Edition)
––––––––––––––––––––––––––––––––––––––––

DR Peak RMS Duration Track
––––––––––––––––––––––––––––––––––––––––
DR4 -0.79 dB -6.98 dB 2:59 01-Dancing
DR5 0.00 dB -6.70 dB 3:02 02-Stop Me From Falling
DR5 0.00 dB -7.28 dB 3:08 03-Golden
DR6 0.00 dB -7.62 dB 3:19 04-A Lifetime To Repair
DR6 0.00 dB -7.17 dB 3:29 05-Sincerely Yours
DR5 0.00 dB -7.11 dB 3:41 06-One Last Kiss
DR6 0.00 dB -8.90 dB 3:08 07-Live A Little
DR6 0.00 dB -7.80 dB 3:35 08-Shelby '68
DR6 0.00 dB -8.72 dB 3:43 09-Radio On
DR6 0.00 dB -7.76 dB 2:52 10-Love
DR5 0.00 dB -6.50 dB 3:33 11-Raining Glitter
DR5 0.00 dB -7.13 dB 4:10 12-Music's Too Sad Without You (with Jack Savoretti)
DR5 0.00 dB -7.26 dB 4:05 13-Lost Without You
DR6 0.00 dB -7.41 dB 2:58 14-Every Little Part Of Me
DR6 0.00 dB -7.97 dB 3:32 15-Rollin'
DR6 0.00 dB -7.26 dB 2:56 16-Low Blow
––––––––––––––––––––––––––––––––––––––––

Number of tracks: 16
Official DR value: DR6

Samplerate: 44100 Hz
Channels: 2
Bits per sample: 16
Bitrate: 980 kbps
Codec: FLAC
================================================================================

See also:
Kylie Minogue - Mixes [2CD] (1998)

♫~Welcome To My Blog~♫

password: BlondStyle