Tags
Language
Tags

LaBanda - Rural Tour (1992)

Posted By: v3122
LaBanda - Rural Tour (1992)

LaBanda - Rural Tour (1992)
EAC | Flac(Image) + Cue + Log & MP3 CBR 320Kbps
2CD | Dro 9D0919 CX | ~ 528 or 721 Mb | Artwork(jpg) -> 15 Mb
Folk Rock, Progressive Rock

Spanish instrumental folk-rock band, a blend of celtic and prog-rock music. Active from 1979 - 1986.

Luis Silva (mandolin, viola), Pedro Guerrero Veiga (guitars), Joaquín Blanco (bagpipes-gaitas, flute, percussion), Álvaro Domínguez (violin) (substituted by Jean François André), José María Silva (bass and acoustic guitar), Josué Vea (guitar) (substituted by Aristóbulo Cuenca) and Carlos Yebra (drums) (later, Antonio Vázquez)…

~ discogs
LaBanda - Rural Tour (1992):

LaBanda - Rural Tour (1992)

Tracklist CD1:

01. Gallego En Puerto Rico (05:55)
02. Fiesta Campestre (05:57)
03. Buenos Tiempos (02:41)
04. De Espaldas Al Mar (03:24)
05. El Valle (04:46)
06. Polvos Mañaneros (03:43)
07. Vals Para Mi Hernia De Disco (04:58)
08. Testacú (04:28)
09. Marchando Al Condado De Clare (05:24)

Exact Audio Copy V1.0 beta 3 from 29. August 2011

EAC extraction logfile from 13. March 2015, 23:46

LaBanda / Rural Tour

Used drive : PLEXTOR DVDR PX-891SAW Adapter: 2 ID: 1

Read mode : Secure
Utilize accurate stream : Yes
Defeat audio cache : Yes
Make use of C2 pointers : No

Read offset correction : 48
Overread into Lead-In and Lead-Out : No
Fill up missing offset samples with silence : Yes
Delete leading and trailing silent blocks : No
Null samples used in CRC calculations : Yes
Used interface : Native Win32 interface for Win NT & 2000
Gap handling : Appended to previous track

Used output format : User Defined Encoder
Selected bitrate : 128 kBit/s
Quality : High
Add ID3 tag : No
Command line compressor : C:\Program Files (x86)\Exact Audio Copy\FLAC\FLAC.EXE
Additional command line options : -8 -V -T "ARTIST=%artist%" -T "TITLE=%title%" -T "ALBUM=%albumtitle%" -T "DATE=%year%" -T "TRACKNUMBER=%tracknr%" -T "TOTALTRACKS=%numtracks%" -T "GENRE=%genre%" -T "ALBUMARTIST=%albumartist%" -T "ALBUM ARTIST=%albumartist%" -T "COMMENT=EAC Secure Mode, Test & Copy, AccurateRip, FLAC -8" %source%


TOC of the extracted CD

Track | Start | Length | Start sector | End sector
––––––––––––––––––––––––––––-
1 | 0:00.37 | 5:55.15 | 37 | 26676
2 | 5:55.52 | 5:57.60 | 26677 | 53511
3 | 11:53.37 | 2:41.00 | 53512 | 65586
4 | 14:34.37 | 3:24.00 | 65587 | 80886
5 | 17:58.37 | 4:46.00 | 80887 | 102336
6 | 22:44.37 | 3:43.00 | 102337 | 119061
7 | 26:27.37 | 4:58.00 | 119062 | 141411
8 | 31:25.37 | 4:28.00 | 141412 | 161511
9 | 35:53.37 | 5:24.00 | 161512 | 185811


Track 1

Filename G:\Flac Rips\01 - Gallego En Puerto Rico.wav

Pre-gap length 0:00:02.37

Peak level 100.0 %
Extraction speed 3.7 X
Track quality 99.9 %
Test CRC C5671DCC
Copy CRC C5671DCC
Accurately ripped (confidence 1) [25315DCF] (AR v2)
Copy OK

Track 2

Filename G:\Flac Rips\02 - Fiesta Campestre.wav

Peak level 96.9 %
Extraction speed 5.5 X
Track quality 100.0 %
Test CRC 3B6C2BC1
Copy CRC 3B6C2BC1
Accurately ripped (confidence 1) [3D0BC0A5] (AR v2)
Copy OK

Track 3

Filename G:\Flac Rips\03 - Buenos Tiempos.wav

Peak level 100.0 %
Extraction speed 3.3 X
Track quality 99.9 %
Test CRC 5094B270
Copy CRC 5094B270
Accurately ripped (confidence 1) [4F47315A] (AR v2)
Copy OK

Track 4

Filename G:\Flac Rips\04 - De Espaldas Al Mar.wav

Peak level 90.7 %
Extraction speed 5.9 X
Track quality 100.0 %
Test CRC 19CDDD8D
Copy CRC 19CDDD8D
Accurately ripped (confidence 1) [2CDD3411] (AR v2)
Copy OK

Track 5

Filename G:\Flac Rips\05 - El Valle.wav

Peak level 100.0 %
Extraction speed 6.5 X
Track quality 100.0 %
Test CRC 36A2A826
Copy CRC 36A2A826
Accurately ripped (confidence 1) [809E03F4] (AR v2)
Copy OK

Track 6

Filename G:\Flac Rips\06 - Polvos Mananeros.wav

Peak level 82.9 %
Extraction speed 6.6 X
Track quality 100.0 %
Test CRC DD1E77E2
Copy CRC DD1E77E2
Accurately ripped (confidence 1) [D8F0ADD6] (AR v2)
Copy OK

Track 7

Filename G:\Flac Rips\07 - Vals De Mi Hernia De Disco.wav

Peak level 88.3 %
Extraction speed 7.3 X
Track quality 100.0 %
Test CRC 2FF17A20
Copy CRC 2FF17A20
Accurately ripped (confidence 1) [23993E25] (AR v2)
Copy OK

Track 8

Filename G:\Flac Rips\08 - Testacu.wav

Peak level 88.8 %
Extraction speed 7.5 X
Track quality 100.0 %
Test CRC D62A13B5
Copy CRC D62A13B5
Accurately ripped (confidence 1) [B69128E0] (AR v2)
Copy OK

Track 9

Filename G:\Flac Rips\09 - Marchando Al Condado De Clare.wav

Peak level 75.5 %
Extraction speed 8.0 X
Track quality 100.0 %
Test CRC F9F8BDB9
Copy CRC F9F8BDB9
Accurately ripped (confidence 1) [65E63B89] (AR v2)
Copy OK


All tracks accurately ripped

No errors occurred

End of status report

==== Log checksum A31B8DDE32CE6D529598D97920E13DF38CF149E41F4BC790770015451A6175B2 ====


[CUETools log; Date: 02.11.2020 13:08:25; Version: 2.1.4]
Pregap length 00:00:37.
[AccurateRip ID: 000e4b83-006751f6-8809ad09] found.
Track [ CRC | V2 ] Status
01 [9916a170|25315dcf] (0+2/2) Accurately ripped
02 [1765ec96|3d0bc0a5] (0+2/2) Accurately ripped
03 [66201c60|4f47315a] (0+2/2) Accurately ripped
04 [3f835eed|2cdd3411] (0+2/2) Accurately ripped
05 [fba78f9c|809e03f4] (0+2/2) Accurately ripped
06 [5978f51b|d8f0add6] (0+2/2) Accurately ripped
07 [c841967b|23993e25] (0+2/2) Accurately ripped
08 [eaa9771f|b69128e0] (0+2/2) Accurately ripped
09 [73cde193|65e63b89] (0+2/2) Accurately ripped

Track Peak [ CRC32 ] [W/O NULL] [ LOG ]
– 100,0 [A42A3F31] [404C5C10]
01 100,0 [C5671DCC] [45988A27] CRC32
02 96,9 [3B6C2BC1] [03DF6A17] CRC32
03 100,0 [5094B270] [1B622794] CRC32
04 90,7 [19CDDD8D] [C6FCF66F] CRC32
05 100,0 [36A2A826] [01E7412D] CRC32
06 82,9 [DD1E77E2] [4DB27BC7] CRC32
07 88,3 [2FF17A20] [6D1A522A] CRC32
08 88,8 [D62A13B5] [09CBFF8E] CRC32
09 75,5 [F9F8BDB9] [784F0F48] CRC32


LaBanda - Rural Tour (1992)

Tracklist CD2:

01. Las Colinas De Lorne (03:24)
02. Un Viejo Irlandés (04:08)
03. En La Plaza Mayor (03:27)
04. Un Millón De Kilómetros (04:41)
05. La Batalla De Somme (03:25)
06. Paso Subterráneo (04:58)
07. Un Piso De Cuarenta (03:20)
08. La Pequeña Moliboria (04:27)
09. Rockmeria (07:49)
10. Sueños Diabolicos (01:01)

Exact Audio Copy V1.0 beta 3 from 29. August 2011

EAC extraction logfile from 14. March 2015, 0:05

LaBanda / Tour Rural (Disc 2)

Used drive : PLEXTOR DVDR PX-891SAW Adapter: 2 ID: 1

Read mode : Secure
Utilize accurate stream : Yes
Defeat audio cache : Yes
Make use of C2 pointers : No

Read offset correction : 48
Overread into Lead-In and Lead-Out : No
Fill up missing offset samples with silence : Yes
Delete leading and trailing silent blocks : No
Null samples used in CRC calculations : Yes
Used interface : Native Win32 interface for Win NT & 2000
Gap handling : Appended to previous track

Used output format : User Defined Encoder
Selected bitrate : 128 kBit/s
Quality : High
Add ID3 tag : No
Command line compressor : C:\Program Files (x86)\Exact Audio Copy\FLAC\FLAC.EXE
Additional command line options : -8 -V -T "ARTIST=%artist%" -T "TITLE=%title%" -T "ALBUM=%albumtitle%" -T "DATE=%year%" -T "TRACKNUMBER=%tracknr%" -T "TOTALTRACKS=%numtracks%" -T "GENRE=%genre%" -T "ALBUMARTIST=%albumartist%" -T "ALBUM ARTIST=%albumartist%" -T "COMMENT=EAC Secure Mode, Test & Copy, AccurateRip, FLAC -8" %source%


TOC of the extracted CD

Track | Start | Length | Start sector | End sector
––––––––––––––––––––––––––––-
1 | 0:00.37 | 3:24.00 | 37 | 15336
2 | 3:24.37 | 4:08.00 | 15337 | 33936
3 | 7:32.37 | 3:27.00 | 33937 | 49461
4 | 10:59.37 | 4:41.00 | 49462 | 70536
5 | 15:40.37 | 3:25.00 | 70537 | 85911
6 | 19:05.37 | 4:58.00 | 85912 | 108261
7 | 24:03.37 | 3:20.00 | 108262 | 123261
8 | 27:23.37 | 4:27.48 | 123262 | 143334
9 | 31:51.10 | 7:49.35 | 143335 | 178544
10 | 39:40.45 | 1:01.67 | 178545 | 183186


Track 1

Filename G:\Flac Rips\01 - Las Colinas De Lorne.wav

Pre-gap length 0:00:02.37

Peak level 100.0 %
Extraction speed 4.3 X
Track quality 100.0 %
Test CRC 33601E6F
Copy CRC 33601E6F
Accurately ripped (confidence 1) [12F64BC1] (AR v2)
Copy OK

Track 2

Filename G:\Flac Rips\02 - Un Viejo Irlandes.wav

Peak level 87.3 %
Extraction speed 3.5 X
Track quality 99.9 %
Test CRC 4C9C41CA
Copy CRC 4C9C41CA
Accurately ripped (confidence 1) [CF489C42] (AR v2)
Copy OK

Track 3

Filename G:\Flac Rips\03 - En La Plaza Mayor.wav

Peak level 85.4 %
Extraction speed 5.2 X
Track quality 100.0 %
Test CRC B6150B15
Copy CRC B6150B15
Accurately ripped (confidence 1) [C5909EC4] (AR v2)
Copy OK

Track 4

Filename G:\Flac Rips\04 - Un Millon De Kilometros.wav

Peak level 92.6 %
Extraction speed 5.8 X
Track quality 100.0 %
Test CRC 41B2B63A
Copy CRC 41B2B63A
Accurately ripped (confidence 1) [29F7254E] (AR v2)
Copy OK

Track 5

Filename G:\Flac Rips\05 - La Batalla De Somme.wav

Peak level 86.2 %
Extraction speed 6.0 X
Track quality 100.0 %
Test CRC 8E2B6B99
Copy CRC 8E2B6B99
Accurately ripped (confidence 1) [2C89A3FF] (AR v2)
Copy OK

Track 6

Filename G:\Flac Rips\06 - Paso Subterraneo.wav

Peak level 93.2 %
Extraction speed 6.7 X
Track quality 100.0 %
Test CRC 9A4AEA2D
Copy CRC 9A4AEA2D
Accurately ripped (confidence 1) [F4276747] (AR v2)
Copy OK

Track 7

Filename G:\Flac Rips\07 - Un Piso De Cuarenta.wav

Peak level 85.1 %
Extraction speed 6.6 X
Track quality 100.0 %
Test CRC 8264A6AA
Copy CRC 8264A6AA
Accurately ripped (confidence 1) [0865875D] (AR v2)
Copy OK

Track 8

Filename G:\Flac Rips\08 - La Pequena Moliboria.wav

Peak level 92.7 %
Extraction speed 7.2 X
Track quality 100.0 %
Test CRC CE024D78
Copy CRC CE024D78
Accurately ripped (confidence 1) [049F863D] (AR v2)
Copy OK

Track 9

Filename G:\Flac Rips\09 - Rockmeria.wav

Peak level 100.0 %
Extraction speed 6.5 X
Track quality 99.9 %
Test CRC 5028E327
Copy CRC 5028E327
Accurately ripped (confidence 1) [3B163F6C] (AR v2)
Copy OK

Track 10

Filename G:\Flac Rips\10 - Suenos Diabolicos.wav

Peak level 60.7 %
Extraction speed 5.6 X
Track quality 100.0 %
Test CRC 93E5F57A
Copy CRC 93E5F57A
Accurately ripped (confidence 1) [290CD922] (AR v2)
Copy OK


All tracks accurately ripped

No errors occurred

End of status report

==== Log checksum DFF0F83C98B2E66AA647B3A7EE2A94122E2FCD27926935B857A36A910C27AE33 ====


[CUETools log; Date: 02.11.2020 13:11:04; Version: 2.1.4]
Pregap length 00:00:37.
[AccurateRip ID: 000f2245-007a92d3-7b098a0a] found.
Track [ CRC | V2 ] Status
01 [0dea360a|12f64bc1] (0+2/2) Accurately ripped
02 [f64f94ae|cf489c42] (0+2/2) Accurately ripped
03 [6cb84581|c5909ec4] (0+2/2) Accurately ripped
04 [aff8b881|29f7254e] (0+2/2) Accurately ripped
05 [1d6be2cf|2c89a3ff] (0+2/2) Accurately ripped
06 [316acc91|f4276747] (0+2/2) Accurately ripped
07 [f5548a24|0865875d] (0+2/2) Accurately ripped
08 [1b8c91b1|049f863d] (0+2/2) Accurately ripped
09 [0cfd871b|3b163f6c] (0+2/2) Accurately ripped
10 [5f30eeca|290cd922] (0+2/2) Accurately ripped

Track Peak [ CRC32 ] [W/O NULL] [ LOG ]
– 100,0 [9B1445FA] [7EA9E940]
01 100,0 [33601E6F] [490262A9] CRC32
02 87,3 [4C9C41CA] [497AB00D] CRC32
03 85,4 [B6150B15] [BD0D6535] CRC32
04 92,6 [41B2B63A] [872D0473] CRC32
05 86,2 [8E2B6B99] [5EE536B4] CRC32
06 93,2 [9A4AEA2D] [87A3FC5D] CRC32
07 85,1 [8264A6AA] [5D3FC3C2] CRC32
08 92,7 [CE024D78] [4F686564] CRC32
09 100,0 [5028E327] [7DAE3B7C] CRC32
10 60,7 [93E5F57A] [20629FA2] CRC32


LaBanda - Rural Tour (1992)

All thanks go to the original releaser

Download LaBanda - Rural Tour (1992):