Tags
Language
Tags
May 2024
Su Mo Tu We Th Fr Sa
28 29 30 1 2 3 4
5 6 7 8 9 10 11
12 13 14 15 16 17 18
19 20 21 22 23 24 25
26 27 28 29 30 31 1

Lacuna Coil - The Presence Of The Past (XX Years Of Lacuna Coil) (13CD Box Set, 2018)

Posted By: Discograf_man
Lacuna Coil - The Presence Of The Past (XX Years Of Lacuna Coil) (13CD Box Set, 2018)

Lacuna Coil - The Presence Of The Past (XX Years Of Lacuna Coil) (13CD Box Set, 2018)
EAC Rip | FLAC (image + .cue, log) | Run Time: 10:11:59 | 4,42 Gb | Scans 6,44 Mb
Genre: Gothic Metal, Symphonic Metal | Label: Century Media

In order to celebrate their 20 year anniversary LACUNA COIL and Century Media Records have compiled a limited box-set entitled "The Presence of the Past (XX Years of Lacuna Coil)" including all of their studio albums as well as selected live material, rare songs and b-sides on 13 discs. The box-set will come with a luxurious booklet that will not only give you all lyrics, but also historical photos and liner-notes. For Italy's LACUNA COIL, turning 20 will be a once-in-a-lifetime experience, not only for the Milan-based outfit, but also for their diehard fans around the globe. Together, they'll commemorate the past-with a super-special one-off show in London and a new book titled "Nothing Stands in Our Way"-to venture bravely into the future. While the big Two-O is often an unkind benchmark, LACUNA COIL are facing down decade two with renewed strength, unfettered passion, and relentless drive. "We never thought we'd get to this point," beams LACUNA COIL co-vocalist Cristina Scabbia. "That we're still an active and growing band-we got a lot of new fans on "Delirium"-is exciting. I'm excited about the 20th Anniversary of LACUNA COIL. I'm excited about the book, the special show we have in London, and the shows to come. We look forward to accomplishing more things in the years to come with LACUNA COIL."
Lacuna Coil - The Presence Of The Past (XX Years Of Lacuna Coil) (13CD Box Set, 2018)

Contents:

CD1. The EPs - Lacuna Coil. Halflife
CD2. In A Reverie
CD3. Unleashed Memories
CD4. Comalies
CD5. Comalies (Deluxe Edition CD2)
CD6. Karmacode
CD7. Visual Karma - Live At Wacken
CD8. Shallow Life
CD9. Shallow Life (Deluxe Edition CD2)
CD10. Dark Adrenaline
CD11. Broken Crown Halo
CD12. Delirium
CD13. Rarities & B-Sides
Lacuna Coil - The Presence Of The Past (XX Years Of Lacuna Coil) (13CD Box Set, 2018)

CD1. The EPs - Lacuna Coil. Halflife

01. No Need to Explain (3:40)
02. The Secret… (4:18)
03. This is my Dream (4:08)
04. Soul Into Hades (4:54)
05. Falling (5:41)
06. Un Fantasma Tra Noi (A Ghost Between Us) (5:24)
07. Halflife (4:58)
08. Trance Awake (2:01)
09. Senzafine (3:54)
10. Hyperfast (4:57)
11. Stars (4:40)

CD2. In A Reverie

01. Circle (3:55)
02. Stately Lover (4:52)
03. Honeymoon Suite (4:31)
04. My Wings (3:45)
05. To Myself I Turned (4:24)
06. Cold (4:19)
07. Reverie (6:20)
08. Veins of Glass (5:12)
09. Falling Again (5:05)

CD3. Unleashed Memories

01. Heir Of A Dying Day (4:59)
02. To Live Is To Hide (4:35)
03. Purify (4:37)
04. Senzafine (3:53)
05. When A Dead Man Walks (5:54)
06. 1.19 (4:59)
07. Cold Heritage (5:23)
08. Distant Sun (5:29)
09. A Current Obsession (5:20)
10. Wave Of Anguish (4:38)
11. Lost Lullaby (5:00)

CD4. Comalies

01. Swamped (4:00)
02. Heaven's a lie (4:47)
03. Daylight dancer (3:50)
04. Humane (4:13)
05. Self Deception (3:32)
06. Aeon (1:57)
07. Tight Rope (4:16)
08. The Ghost Woman And The Hunter (4:09)
09. Unspoken (3:38)
10. Entwined (4:00)
11. The Prophet Said (4:33)
12. Angel's Punishment (3:55)
13. Comalies (4:57)

CD5. Comalies (Deluxe Edition CD2)

01. Heaven's a Lie (Radiomix and Edit) (3:51)
02. Swamped (Radiomix and Edit) (3:46)
03. Heaven's a Lie (Studio Acoustic Version) (4:07)
04. Swamped (Studio Acoustic Version) (3:40)
05. Senzafine (Studio Acoustic Version) (3:29)
06. Unspoken (Studio Acoustic Version) (3:40)
07. Heaven's a Lie (Live Radio WAAF Acoustic) (4:01)
08. Senzafine (Live Radio WAAF Acoustic) (3:15)
09. Aeon (Live Radio WAAF Acoustic) (1:57)

CD6. Karmacode

01. Fragile (4:27)
02. To The Edge (3:22)
03. Our Truth (4:03)
04. Within Me (3:39)
05. Devoted (3:53)
06. You Create (1:32)
07. What I See (3:41)
08. Fragments Of Faith (4:11)
09. Closer (3:02)
10. In Visible Light (4:00)
11. The Game (3:33)
12. Without Fear (4:00)
13. Enjoy The Silence (4:06)

CD7. Visual Karma - Live At Wacken

01. Intro (1:30)
02. To The Edge (3:23)
03. Fragments of Faith (4:48)
04. Swamped (4:27)
05. Invisible Light (4:02)
06. Fragile (5:08)
07. Closer (3:06)
08. Senzafine (4:44)
09. What I See (4:38)
10. Enjoy The Silence (4:32)
11. Heaven's A Lie (5:08)
12. Our Truth (5:09)

CD8. Shallow Life

01. Survive (3:35)
02. I Won't Tell You (3:49)
03. Not Enough (3:40)
04. I'm Not Afraid (3:23)
05. I Like It (3:42)
06. Underdog (3:41)
07. The Pain (4:01)
08. Spellbound (3:21)
09. Wide Awake (3:51)
10. The Maze (3:38)
11. Unchained (3:22)
12. Shallow Life (4:00)

CD9. Shallow Life (Deluxe Edition CD2)

I Rarities And B-Sides:
01. The Last Goodbye [Rarities And B-Sides] (4:14)
02. Leaving Alone (Previously Unreleased) [Rarities And B-Sides] (4:09)
03. Oblivion [Rarities And B-Sides] (4:08)
II Acoustic Songs:
04. Spellbound (Recorded Live-To-Air On WBYR) [Live Acoustic] (2:52)
05. Closer (Recorded Live-To-Air On The Mancow Show) [Live Acoustic] (3:37)
06. Within Me (Recorded Live-To-Air On The Mancow Show) [Live Acoustic] (3:15)
III Live At House Of Blues Hollywood For Westwood One, 2009:
07. Survive (Live At The House Of Blues Hollywood For Westwood One - 2009) (3:48)
08. I'm Not Afraid (Live At The House Of Blues Hollywood For Westwood One - 2009) (3:35)
09. I Won't Tell You (Live At The House Of Blues Hollywood For Westwood One - 2009) (3:54)
IV Live In St. Petersburg, FL, 2006:
10. Tightrope (Live In St. Petersburg, FL - 2006) (4:25)
11. Fragments Of Faith (Live In St. Petersburg, FL - 2006) (4:20)
12. The Game (Live In St. Petersburg, FL - 2006) (3:41)

CD10. Dark Adrenaline

01. Trip The Darkness (3:14)
02. Against You (3:51)
03. Kill The Light (3:35)
04. Give Me Something More (3:56)
05. Upsidedown (3:03)
06. End Of Time (3:52)
07. I Don't Believe In Tomorrow (4:12)
08. Intoxicated (3:48)
09. The Army Inside (3:12)
10. Losing My Religion (3:42)
11. Fire (2:54)
12. My Spirit (5:50)

CD11. Broken Crown Halo

01. Nothing Stands In Our Way (4:08)
02. Zombies (3:47)
03. Hostage To The Light (3:56)
04. Victims (4:32)
05. Die & Rise (3:45)
06. I Forgive (But I Won't Forget Your Name) (3:56)
07. Cybersleep (4:26)
08. Infection (4:23)
09. I Burn In You (4:15)
10. In The End I Feel Alive (4:21)
11. One Cold Day (6:10)

CD12. Delirium

01. The House Of Shame (5:17)
02. Broken Things (3:59)
03. Delirium (3:16)
04. Blood, Tears, Dust (3:55)
05. Downfall (4:21)
06. Take Me Home (3:45)
07. You Love Me 'Cause I Hate You (3:49)
08. Ghost In The Mist (4:14)
09. My Demons (3:56)
10. Claustrophobia (4:08)
11. Ultima Ratio (4:08)
12. Live To Tell [Bonus Track] (5:29)
13. Breakdown [Bonus Track] (3:17)
14. Bleed The Pain [Bonus Track] (3:48)

CD13. Rarities & B-Sides

01. Our Truth (Radio Edit) (3:26)
02. Our Truth (Jack Dangers Mix) (3:24)
03. Without A Reason (4:51)
04. Closer (Acoustic Version) (3:30)
05. Virtual Environment (5:24)
06. I Like It (Das Basslaster Mix) (3:59)
07. I Like It (Interface Mix) (5:09)
08. I Like It (Dan Pearce Mix) (3:31)
09. Dark Adrenaline (3:19)
10. Soul Inmate (3:22)
11. T.H.O.S. Maki-ng Remix (4:33)


Exact Audio Copy V1.1 from 23. June 2015

EAC extraction logfile from 8. March 2018, 11:54

Lacuna Coil / The Presence Of The Past (XX Years Of Lacuna Coil) CD01: The EPs - Lacuna Coil/Halflife

Used drive : TSSTcorpDVDWBD SH-B123L Adapter: 0 ID: 4

Read mode : Secure
Utilize accurate stream : Yes
Defeat audio cache : Yes
Make use of C2 pointers : No

Read offset correction : 6
Overread into Lead-In and Lead-Out : No
Fill up missing offset samples with silence : Yes
Delete leading and trailing silent blocks : No
Null samples used in CRC calculations : Yes
Used interface : Installed external ASPI interface

Used output format : User Defined Encoder
Selected bitrate : 768 kBit/s
Quality : High
Add ID3 tag : No
Command line compressor : C:\Program Files (x86)\Exact Audio Copy\FLAC\FLAC.EXE
Additional command line options : -6 -V -T "ARTIST=%artist%" -T "TITLE=%title%" -T "ALBUM=%albumtitle%" -T "DATE=%year%" -T "TRACKNUMBER=%tracknr%" -T "GENRE=%genre%" -T "COMMENT=%comment%" -T "BAND=%albuminterpret%" -T "ALBUMARTIST=%albuminterpret%" -T "COMPOSER=%composer%" %haslyrics%–tag-from-file=LYRICS="%lyricsfile%"%haslyrics% -T "DISCNUMBER=%cdnumber%" -T "TOTALDISCS=%totalcds%" -T "TOTALTRACKS=%numtracks%" %hascover%–picture="%coverfile%"%hascover% %source% -o %dest%

TOC of the extracted CD

Track | Start | Length | Start sector | End sector
––––––––––––––––––––––––––––-
1 | 0:00.00 | 3:39.59 | 0 | 16483
2 | 3:39.59 | 4:17.52 | 16484 | 35810
3 | 7:57.36 | 4:08.29 | 35811 | 54439
4 | 12:05.65 | 4:54.28 | 54440 | 76517
5 | 17:00.18 | 5:40.71 | 76518 | 102088
6 | 22:41.14 | 5:23.45 | 102089 | 126358
7 | 28:04.59 | 4:57.54 | 126359 | 148687
8 | 33:02.38 | 2:00.67 | 148688 | 157754
9 | 35:03.30 | 3:54.20 | 157755 | 175324
10 | 38:57.50 | 4:57.27 | 175325 | 197626
11 | 43:55.02 | 4:39.72 | 197627 | 218623
12 | 51:06.74 | 4:10.01 | 230024 | 248774

Range status and errors

Selected range

Filename E:\MUSIC\Lacuna Coil - The Presence Of The Past (XX Years Of Lacuna Coil) CD01- The EPs - Lacuna Coil,Halflife.wav

Peak level 98.4 %
Extraction speed 3.2 X
Range quality 99.9 %
Test CRC 324188DF
Copy CRC 324188DF
Copy OK

No errors occurred

AccurateRip summary

Track 1 accurately ripped (confidence 31) [78BEAD57] (AR v2)
Track 2 accurately ripped (confidence 30) [52AFB0E3] (AR v2)
Track 3 accurately ripped (confidence 30) [8F9388C0] (AR v2)
Track 4 accurately ripped (confidence 30) [00AD4631] (AR v2)
Track 5 accurately ripped (confidence 30) [B818E024] (AR v2)
Track 6 accurately ripped (confidence 30) [FC99B69B] (AR v2)
Track 7 accurately ripped (confidence 29) [0B1B3391] (AR v2)
Track 8 accurately ripped (confidence 29) [AA82633D] (AR v2)
Track 9 accurately ripped (confidence 29) [97075D3E] (AR v2)
Track 10 accurately ripped (confidence 30) [77A6B50B] (AR v2)
Track 11 accurately ripped (confidence 30) [17E5F595] (AR v2)

All tracks accurately ripped

End of status report

==== Log checksum 1998AD2636C147A626C7B220929DB794967CDAFCFBD9A53DF5913D2CDE54289A ====

====================================================================

Exact Audio Copy V1.1 from 23. June 2015

EAC extraction logfile from 8. March 2018, 12:16

Lacuna Coil / The Presence Of The Past (XX Years Of Lacuna Coil) CD02: In A Reverie

Used drive : TSSTcorpDVDWBD SH-B123L Adapter: 0 ID: 4

Read mode : Secure
Utilize accurate stream : Yes
Defeat audio cache : Yes
Make use of C2 pointers : No

Read offset correction : 6
Overread into Lead-In and Lead-Out : No
Fill up missing offset samples with silence : Yes
Delete leading and trailing silent blocks : No
Null samples used in CRC calculations : Yes
Used interface : Installed external ASPI interface

Used output format : User Defined Encoder
Selected bitrate : 768 kBit/s
Quality : High
Add ID3 tag : No
Command line compressor : C:\Program Files (x86)\Exact Audio Copy\FLAC\FLAC.EXE
Additional command line options : -6 -V -T "ARTIST=%artist%" -T "TITLE=%title%" -T "ALBUM=%albumtitle%" -T "DATE=%year%" -T "TRACKNUMBER=%tracknr%" -T "GENRE=%genre%" -T "COMMENT=%comment%" -T "BAND=%albuminterpret%" -T "ALBUMARTIST=%albuminterpret%" -T "COMPOSER=%composer%" %haslyrics%–tag-from-file=LYRICS="%lyricsfile%"%haslyrics% -T "DISCNUMBER=%cdnumber%" -T "TOTALDISCS=%totalcds%" -T "TOTALTRACKS=%numtracks%" %hascover%–picture="%coverfile%"%hascover% %source% -o %dest%

TOC of the extracted CD

Track | Start | Length | Start sector | End sector
––––––––––––––––––––––––––––-
1 | 0:00.00 | 3:55.11 | 0 | 17635
2 | 3:55.11 | 4:51.44 | 17636 | 39504
3 | 8:46.55 | 4:30.71 | 39505 | 59825
4 | 13:17.51 | 3:45.29 | 59826 | 76729
5 | 17:03.05 | 4:24.29 | 76730 | 96558
6 | 21:27.34 | 4:18.63 | 96559 | 115971
7 | 25:46.22 | 6:20.16 | 115972 | 144487
8 | 32:06.38 | 5:11.53 | 144488 | 167865
9 | 37:18.16 | 5:04.54 | 167866 | 190719

Range status and errors

Selected range

Filename E:\MUSIC\Lacuna Coil - The Presence Of The Past (XX Years Of Lacuna Coil) CD02- In A Reverie.wav

Peak level 98.8 %
Extraction speed 3.2 X
Range quality 100.0 %
Test CRC D8716041
Copy CRC D8716041
Copy OK

No errors occurred

AccurateRip summary

Track 1 not present in database
Track 2 not present in database
Track 3 not present in database
Track 4 not present in database
Track 5 not present in database
Track 6 not present in database
Track 7 not present in database
Track 8 not present in database
Track 9 not present in database

None of the tracks are present in the AccurateRip database

End of status report

==== Log checksum C04C66743F1974613D694B3D0F3A2B0AF4F10263B767A6025BC3999AD4879EBF ====

==============================================================

Exact Audio Copy V1.1 from 23. June 2015

EAC extraction logfile from 8. March 2018, 12:41

Lacuna Coil / The Presence Of The Past (XX Years Of Lacuna Coil) CD03м Unlashed Memories

Used drive : TSSTcorpDVDWBD SH-B123L Adapter: 0 ID: 4

Read mode : Secure
Utilize accurate stream : Yes
Defeat audio cache : Yes
Make use of C2 pointers : No

Read offset correction : 6
Overread into Lead-In and Lead-Out : No
Fill up missing offset samples with silence : Yes
Delete leading and trailing silent blocks : No
Null samples used in CRC calculations : Yes
Used interface : Installed external ASPI interface

Used output format : User Defined Encoder
Selected bitrate : 768 kBit/s
Quality : High
Add ID3 tag : No
Command line compressor : C:\Program Files (x86)\Exact Audio Copy\FLAC\FLAC.EXE
Additional command line options : -6 -V -T "ARTIST=%artist%" -T "TITLE=%title%" -T "ALBUM=%albumtitle%" -T "DATE=%year%" -T "TRACKNUMBER=%tracknr%" -T "GENRE=%genre%" -T "COMMENT=%comment%" -T "BAND=%albuminterpret%" -T "ALBUMARTIST=%albuminterpret%" -T "COMPOSER=%composer%" %haslyrics%–tag-from-file=LYRICS="%lyricsfile%"%haslyrics% -T "DISCNUMBER=%cdnumber%" -T "TOTALDISCS=%totalcds%" -T "TOTALTRACKS=%numtracks%" %hascover%–picture="%coverfile%"%hascover% %source% -o %dest%

TOC of the extracted CD

Track | Start | Length | Start sector | End sector
––––––––––––––––––––––––––––-
1 | 0:00.00 | 4:59.06 | 0 | 22430
2 | 4:59.06 | 4:34.44 | 22431 | 43024
3 | 9:33.50 | 4:36.50 | 43025 | 63774
4 | 14:10.25 | 3:53.31 | 63775 | 81280
5 | 18:03.56 | 5:54.19 | 81281 | 107849
6 | 23:58.00 | 4:59.19 | 107850 | 130293
7 | 28:57.19 | 5:22.63 | 130294 | 154506
8 | 34:20.07 | 5:28.69 | 154507 | 179175
9 | 39:49.01 | 5:20.18 | 179176 | 203193
10 | 45:09.19 | 4:38.31 | 203194 | 224074
11 | 49:47.50 | 5:00.33 | 224075 | 246607

Range status and errors

Selected range

Filename E:\MUSIC\Lacuna Coil - The Presence Of The Past (XX Years Of Lacuna Coil) CD03- Unlashed Memories.wav

Peak level 99.4 %
Extraction speed 3.3 X
Range quality 99.9 %
Test CRC 95924F63
Copy CRC 95924F63
Copy OK

No errors occurred

AccurateRip summary

Track 1 not present in database
Track 2 not present in database
Track 3 not present in database
Track 4 not present in database
Track 5 not present in database
Track 6 not present in database
Track 7 not present in database
Track 8 not present in database
Track 9 not present in database
Track 10 not present in database
Track 11 not present in database

None of the tracks are present in the AccurateRip database

End of status report

==== Log checksum C6E24241390A82088AEE68B10CE866A29638BE1D271609937E98B80134FDC41E ====

================================================================

Exact Audio Copy V1.1 from 23. June 2015

EAC extraction logfile from 8. March 2018, 13:14

Lacuna Coil / The Presence Of The Past (XX Years Of Lacuna Coil) CD04: Comalies

Used drive : TSSTcorpDVDWBD SH-B123L Adapter: 0 ID: 4

Read mode : Secure
Utilize accurate stream : Yes
Defeat audio cache : Yes
Make use of C2 pointers : No

Read offset correction : 6
Overread into Lead-In and Lead-Out : No
Fill up missing offset samples with silence : Yes
Delete leading and trailing silent blocks : No
Null samples used in CRC calculations : Yes
Used interface : Installed external ASPI interface

Used output format : User Defined Encoder
Selected bitrate : 768 kBit/s
Quality : High
Add ID3 tag : No
Command line compressor : C:\Program Files (x86)\Exact Audio Copy\FLAC\FLAC.EXE
Additional command line options : -6 -V -T "ARTIST=%artist%" -T "TITLE=%title%" -T "ALBUM=%albumtitle%" -T "DATE=%year%" -T "TRACKNUMBER=%tracknr%" -T "GENRE=%genre%" -T "COMMENT=%comment%" -T "BAND=%albuminterpret%" -T "ALBUMARTIST=%albuminterpret%" -T "COMPOSER=%composer%" %haslyrics%–tag-from-file=LYRICS="%lyricsfile%"%haslyrics% -T "DISCNUMBER=%cdnumber%" -T "TOTALDISCS=%totalcds%" -T "TOTALTRACKS=%numtracks%" %hascover%–picture="%coverfile%"%hascover% %source% -o %dest%

TOC of the extracted CD

Track | Start | Length | Start sector | End sector
––––––––––––––––––––––––––––-
1 | 0:00.00 | 4:00.31 | 0 | 18030
2 | 4:00.31 | 4:46.40 | 18031 | 39520
3 | 8:46.71 | 3:50.24 | 39521 | 56794
4 | 12:37.20 | 4:12.66 | 56795 | 75760
5 | 16:50.11 | 3:31.73 | 75761 | 91658
6 | 20:22.09 | 1:56.38 | 91659 | 100396
7 | 22:18.47 | 4:15.40 | 100397 | 119561
8 | 26:34.12 | 4:09.03 | 119562 | 138239
9 | 30:43.15 | 3:37.50 | 138240 | 154564
10 | 34:20.65 | 3:59.43 | 154565 | 172532
11 | 38:20.33 | 4:32.45 | 172533 | 192977
12 | 42:53.03 | 3:54.72 | 192978 | 210599
13 | 46:48.00 | 4:57.18 | 210600 | 232892

Range status and errors

Selected range

Filename E:\MUSIC\Lacuna Coil - The Presence Of The Past (XX Years Of Lacuna Coil) CD04- Comalies.wav

Peak level 99.4 %
Extraction speed 3.1 X
Range quality 99.9 %
Test CRC D3FDBFE4
Copy CRC D3FDBFE4
Copy OK

No errors occurred

AccurateRip summary

Track 1 not present in database
Track 2 not present in database
Track 3 not present in database
Track 4 not present in database
Track 5 not present in database
Track 6 not present in database
Track 7 not present in database
Track 8 not present in database
Track 9 not present in database
Track 10 not present in database
Track 11 not present in database
Track 12 not present in database
Track 13 not present in database

None of the tracks are present in the AccurateRip database

End of status report

==== Log checksum BBC98767A8A7E0D67FA7487844CD2B47B937E73F451D6EEBCBAA56898E8F57BD ====

===============================================================

Exact Audio Copy V1.1 from 23. June 2015

EAC extraction logfile from 8. March 2018, 14:39

Lacuna Coil / The Presence Of The Past (XX Years Of Lacuna Coil) CD05: Comalies Bonus CD

Used drive : TSSTcorpDVDWBD SH-B123L Adapter: 0 ID: 4

Read mode : Secure
Utilize accurate stream : Yes
Defeat audio cache : Yes
Make use of C2 pointers : No

Read offset correction : 6
Overread into Lead-In and Lead-Out : No
Fill up missing offset samples with silence : Yes
Delete leading and trailing silent blocks : No
Null samples used in CRC calculations : Yes
Used interface : Installed external ASPI interface

Used output format : User Defined Encoder
Selected bitrate : 768 kBit/s
Quality : High
Add ID3 tag : No
Command line compressor : C:\Program Files (x86)\Exact Audio Copy\FLAC\FLAC.EXE
Additional command line options : -6 -V -T "ARTIST=%artist%" -T "TITLE=%title%" -T "ALBUM=%albumtitle%" -T "DATE=%year%" -T "TRACKNUMBER=%tracknr%" -T "GENRE=%genre%" -T "COMMENT=%comment%" -T "BAND=%albuminterpret%" -T "ALBUMARTIST=%albuminterpret%" -T "COMPOSER=%composer%" %haslyrics%–tag-from-file=LYRICS="%lyricsfile%"%haslyrics% -T "DISCNUMBER=%cdnumber%" -T "TOTALDISCS=%totalcds%" -T "TOTALTRACKS=%numtracks%" %hascover%–picture="%coverfile%"%hascover% %source% -o %dest%

TOC of the extracted CD

Track | Start | Length | Start sector | End sector
––––––––––––––––––––––––––––-
1 | 0:00.00 | 3:51.15 | 0 | 17339
2 | 3:51.15 | 3:46.10 | 17340 | 34299
3 | 7:37.25 | 4:07.20 | 34300 | 52844
4 | 11:44.45 | 3:39.47 | 52845 | 69316
5 | 15:24.17 | 3:29.20 | 69317 | 85011
6 | 18:53.37 | 3:39.58 | 85012 | 101494
7 | 22:33.20 | 4:01.10 | 101495 | 119579
8 | 26:34.30 | 3:15.27 | 119580 | 134231
9 | 29:49.57 | 1:57.20 | 134232 | 143026

Range status and errors

Selected range

Filename E:\MUSIC\Lacuna Coil - The Presence Of The Past (XX Years Of Lacuna Coil) CD05- Comalies Bonus CD.wav

Peak level 99.4 %
Extraction speed 2.9 X
Range quality 99.9 %
Test CRC 84EE3B33
Copy CRC 84EE3B33
Copy OK

No errors occurred

AccurateRip summary

Track 1 cannot be verified as accurate (confidence 5) [01544D48], AccurateRip returned [68A08460] (AR v2)
Track 2 cannot be verified as accurate (confidence 5) [F4A14638], AccurateRip returned [DD490075] (AR v2)
Track 3 cannot be verified as accurate (confidence 5) [41626693], AccurateRip returned [75F668D7] (AR v2)
Track 4 cannot be verified as accurate (confidence 5) [BD0351B5], AccurateRip returned [9009124C] (AR v2)
Track 5 cannot be verified as accurate (confidence 5) [702CB171], AccurateRip returned [1552BB67] (AR v2)
Track 6 cannot be verified as accurate (confidence 5) [12E30ED4], AccurateRip returned [2FB45EFF] (AR v2)
Track 7 cannot be verified as accurate (confidence 5) [C8ED5228], AccurateRip returned [C61C76AE] (AR v2)
Track 8 cannot be verified as accurate (confidence 5) [54A2CEDC], AccurateRip returned [8420DFF7] (AR v2)
Track 9 cannot be verified as accurate (confidence 5) [13691DA0], AccurateRip returned [F1017184] (AR v2)

No tracks could be verified as accurate
You may have a different pressing from the one(s) in the database

End of status report

==== Log checksum 11EF399DF2722E87AB03FA51AF40B3126760984C6AB6B4C7437EC0D95078601F ====


All 13 log files included…