Subcategories

Lady GaGa: The Singles (2010) [Japan-only 9CD Box, Limited Edition]

Posted By: v3122
Lady GaGa: The Singles (2010) [Japan-only 9CD Box, Limited Edition]

Lady GaGa: The Singles (2010)
EAC | Flac(Image) + Cue + Log & MP3 CBR 320Kbps
9CD | Interscope, UICS-5041/9 | ~ 565 or 182 Mb | Scans(png) -> 226 Mb
Electro / Synth-pop / Europop

~ Just Dance; Poker face; Eh, Eh (Nothing Else I Can Say); Love Game; Paparazzi; Bad Romance; Telephone feat. Beyonce; Alejandro; Cherry Tree Sessions ~

Lady GaGa: The Singles (2010) [Japan-only 9CD Box, Limited Edition]


Lady GaGa: The Singles (2010):


Tracklist CD1:

01) Just Dance
02) Just Dance (Trevor Simpson Remix)

Exact Audio Copy V1.0 beta 1 from 15. November 2010

EAC extraction logfile from 23. December 2010, 18:48

Lady GaGa / Just Dance (Japan The Singles BOX)

Used drive : HL-DT-STDVDRAM GE20LU10 Adapter: 2 ID: 0

Read mode : Secure
Utilize accurate stream : Yes
Defeat audio cache : Yes
Make use of C2 pointers : No

Read offset correction : 667
Overread into Lead-In and Lead-Out : No
Fill up missing offset samples with silence : Yes
Delete leading and trailing silent blocks : No
Null samples used in CRC calculations : Yes
Used interface : Native Win32 interface for Win NT & 2000

Used output format : Internal WAV Routines
Sample format : 44.100 Hz; 16 Bit; Stereo


TOC of the extracted CD

Track | Start | Length | Start sector | End sector
––––––––––––––––––––––––––––-
1 | 0:00.00 | 4:03.23 | 0 | 18247
2 | 4:03.23 | 7:21.01 | 18248 | 51323


Range status and errors

Selected range

Filename C:\Users\espoir\Desktop\GAGA NEW\Lady GaGa - The Singles (9CD Japan)\The Singles Box\Just Dance\Lady GaGa - Just Dance (Japan The Singles BOX).wav

Peak level 99.9 %
Extraction speed 0.8 X
Range quality 100.0 %
Test CRC ABAD1A09
Copy CRC ABAD1A09
Copy OK

No errors occurred


AccurateRip summary

Track 1 accurately ripped (confidence 3) [A301C1FD]
Track 2 accurately ripped (confidence 2) [CF3FACCA]

All tracks accurately ripped

End of status report

Tracklist CD2:

01) Poker face
02) Poker Face (LLG VS GLG Radio Mix)

Exact Audio Copy V1.0 beta 1 from 15. November 2010

EAC extraction logfile from 23. December 2010, 19:22

Lady GaGa / Poker Face (Japan The Singles BOX)

Used drive : HL-DT-STDVDRAM GE20LU10 Adapter: 2 ID: 0

Read mode : Secure
Utilize accurate stream : Yes
Defeat audio cache : Yes
Make use of C2 pointers : No

Read offset correction : 667
Overread into Lead-In and Lead-Out : No
Fill up missing offset samples with silence : Yes
Delete leading and trailing silent blocks : No
Null samples used in CRC calculations : Yes
Used interface : Native Win32 interface for Win NT & 2000

Used output format : Internal WAV Routines
Sample format : 44.100 Hz; 16 Bit; Stereo


TOC of the extracted CD

Track | Start | Length | Start sector | End sector
––––––––––––––––––––––––––––-
1 | 0:00.00 | 3:58.61 | 0 | 17910
2 | 3:58.61 | 4:02.40 | 17911 | 36100


Range status and errors

Selected range

Filename C:\Users\espoir\Desktop\GAGA NEW\Lady GaGa - The Singles (9CD Japan)\The Singles Box\Poker Face\Lady GaGa - Poker Face (Japan The Singles BOX).wav

Peak level 99.9 %
Extraction speed 0.6 X
Range quality 100.0 %
Test CRC 3895B6A6
Copy CRC 3895B6A6
Copy OK

No errors occurred


AccurateRip summary

Track 1 not present in database
Track 2 not present in database

None of the tracks are present in the AccurateRip database

End of status report

Tracklist CD3:

01) Eh, Eh (Nothing Else I Can Say)
02) Poker Face (Space Cowboy Remix)

Exact Audio Copy V1.0 beta 1 from 15. November 2010

EAC extraction logfile from 23. December 2010, 19:05

Lady GaGa / Eh, Eh (Nothing Else I Can Say) (Japan The Singles BOX)

Used drive : HL-DT-STDVDRAM GE20LU10 Adapter: 2 ID: 0

Read mode : Secure
Utilize accurate stream : Yes
Defeat audio cache : Yes
Make use of C2 pointers : No

Read offset correction : 667
Overread into Lead-In and Lead-Out : No
Fill up missing offset samples with silence : Yes
Delete leading and trailing silent blocks : No
Null samples used in CRC calculations : Yes
Used interface : Native Win32 interface for Win NT & 2000

Used output format : Internal WAV Routines
Sample format : 44.100 Hz; 16 Bit; Stereo


TOC of the extracted CD

Track | Start | Length | Start sector | End sector
––––––––––––––––––––––––––––-
1 | 0:00.00 | 2:56.25 | 0 | 13224
2 | 2:56.25 | 4:54.13 | 13225 | 35287


Range status and errors

Selected range

Filename C:\Users\espoir\Desktop\GAGA NEW\Lady GaGa - The Singles (9CD Japan)\The Singles Box\Eh Eh (Nothing Else…)\Lady GaGa - Eh Eh (Nothing Else I Can Say) (Japan The Singles BOX).wav

Peak level 99.9 %
Extraction speed 0.7 X
Range quality 100.0 %
Test CRC 2A912C1B
Copy CRC 2A912C1B
Copy OK

No errors occurred


AccurateRip summary

Track 1 not present in database
Track 2 not present in database

None of the tracks are present in the AccurateRip database

End of status report

Tracklist CD4:

01) Love Game
02) Love Game (Robots to Mars Remix)

Exact Audio Copy V1.0 beta 1 from 15. November 2010

EAC extraction logfile from 23. December 2010, 18:11

Lady GaGa / Lovegame (Japan The Singles BOX)

Used drive : HL-DT-STDVDRAM GE20LU10 Adapter: 2 ID: 0

Read mode : Secure
Utilize accurate stream : Yes
Defeat audio cache : Yes
Make use of C2 pointers : No

Read offset correction : 667
Overread into Lead-In and Lead-Out : No
Fill up missing offset samples with silence : Yes
Delete leading and trailing silent blocks : No
Null samples used in CRC calculations : Yes
Used interface : Native Win32 interface for Win NT & 2000

Used output format : Internal WAV Routines
Sample format : 44.100 Hz; 16 Bit; Stereo


TOC of the extracted CD

Track | Start | Length | Start sector | End sector
––––––––––––––––––––––––––––-
1 | 0:00.00 | 3:37.00 | 0 | 16274
2 | 3:37.00 | 3:13.62 | 16275 | 30811


Range status and errors

Selected range

Filename C:\Users\espoir\Desktop\GAGA NEW\Lady GaGa - The Singles (9CD Japan)\The Singles Box\Lovegame\Lady GaGa - Lovegame (Japan The Singles BOX).wav

Peak level 99.9 %
Extraction speed 0.5 X
Range quality 100.0 %
Test CRC 9D55A958
Copy CRC 9D55A958
Copy OK

No errors occurred


AccurateRip summary

Track 1 accurately ripped (confidence 3) [91EF9CD8]
Track 2 accurately ripped (confidence 3) [A4B6480C]

All tracks accurately ripped

End of status report

Tracklist CD5:

01) Paparazzi
02) Paparazzi (Chu Fu Ghetto House Radio)

Exact Audio Copy V1.0 beta 1 from 15. November 2010

EAC extraction logfile from 23. December 2010, 18:28

Lady GaGa / Paparazzi (Japan The Singles BOX)

Used drive : HL-DT-STDVDRAM GE20LU10 Adapter: 2 ID: 0

Read mode : Secure
Utilize accurate stream : Yes
Defeat audio cache : Yes
Make use of C2 pointers : No

Read offset correction : 667
Overread into Lead-In and Lead-Out : No
Fill up missing offset samples with silence : Yes
Delete leading and trailing silent blocks : No
Null samples used in CRC calculations : Yes
Used interface : Native Win32 interface for Win NT & 2000

Used output format : Internal WAV Routines
Sample format : 44.100 Hz; 16 Bit; Stereo


TOC of the extracted CD

Track | Start | Length | Start sector | End sector
––––––––––––––––––––––––––––-
1 | 0:00.00 | 3:29.05 | 0 | 15679
2 | 3:29.05 | 3:49.08 | 15680 | 32862


Range status and errors

Selected range

Filename C:\Users\espoir\Desktop\GAGA NEW\Lady GaGa - The Singles (9CD Japan)\The Singles Box\Paparazzi\Lady GaGa - Paparazzi (Japan The Singles BOX).wav

Peak level 99.9 %
Extraction speed 0.6 X
Range quality 100.0 %
Test CRC 09230CAE
Copy CRC 09230CAE
Copy OK

No errors occurred


AccurateRip summary

Track 1 accurately ripped (confidence 2) [728E5D96]
Track 2 accurately ripped (confidence 2) [75D8DC0F]

All tracks accurately ripped

End of status report

Tracklist CD6:

01) Bad Romance
02) Bad Romance (Bimbo Jones Radio Remix)

Exact Audio Copy V1.0 beta 1 from 15. November 2010

EAC extraction logfile from 23. December 2010, 19:57

Lady GaGa / Bad Romance (Japan The Singles BOX)

Used drive : HL-DT-STDVDRAM GE20LU10 Adapter: 2 ID: 0

Read mode : Secure
Utilize accurate stream : Yes
Defeat audio cache : Yes
Make use of C2 pointers : No

Read offset correction : 667
Overread into Lead-In and Lead-Out : No
Fill up missing offset samples with silence : Yes
Delete leading and trailing silent blocks : No
Null samples used in CRC calculations : Yes
Used interface : Native Win32 interface for Win NT & 2000

Used output format : Internal WAV Routines
Sample format : 44.100 Hz; 16 Bit; Stereo


TOC of the extracted CD

Track | Start | Length | Start sector | End sector
––––––––––––––––––––––––––––-
1 | 0:00.00 | 4:21.49 | 0 | 19623
2 | 4:21.49 | 3:58.49 | 19624 | 37522


Range status and errors

Selected range

Filename C:\Users\espoir\Desktop\GAGA NEW\Lady GaGa - The Singles (9CD Japan)\The Singles Box\Bad Romance\Lady GaGa - Bad Romance (Japan The Singles BOX).wav

Peak level 99.9 %
Extraction speed 0.5 X
Range quality 100.0 %
Test CRC 26A6FF42
Copy CRC 26A6FF42
Copy OK

No errors occurred


AccurateRip summary

Track 1 not present in database
Track 2 not present in database

None of the tracks are present in the AccurateRip database

End of status report

Tracklist CD7:

01) Telephone feat. Beyonce
02) Telephone feat. Beyonce (Alpha Beat Remix)

Exact Audio Copy V1.0 beta 1 from 15. November 2010

EAC extraction logfile from 23. December 2010, 19:41

Lady GaGa / Telephone (Japan The Singles BOX)

Used drive : HL-DT-STDVDRAM GE20LU10 Adapter: 2 ID: 0

Read mode : Secure
Utilize accurate stream : Yes
Defeat audio cache : Yes
Make use of C2 pointers : No

Read offset correction : 667
Overread into Lead-In and Lead-Out : No
Fill up missing offset samples with silence : Yes
Delete leading and trailing silent blocks : No
Null samples used in CRC calculations : Yes
Used interface : Native Win32 interface for Win NT & 2000

Used output format : Internal WAV Routines
Sample format : 44.100 Hz; 16 Bit; Stereo


TOC of the extracted CD

Track | Start | Length | Start sector | End sector
––––––––––––––––––––––––––––-
1 | 0:00.00 | 3:41.62 | 0 | 16636
2 | 3:41.62 | 4:48.67 | 16637 | 38303


Range status and errors

Selected range

Filename C:\Users\espoir\Desktop\GAGA NEW\Lady GaGa - The Singles (9CD Japan)\The Singles Box\Telephone\Lady GaGa - Telephone (Japan The Singles BOX).wav

Peak level 99.9 %
Extraction speed 0.6 X
Range quality 99.9 %
Test CRC BE6D0784
Copy CRC BE6D0784
Copy OK

No errors occurred


AccurateRip summary

Track 1 accurately ripped (confidence 5) [EACDD5CF]
Track 2 accurately ripped (confidence 5) [A30493D2]

All tracks accurately ripped

End of status report

Tracklist CD8:

01) Alejandro
02) Alejandro (Dave Ode Radio Remix)

Exact Audio Copy V1.0 beta 1 from 15. November 2010

EAC extraction logfile from 23. December 2010, 20:14

Lady GaGa / Alejandro (Japan The Singles BOX)

Used drive : HL-DT-STDVDRAM GE20LU10 Adapter: 2 ID: 0

Read mode : Secure
Utilize accurate stream : Yes
Defeat audio cache : Yes
Make use of C2 pointers : No

Read offset correction : 667
Overread into Lead-In and Lead-Out : No
Fill up missing offset samples with silence : Yes
Delete leading and trailing silent blocks : No
Null samples used in CRC calculations : Yes
Used interface : Native Win32 interface for Win NT & 2000

Used output format : Internal WAV Routines
Sample format : 44.100 Hz; 16 Bit; Stereo


TOC of the extracted CD

Track | Start | Length | Start sector | End sector
––––––––––––––––––––––––––––-
1 | 0:00.00 | 4:00.08 | 0 | 18007
2 | 4:00.08 | 3:52.05 | 18008 | 35412


Range status and errors

Selected range

Filename C:\Users\espoir\Desktop\GAGA NEW\Lady GaGa - The Singles (9CD Japan)\The Singles Box\Alejandro\Lady GaGa - Alejandro (Japan The Singles BOX).wav

Peak level 99.9 %
Extraction speed 0.5 X
Range quality 100.0 %
Test CRC 84CE1F38
Copy CRC 84CE1F38
Copy OK

No errors occurred


AccurateRip summary

Track 1 not present in database
Track 2 not present in database

None of the tracks are present in the AccurateRip database

End of status report

Tracklist CD9:

01) Poker face
02) Just Dance
03) Eh, Eh (Nothing Else I Can Say)
04) Christmas Tree feat. Space Cowboy

Exact Audio Copy V1.0 beta 1 from 15. November 2010

EAC extraction logfile from 23. December 2010, 21:06

Lady GaGa / The Cherrytree Sessions (Japan The Singles BOX)

Used drive : OPTIARC DVD RW AD-5670S Adapter: 1 ID: 0

Read mode : Secure
Utilize accurate stream : Yes
Defeat audio cache : Yes
Make use of C2 pointers : No

Read offset correction : 48
Overread into Lead-In and Lead-Out : No
Fill up missing offset samples with silence : Yes
Delete leading and trailing silent blocks : No
Null samples used in CRC calculations : Yes
Used interface : Native Win32 interface for Win NT & 2000

Used output format : Internal WAV Routines
Sample format : 44.100 Hz; 16 Bit; Stereo


TOC of the extracted CD

Track | Start | Length | Start sector | End sector
––––––––––––––––––––––––––––-
1 | 0:00.00 | 3:39.19 | 0 | 16443
2 | 3:39.19 | 2:06.15 | 16444 | 25908
3 | 5:45.34 | 3:04.01 | 25909 | 39709
4 | 8:49.35 | 2:22.21 | 39710 | 50380


Range status and errors

Selected range

Filename C:\Users\espoir\Desktop\GAGA NEW\Lady GaGa - The Singles (9CD Japan)\The Singles Box\The Cherrytree Sessions\Lady GaGa - The Cherrytree Sessions (Japan The Singles BOX).wav

Peak level 100.0 %
Extraction speed 0.2 X
Range quality 99.9 %
Test CRC A777214D
Copy CRC A777214D
Copy OK

No errors occurred


AccurateRip summary

Track 1 not present in database
Track 2 not present in database
Track 3 not present in database
Track 4 not present in database

None of the tracks are present in the AccurateRip database

End of status report

Lady GaGa: The Singles (2010) [Japan-only 9CD Box, Limited Edition]

All thanks go to espoir

Lady GaGa: in my Blog

Download Lady GaGa: The Singles (2010):