Tags
Language
Tags

Laura Nyro - Eli and the Thirteenth Confession (1968) Audio Fidelity Remastered 2016, Audio CD Layer [Re-Up]

Posted By: Designol
Laura Nyro - Eli and the Thirteenth Confession (1968) Audio Fidelity Remastered 2016, Audio CD Layer [Re-Up]

Laura Nyro - Eli and the Thirteenth Confession (1968) [Remastered 2016]
EAC | FLAC | Tracks (Cue&Log) ~ 276 Mb | Mp3 (CBR320) ~ 127 Mb | Scans included | 00:46:49
Singer-Songwriter, AM Pop, Soft Rock | Label: Audio Fidelity | # AFZ5 237
Mastered By Stephen Marsh & Steve Hoffman

Nyro peaked early, and Eli and the Thirteenth Confession, just her second album, remains her best. It's not only because it contains the original versions of no less than three songs that were big hits for other artists: "Sweet Blindness" (covered by the 5th Dimension), "Stoned Soul Picnic" (also covered by the 5th Dimension), and "Eli's Comin'" (done by Three Dog Night). It's not even just because those three songs are so outstanding. It's because the album as a whole is so outstanding, with its invigorating blend of blue-eyed soul, New York pop, and early confessional singer/songwriting. Nyro sang of love, inscrutably enigmatic romantic daredevils, getting drunk, lonely women, and sensual desire with an infectious joie de vivre. The arrangements superbly complemented the material with lively brass, wailing counterpoint backup vocals, and Nyro's own ebullient piano.

Review by Richie Unterberger, Allmusic.com

Laura Nyro - Eli and the Thirteenth Confession (1968) Audio Fidelity Remastered 2016, Audio CD Layer [Re-Up]



Tracklist:

01. Luckie (3:04)
02. Lu (2:47)
03. Sweet Blindness (2:41)
04. Poverty Train (4:18)
05. Lonely Women (3:35)
06. Eli's Comin (3:58)
07. Timer (3:26)
08. Stoned Soul Picnic (3:50)
09. Emmie (4:24)
10. Woman's Blues (3:48)
11. Once It Was Alright Now (Farmer Joe) (3:00)
12. December's Boudoir (5:09)
13. The Confession (2:49)


Exact Audio Copy V1.3 from 2. September 2016

EAC extraction logfile from 19. July 2017, 23:21

Laura Nyro / Eli And The Thirteenth Confession (2016 AF)

Used drive : PLEXTOR CD-R PREMIUM Adapter: 1 ID: 1

Read mode : Secure
Utilize accurate stream : Yes
Defeat audio cache : Yes
Make use of C2 pointers : No

Read offset correction : 30
Overread into Lead-In and Lead-Out : No
Fill up missing offset samples with silence : Yes
Delete leading and trailing silent blocks : No
Null samples used in CRC calculations : Yes
Used interface : Native Win32 interface for Win NT & 2000
Gap handling : Appended to previous track

Used output format : User Defined Encoder
Selected bitrate : 768 kBit/s
Quality : High
Add ID3 tag : No
Command line compressor : C:\Program Files (x86)\Exact Audio Copy\FLAC\FLAC.EXE
Additional command line options : -6 -e -p -V -T "ARTIST=%artist%" -T "TITLE=%title%" -T "ALBUM=%albumtitle%" -T "DATE=%year%" -T "TRACKNUMBER=%tracknr%" -T "GENRE=%genre%" -T "PERFORMER=%albuminterpret%" -T "COMPOSER=%composer%" %haslyrics%–tag-from-file=LYRICS="%lyricsfile%"%haslyrics% -T "ALBUMARTIST=%albumartist%" -T "DISCNUMBER=%cdnumber%" -T "TOTALDISCS=%totalcds%" -T "TOTALTRACKS=%numtracks%" -T "COMMENT=%comment%" %source% -o %dest%


TOC of the extracted CD

Track | Start | Length | Start sector | End sector
––––––––––––––––––––––––––––-
1 | 0:00.00 | 3:03.40 | 0 | 13764
2 | 3:03.40 | 2:46.50 | 13765 | 26264
3 | 5:50.15 | 2:41.13 | 26265 | 38352
4 | 8:31.28 | 4:17.58 | 38353 | 57685
5 | 12:49.11 | 3:35.17 | 57686 | 73827
6 | 16:24.28 | 3:58.37 | 73828 | 91714
7 | 20:22.65 | 3:25.65 | 91715 | 107154
8 | 23:48.55 | 3:49.51 | 107155 | 124380
9 | 27:38.31 | 4:23.53 | 124381 | 144158
10 | 32:02.09 | 3:48.07 | 144159 | 161265
11 | 35:50.16 | 3:00.27 | 161266 | 174792
12 | 38:50.43 | 5:09.14 | 174793 | 197981
13 | 43:59.57 | 2:48.60 | 197982 | 210641


Track 1

Filename C:\tmp\00_RIPS\01 - Luckie.wav

Pre-gap length 0:00:02.00

Peak level 68.7 %
Extraction speed 8.5 X
Track quality 100.0 %
Test CRC 55ED337F
Copy CRC 55ED337F
Accurately ripped (confidence 18) [043DA58B] (AR v2)
Copy OK

Track 2

Filename C:\tmp\00_RIPS\02 - Lu.wav

Peak level 66.3 %
Extraction speed 6.9 X
Track quality 99.9 %
Test CRC E8E5F81D
Copy CRC E8E5F81D
Accurately ripped (confidence 18) [3D683B2B] (AR v2)
Copy OK

Track 3

Filename C:\tmp\00_RIPS\03 - Sweet Blindness.wav

Peak level 80.3 %
Extraction speed 9.0 X
Track quality 100.0 %
Test CRC 495F1A05
Copy CRC 495F1A05
Accurately ripped (confidence 18) [BF65A630] (AR v2)
Copy OK

Track 4

Filename C:\tmp\00_RIPS\04 - Poverty Train.wav

Peak level 70.0 %
Extraction speed 10.4 X
Track quality 100.0 %
Test CRC 309E8B18
Copy CRC 309E8B18
Accurately ripped (confidence 18) [88F73740] (AR v2)
Copy OK

Track 5

Filename C:\tmp\00_RIPS\05 - Lonely Women.wav

Peak level 65.9 %
Extraction speed 11.1 X
Track quality 100.0 %
Test CRC DF9B36FD
Copy CRC DF9B36FD
Accurately ripped (confidence 18) [5AF79CFC] (AR v2)
Copy OK

Track 6

Filename C:\tmp\00_RIPS\06 - Eli's Comin'.wav

Peak level 59.3 %
Extraction speed 11.6 X
Track quality 100.0 %
Test CRC 598354EA
Copy CRC 598354EA
Accurately ripped (confidence 18) [C6F8E223] (AR v2)
Copy OK

Track 7

Filename C:\tmp\00_RIPS\07 - Timer.wav

Peak level 62.9 %
Extraction speed 11.4 X
Track quality 100.0 %
Test CRC 94C9B49D
Copy CRC 94C9B49D
Accurately ripped (confidence 18) [437F3453] (AR v2)
Copy OK

Track 8

Filename C:\tmp\00_RIPS\08 - Stoned Soul Picnic.wav

Peak level 59.2 %
Extraction speed 12.6 X
Track quality 100.0 %
Test CRC 5CC2B620
Copy CRC 5CC2B620
Accurately ripped (confidence 18) [B36C2EA0] (AR v2)
Copy OK

Track 9

Filename C:\tmp\00_RIPS\09 - Emmie.wav

Peak level 62.9 %
Extraction speed 13.2 X
Track quality 100.0 %
Test CRC 9539BF54
Copy CRC 9539BF54
Accurately ripped (confidence 18) [AB67753F] (AR v2)
Copy OK

Track 10

Filename C:\tmp\00_RIPS\10 - Woman's Blues.wav

Peak level 69.9 %
Extraction speed 11.3 X
Track quality 99.9 %
Test CRC 26DC0E98
Copy CRC 26DC0E98
Accurately ripped (confidence 18) [113AB2DB] (AR v2)
Copy OK

Track 11

Filename C:\tmp\00_RIPS\11 - Once It Was Alright Now (Farmer Joe).wav

Peak level 74.2 %
Extraction speed 13.8 X
Track quality 100.0 %
Test CRC B7989CAE
Copy CRC B7989CAE
Accurately ripped (confidence 18) [476BD439] (AR v2)
Copy OK

Track 12

Filename C:\tmp\00_RIPS\12 - December's Boudoir.wav

Peak level 74.3 %
Extraction speed 14.8 X
Track quality 100.0 %
Test CRC E7556143
Copy CRC E7556143
Accurately ripped (confidence 18) [45E15636] (AR v2)
Copy OK

Track 13

Filename C:\tmp\00_RIPS\13 - The Confession.wav

Peak level 79.0 %
Extraction speed 12.2 X
Track quality 100.0 %
Test CRC 4BDEBB94
Copy CRC 4BDEBB94
Accurately ripped (confidence 18) [89611771] (AR v2)
Copy OK


All tracks accurately ripped

No errors occurred

End of status report

–– CUETools DB Plugin V2.1.6

[CTDB TOCID: GwwJ26hsTo8KpXr67uEtROjk_OA-] found
Submit result: GwwJ26hsTo8KpXr67uEtROjk_OA- has been confirmed
Track | CTDB Status
1 | (14/14) Accurately ripped
2 | (14/14) Accurately ripped
3 | (14/14) Accurately ripped
4 | (14/14) Accurately ripped
5 | (14/14) Accurately ripped
6 | (14/14) Accurately ripped
7 | (14/14) Accurately ripped
8 | (14/14) Accurately ripped
9 | (14/14) Accurately ripped
10 | (14/14) Accurately ripped
11 | (14/14) Accurately ripped
12 | (14/14) Accurately ripped
13 | (14/14) Accurately ripped


==== Log checksum A654716383E4E9D51D7908EEA5F27857CA8479445E9C90C9B06E6CEEC2881EA7 ====

foobar2000 1.2 / Dynamic Range Meter 1.1.1
log date: 2017-07-20 15:52:08

––––––––––––––––––––––––––––––––––––––––
Analyzed: Laura Nyro / Eli and the Thirteenth Confession
––––––––––––––––––––––––––––––––––––––––

DR Peak RMS Duration Track
––––––––––––––––––––––––––––––––––––––––
DR12 -3.25 dB -17.31 dB 3:04 01-Luckie
DR11 -3.56 dB -17.52 dB 2:47 02-Lu
DR11 -1.90 dB -15.58 dB 2:41 03-Sweet Blindness
DR12 -3.09 dB -19.79 dB 4:18 04-Poverty Train
DR12 -3.62 dB -22.59 dB 3:35 05-Lonely Women
DR10 -4.53 dB -18.74 dB 3:58 06-Eli's Comin
DR11 -4.01 dB -17.75 dB 3:26 07-Timer
DR11 -4.55 dB -17.80 dB 3:50 08-Stoned Soul Picnic
DR11 -4.03 dB -19.95 dB 4:24 09-Emmie
DR12 -3.11 dB -18.25 dB 3:48 10-Woman's Blues
DR11 -2.59 dB -16.37 dB 3:00 11-Once It Was Alright Now (Farmer Joe)
DR12 -2.58 dB -20.67 dB 5:09 12-December's Boudoir
DR10 -2.05 dB -16.12 dB 2:49 13-The Confession
––––––––––––––––––––––––––––––––––––––––

Number of tracks: 13
Official DR value: DR11

Samplerate: 44100 Hz
Channels: 2
Bits per sample: 16
Bitrate: 841 kbps
Codec: FLAC
================================================================================

Laura Nyro - Eli and the Thirteenth Confession (1968) Audio Fidelity Remastered 2016, Audio CD Layer [Re-Up]

Laura Nyro - Eli and the Thirteenth Confession (1968) Audio Fidelity Remastered 2016, Audio CD Layer [Re-Up]

All thanks to original releaser - mclarenspy

More interesting music in My Blog