Subcategories

Led Zeppelin: Collection (1969-1982) [10CD, USL VT Remastered Series, Bootlegs]

Posted By: v3122
Led Zeppelin: Collection (1969-1982) [10CD, USL VT Remastered Series, Bootlegs]

Led Zeppelin: Collection (1969-1982)
EAC | Flac(Image) + Cue + Log & MP3 CBR 320Kbps
2012 | KronStudioLab, KSLCD-012-LZ01/KSLCD-012-LZ10 | ~ 2890 or 1032 Mb | Artwork(png) -> 280 Mb
Blues Rock / Hard Rock / Classic Rock | Unofficial Release | Unknown Initial Source

Led Zeppelin were an English rock band formed in London in 1968. The group consisted of vocalist Robert Plant, guitarist Jimmy Page, bassist/keyboardist John Paul Jones, and drummer John Bonham. With their heavy, guitar-driven sound, they are regularly cited as one of the progenitors of heavy metal, although their style drew from a variety of influences, including blues and folk music.

After changing their name from the New Yardbirds, Led Zeppelin signed a deal with Atlantic Records that afforded them considerable artistic freedom. Although the group were initially unpopular with critics, they achieved significant commercial success with eight studio albums released over ten years, from Led Zeppelin (1969) to In Through the Out Door (1979). Their untitled fourth studio album, commonly known as Led Zeppelin IV (1971), and featuring the song "Stairway to Heaven", is among the most popular and influential works in rock music, and helped to secure the group's popularity.

Page wrote most of Led Zeppelin's music, particularly early in their career, while Plant generally supplied the lyrics. Jones's keyboard-based compositions later became central to the group's catalogue, which featured increasing experimentation. The latter half of their career saw a series of record-breaking tours that earned the group a reputation for excess and debauchery. Although they remained commercially and critically successful, their output and touring schedule were limited during the late 1970s, and the group disbanded following Bonham's death from alcohol-related asphyxia in 1980. In the decades that followed, the former members sporadically collaborated and participated in one-off Led Zeppelin reunions. The most successful of these was the 2007 Ahmet Ertegun Tribute Concert in London, with Bonham's son Jason Bonham on drums.

Many critics consider Led Zeppelin one of the most successful, innovative, and influential rock groups in history. They are one of the best-selling music artists in the history of audio recording; various sources estimate the group's record sales at 200 to 300 million units worldwide. With RIAA-certified sales of 111.5 million units, they are the third-best-selling band and fifth-best-selling act in the US. Each of their nine studio albums placed in the top 10 of the Billboard album chart and six reached the number-one spot. They achieved eight consecutive UK number-one albums. Rolling Stone magazine described them as "the heaviest band of all time", "the biggest band of the Seventies", and "unquestionably one of the most enduring bands in rock history". They were inducted into the Rock and Roll Hall of Fame in 1995; the museum's biography of the band states that they were "as influential" during the 1970s as the Beatles were during the 1960s…

~ wiki
Led Zeppelin: Collection (1969-1982) [10CD, USL VT Remastered Series, Bootlegs]

Led Zeppelin: Collection (1969-1982):

Led Zeppelin: Collection (1969-1982) [10CD, USL VT Remastered Series, Bootlegs]

Tracklist CD1 - 1969 Led Zeppelin:

1. Good Times Bad Times(2:46)
2. Babe I'm Gonna Leave You(6:43)
3. You Shook Me(6:28)
4. Dazed And Confused(6:28)
5. Your Time Is Gonna Come(4:34)
6. Black Mountain Side(2:13)
7. Communication Breakdown(2:28)
8. I Can't Quit You Baby(4:43)
9. How Many More Times(8:30)

Exact Audio Copy V0.99 prebeta 5 from 4. May 2009

EAC extraction logfile from 16. June 2012, 11:44

Led Zeppelin / Led Zeppelin

Used drive : HL-DT-STDVDRAM GT10N Adapter: 1 ID: 0

Read mode : Secure
Utilize accurate stream : Yes
Defeat audio cache : Yes
Make use of C2 pointers : No

Read offset correction : 102
Overread into Lead-In and Lead-Out : No
Fill up missing offset samples with silence : Yes
Delete leading and trailing silent blocks : No
Null samples used in CRC calculations : Yes
Used interface : Native Win32 interface for Win NT & 2000
Gap handling : Appended to previous track

Used output format : Internal WAV Routines
Sample format : 44.100 Hz; 16 Bit; Stereo


TOC of the extracted CD

Track | Start | Length | Start sector | End sector
––––––––––––––––––––––––––––-
1 | 0:00.00 | 2:46.32 | 0 | 12481
2 | 2:46.32 | 6:42.60 | 12482 | 42691
3 | 9:29.17 | 6:28.25 | 42692 | 71816
4 | 15:57.42 | 6:27.73 | 71817 | 100914
5 | 22:25.40 | 4:34.32 | 100915 | 121496
6 | 26:59.72 | 2:12.49 | 121497 | 131445
7 | 29:12.46 | 2:28.22 | 131446 | 142567
8 | 31:40.68 | 4:42.61 | 142568 | 163778
9 | 36:23.54 | 8:30.16 | 163779 | 202044


Track 1

Filename C:\REL\Led Zeppelin - 1969 - Led Zeppelin\01 - Good Times Bad Times.wav

Pre-gap length 0:00:02.00

Peak level 98.6 %
Track quality 100.0 %
Test CRC B6226BCF
Copy CRC B6226BCF
Copy OK

Track 2

Filename C:\REL\Led Zeppelin - 1969 - Led Zeppelin\02 - Babe I'm Gonna Leave You.wav

Pre-gap length 0:00:00.32

Peak level 95.5 %
Track quality 100.0 %
Test CRC 1D9F456F
Copy CRC 1D9F456F
Copy OK

Track 3

Filename C:\REL\Led Zeppelin - 1969 - Led Zeppelin\03 - You Shook Me.wav

Pre-gap length 0:00:00.34

Peak level 96.0 %
Track quality 100.0 %
Test CRC 0B01707E
Copy CRC 0B01707E
Copy OK

Track 4

Filename C:\REL\Led Zeppelin - 1969 - Led Zeppelin\04 - Dazed And Confused.wav

Pre-gap length 0:00:00.32

Peak level 97.3 %
Track quality 100.0 %
Test CRC 4C22A748
Copy CRC 4C22A748
Copy OK

Track 5

Filename C:\REL\Led Zeppelin - 1969 - Led Zeppelin\05 - Your Time Is Gonna Come.wav

Pre-gap length 0:00:00.34

Peak level 97.6 %
Track quality 100.0 %
Test CRC 842311EE
Copy CRC 842311EE
Copy OK

Track 6

Filename C:\REL\Led Zeppelin - 1969 - Led Zeppelin\06 - Black Mountain Side.wav

Pre-gap length 0:00:00.32

Peak level 95.3 %
Track quality 100.0 %
Test CRC 7C221C1A
Copy CRC 7C221C1A
Copy OK

Track 7

Filename C:\REL\Led Zeppelin - 1969 - Led Zeppelin\07 - Communication Breakdown.wav

Pre-gap length 0:00:00.34

Peak level 96.6 %
Track quality 100.0 %
Test CRC 752CDFC2
Copy CRC 752CDFC2
Copy OK

Track 8

Filename C:\REL\Led Zeppelin - 1969 - Led Zeppelin\08 - I Can't Quit You Baby.wav

Pre-gap length 0:00:00.34

Peak level 96.4 %
Track quality 100.0 %
Test CRC 6C8C4B5E
Copy CRC 6C8C4B5E
Copy OK

Track 9

Filename C:\REL\Led Zeppelin - 1969 - Led Zeppelin\09 - How Many More Times.wav

Pre-gap length 0:00:00.34

Peak level 97.7 %
Track quality 100.0 %
Test CRC 694AEFB5
Copy CRC 694AEFB5
Copy OK

No errors occurred

End of status report


[CUETools log; Date: 21.06.2020 15:36:42; Version: 2.1.4]
[AccurateRip ID: 000f1839-006e4e41-7b0a8509] disk not present in database.

Track Peak [ CRC32 ] [W/O NULL] [ LOG ]
– 98,6 [2940FB46] [1B2B6EF8]
01 98,6 [B6226BCF] [AE5BEB21] CRC32
02 95,5 [1D9F456F] [9CA6113D] CRC32
03 96,0 [0B01707E] [BA17BC01] CRC32
04 97,3 [4C22A748] [5FFA09FF] CRC32
05 97,6 [842311EE] [E7ED6F7A] CRC32
06 95,3 [7C221C1A] [9B084E42] CRC32
07 96,6 [752CDFC2] [869FFF3F] CRC32
08 96,4 [6C8C4B5E] [D1D012A7] CRC32
09 97,7 [694AEFB5] [79A5E1AA] CRC32


Led Zeppelin: Collection (1969-1982) [10CD, USL VT Remastered Series, Bootlegs]

Tracklist CD2 - 1969 Led Zeppelin II:

1. Whole Lotta Love (5:34)
2. What Is And What Should Never Be (4:46)
3. The Lemon Song (6:18)
4. Thank You (4:47)
5. Heartbreaker (4:14)
6. Living Loving Maid (She's Just A Woman) (2:38)
7. Ramble On (4:24)
8. Moby Dick (4:21)
9. Bring It On Home (4:21)

Exact Audio Copy V0.99 prebeta 5 from 4. May 2009

EAC extraction logfile from 9. June 2012, 22:18

Led Zeppelin / Led Zeppelin II

Used drive : HL-DT-STDVDRAM GT10N Adapter: 1 ID: 0

Read mode : Secure
Utilize accurate stream : Yes
Defeat audio cache : Yes
Make use of C2 pointers : No

Read offset correction : 102
Overread into Lead-In and Lead-Out : No
Fill up missing offset samples with silence : Yes
Delete leading and trailing silent blocks : No
Null samples used in CRC calculations : Yes
Used interface : Native Win32 interface for Win NT & 2000
Gap handling : Appended to previous track

Used output format : Internal WAV Routines
Sample format : 44.100 Hz; 16 Bit; Stereo


TOC of the extracted CD

Track | Start | Length | Start sector | End sector
––––––––––––––––––––––––––––-
1 | 0:00.00 | 5:34.47 | 0 | 25096
2 | 5:34.47 | 4:44.03 | 25097 | 46399
3 | 10:18.50 | 6:20.60 | 46400 | 74959
4 | 16:39.35 | 4:48.10 | 74960 | 96569
5 | 21:27.45 | 4:14.15 | 96570 | 115634
6 | 25:41.60 | 2:39.10 | 115635 | 127569
7 | 28:20.70 | 4:25.18 | 127570 | 147462
8 | 32:46.13 | 4:21.23 | 147463 | 167060
9 | 37:07.36 | 4:21.63 | 167061 | 186698


Track 1

Filename C:\REL\Led Zeppelin - 1969 - Led Zeppelin II\01 - Whole Lotta Love.wav

Pre-gap length 0:00:02.00

Peak level 97.3 %
Track quality 100.0 %
Test CRC 8A48A301
Copy CRC 8A48A301
Copy OK

Track 2

Filename C:\REL\Led Zeppelin - 1969 - Led Zeppelin II\02 - What Is And What Should Never Be.wav

Pre-gap length 0:00:00.35

Peak level 98.2 %
Track quality 100.0 %
Test CRC D773C0FE
Copy CRC D773C0FE
Copy OK

Track 3

Filename C:\REL\Led Zeppelin - 1969 - Led Zeppelin II\03 - The Lemon Song.wav

Pre-gap length 0:00:00.33

Peak level 95.2 %
Track quality 100.0 %
Test CRC 090F95EA
Copy CRC 090F95EA
Copy OK

Track 4

Filename C:\REL\Led Zeppelin - 1969 - Led Zeppelin II\04 - Thank You.wav

Pre-gap length 0:00:00.35

Peak level 96.6 %
Track quality 100.0 %
Test CRC 4D68DC7B
Copy CRC 4D68DC7B
Copy OK

Track 5

Filename C:\REL\Led Zeppelin - 1969 - Led Zeppelin II\05 - Heartbreaker.wav

Pre-gap length 0:00:00.34

Peak level 96.0 %
Track quality 100.0 %
Test CRC 4822C1A3
Copy CRC 4822C1A3
Copy OK

Track 6

Filename C:\REL\Led Zeppelin - 1969 - Led Zeppelin II\06 - Living Loving Maid (She's Just A Woman).wav

Peak level 98.0 %
Track quality 100.0 %
Test CRC 052C47E9
Copy CRC 052C47E9
Copy OK

Track 7

Filename C:\REL\Led Zeppelin - 1969 - Led Zeppelin II\07 - Ramble On.wav

Pre-gap length 0:00:00.34

Peak level 97.5 %
Track quality 100.0 %
Test CRC 0492532E
Copy CRC 0492532E
Copy OK

Track 8

Filename C:\REL\Led Zeppelin - 1969 - Led Zeppelin II\08 - Moby Dick.wav

Pre-gap length 0:00:00.36

Peak level 96.8 %
Track quality 100.0 %
Test CRC 81C4690E
Copy CRC 81C4690E
Copy OK

Track 9

Filename C:\REL\Led Zeppelin - 1969 - Led Zeppelin II\09 - Bring It On Home.wav

Pre-gap length 0:00:00.36

Peak level 95.6 %
Track quality 100.0 %
Test CRC EE24060B
Copy CRC EE24060B
Copy OK

No errors occurred

End of status report


[CUETools log; Date: 21.06.2020 15:39:47; Version: 2.1.4]
CDDBId mismatch: 6AF9B909 vs 6A09B909
[AccurateRip ID: 000f113f-006c7a08-6a09b909] found.
Track [ CRC | V2 ] Status
01 [efefc2da|b450206d] (0+0/1) No match
02 [6e493906|e3bb5841] (0+0/1) No match
03 [504e348e|1795982d] (0+0/1) No match
04 [88fb4f59|7aed495a] (0+0/1) No match
05 [8d943424|b38c34e8] (0+0/1) No match
06 [1b8190a2|c83a64ab] (0+0/1) No match
07 [a32d8a4f|183323fd] (0+0/1) No match
08 [5e8686fd|9df7b8a8] (0+0/1) No match
09 [212c9178|4fefb710] (0+0/1) No match
Offsetted by -30:
01 [b3fee3b8] (0/1) No match (V2 was not tested)
02 [ada3ba8a] (0/1) No match (V2 was not tested)
03 [2fe5c0b2] (0/1) No match (V2 was not tested)
04 [9d3e633f] (0/1) No match (V2 was not tested)
05 [b6e2134e] (0/1) No match (V2 was not tested)
06 [701588b4] (0/1) No match (V2 was not tested)
07 [1b35d607] (0/1) No match (V2 was not tested)
08 [283e7d01] (0/1) No match (V2 was not tested)
09 [f9a9eca8] (0/1) No match (V2 was not tested)

Track Peak [ CRC32 ] [W/O NULL] [ LOG ]
– 98,2 [8C9E11EE] [34105F9C]
01 97,3 [8A48A301] [AEED5D0B] CRC32
02 98,2 [D773C0FE] [585C3F06] CRC32
03 95,2 [090F95EA] [37BAD81F] CRC32
04 96,6 [4D68DC7B] [27F9C6B7] CRC32
05 96,0 [4822C1A3] [F3589759] CRC32
06 98,0 [052C47E9] [C4A4D236] CRC32
07 97,5 [0492532E] [3C853D5B] CRC32
08 96,8 [81C4690E] [856F3420] CRC32
09 95,6 [EE24060B] [60037623] CRC32


Led Zeppelin: Collection (1969-1982) [10CD, USL VT Remastered Series, Bootlegs]

Tracklist CD3 - 1970 Led Zeppelin III:

1. Immigrant Song (2:25)
2. Friends (3:54)
3. Celebration Day (3:29)
4. Since I've Been Loving You (7:23)
5. Out On The Tiles (4:07)
6. Gallows Pole (4:56)
7. Tangerine (3:10)
8. That's The Way (5:37)
9. Bron-Y-Aur Stomp (4:16)
10. Hats Off To (Roy) Harper (3:42)

Exact Audio Copy V0.99 prebeta 5 from 4. May 2009

EAC extraction logfile from 11. June 2012, 22:57

Led Zeppelin / Led Zeppelin III

Used drive : HL-DT-STDVDRAM GT10N Adapter: 1 ID: 0

Read mode : Secure
Utilize accurate stream : Yes
Defeat audio cache : Yes
Make use of C2 pointers : No

Read offset correction : 102
Overread into Lead-In and Lead-Out : No
Fill up missing offset samples with silence : Yes
Delete leading and trailing silent blocks : No
Null samples used in CRC calculations : Yes
Used interface : Native Win32 interface for Win NT & 2000
Gap handling : Appended to previous track

Used output format : Internal WAV Routines
Sample format : 44.100 Hz; 16 Bit; Stereo


TOC of the extracted CD

Track | Start | Length | Start sector | End sector
––––––––––––––––––––––––––––-
1 | 0:00.00 | 2:25.69 | 0 | 10943
2 | 2:25.69 | 3:54.27 | 10944 | 28520
3 | 6:20.21 | 3:27.36 | 28521 | 44081
4 | 9:47.57 | 7:23.32 | 44082 | 77338
5 | 17:11.14 | 4:03.50 | 77339 | 95613
6 | 21:14.64 | 4:56.38 | 95614 | 117851
7 | 26:11.27 | 3:11.04 | 117852 | 132180
8 | 29:22.31 | 5:37.37 | 132181 | 157492
9 | 34:59.68 | 4:17.60 | 157493 | 176827
10 | 39:17.53 | 3:44.49 | 176828 | 193676


Track 1

Filename C:\REL\Led Zeppelin - 1970 - Led Zeppelin III\01 - Immigrant Song.wav

Pre-gap length 0:00:02.00

Peak level 96.1 %
Track quality 100.0 %
Test CRC 7C71A2CB
Copy CRC 7C71A2CB
Copy OK

Track 2

Filename C:\REL\Led Zeppelin - 1970 - Led Zeppelin III\02 - Friends.wav

Pre-gap length 0:00:00.35

Peak level 89.8 %
Track quality 100.0 %
Test CRC C99F1FFF
Copy CRC C99F1FFF
Copy OK

Track 3

Filename C:\REL\Led Zeppelin - 1970 - Led Zeppelin III\03 - Celebration Day.wav

Pre-gap length 0:00:00.34

Peak level 97.0 %
Track quality 99.9 %
Test CRC F1D38E2D
Copy CRC F1D38E2D
Copy OK

Track 4

Filename C:\REL\Led Zeppelin - 1970 - Led Zeppelin III\04 - Since I've Been Loving You.wav

Pre-gap length 0:00:00.32

Peak level 98.3 %
Track quality 100.0 %
Test CRC 5098EFB9
Copy CRC 5098EFB9
Copy OK

Track 5

Filename C:\REL\Led Zeppelin - 1970 - Led Zeppelin III\05 - Out On The Tiles.wav

Pre-gap length 0:00:00.31

Peak level 97.7 %
Track quality 100.0 %
Test CRC 03FEFB22
Copy CRC 03FEFB22
Copy OK

Track 6

Filename C:\REL\Led Zeppelin - 1970 - Led Zeppelin III\06 - Gallows Pole.wav

Pre-gap length 0:00:00.34

Peak level 97.5 %
Track quality 100.0 %
Test CRC B016DE67
Copy CRC B016DE67
Copy OK

Track 7

Filename C:\REL\Led Zeppelin - 1970 - Led Zeppelin III\07 - Tangerine.wav

Pre-gap length 0:00:00.34

Peak level 97.8 %
Track quality 100.0 %
Test CRC 53F47024
Copy CRC 53F47024
Copy OK

Track 8

Filename C:\REL\Led Zeppelin - 1970 - Led Zeppelin III\08 - That's The Way.wav

Pre-gap length 0:00:00.34

Peak level 91.8 %
Track quality 100.0 %
Test CRC 54345233
Copy CRC 54345233
Copy OK

Track 9

Filename C:\REL\Led Zeppelin - 1970 - Led Zeppelin III\09 - Bron-Y-Aur Stomp.wav

Pre-gap length 0:00:00.34

Peak level 98.2 %
Track quality 100.0 %
Test CRC 15602793
Copy CRC 15602793
Copy OK

Track 10

Filename C:\REL\Led Zeppelin - 1970 - Led Zeppelin III\10 - Hats Off To (Roy) Harper.wav

Pre-gap length 0:00:00.33

Peak level 92.0 %
Track quality 100.0 %
Test CRC 63074DAD
Copy CRC 63074DAD
Copy OK

No errors occurred

End of status report


[CUETools log; Date: 21.06.2020 15:42:26; Version: 2.1.4]
CDDBId mismatch: 410A160A vs 810A160A
[AccurateRip ID: 000fc923-0080d36f-810a160a] disk not present in database.

Track Peak [ CRC32 ] [W/O NULL] [ LOG ]
– 98,3 [0BCAE6A0] [3E13C729]
01 96,1 [7C71A2CB] [6EA3D7E5] CRC32
02 89,8 [C99F1FFF] [241B9C01] CRC32
03 97,0 [F1D38E2D] [79D34A92] CRC32
04 98,3 [5098EFB9] [495EE84B] CRC32
05 97,7 [03FEFB22] [3E5C40F0] CRC32
06 97,5 [B016DE67] [0FA220B9] CRC32
07 97,8 [53F47024] [E76FD5DF] CRC32
08 91,8 [54345233] [86B0BB4F] CRC32
09 98,2 [15602793] [A6DF7912] CRC32
10 92,0 [63074DAD] [17E10657] CRC32


Led Zeppelin: Collection (1969-1982) [10CD, USL VT Remastered Series, Bootlegs]

Tracklist CD4 - 1971 Led Zeppelin IV:

1. Black Dog (4:56)
2. Rock And Roll (3:41)
3. The Battle Of Evermore (5:52)
4. Stairway To Heaven (8:02)
5. Misty Mountain Hop (4:39)
6. Four Sticks (4:45)
7. Going To California (3:32)
8. When The Levee Breaks (7:08)

Exact Audio Copy V0.99 prebeta 5 from 4. May 2009

EAC extraction logfile from 12. June 2012, 17:58

Led Zeppelin / Led Zeppelin IV

Used drive : HL-DT-STDVDRAM GT10N Adapter: 1 ID: 0

Read mode : Secure
Utilize accurate stream : Yes
Defeat audio cache : Yes
Make use of C2 pointers : No

Read offset correction : 102
Overread into Lead-In and Lead-Out : No
Fill up missing offset samples with silence : Yes
Delete leading and trailing silent blocks : No
Null samples used in CRC calculations : Yes
Used interface : Native Win32 interface for Win NT & 2000
Gap handling : Appended to previous track

Used output format : Internal WAV Routines
Sample format : 44.100 Hz; 16 Bit; Stereo


TOC of the extracted CD

Track | Start | Length | Start sector | End sector
––––––––––––––––––––––––––––-
1 | 0:00.00 | 4:55.64 | 0 | 22188
2 | 4:55.64 | 3:40.60 | 22189 | 38748
3 | 8:36.49 | 5:47.21 | 38749 | 64794
4 | 14:23.70 | 8:01.30 | 64795 | 100899
5 | 22:25.25 | 4:36.73 | 100900 | 121672
6 | 27:02.23 | 4:39.72 | 121673 | 142669
7 | 31:42.20 | 3:32.24 | 142670 | 158593
8 | 35:14.44 | 7:10.00 | 158594 | 190843


Track 1

Filename C:\REL\Led Zeppelin - 1971 - Led Zeppelin IV\01 - Black Dog.wav

Pre-gap length 0:00:02.00

Peak level 97.1 %
Track quality 100.0 %
Test CRC 8D5814BA
Copy CRC 8D5814BA
Copy OK

Track 2

Filename C:\REL\Led Zeppelin - 1971 - Led Zeppelin IV\02 - Rock And Roll.wav

Pre-gap length 0:00:00.34

Peak level 96.1 %
Track quality 100.0 %
Test CRC 00F3AC38
Copy CRC 00F3AC38
Copy OK

Track 3

Filename C:\REL\Led Zeppelin - 1971 - Led Zeppelin IV\03 - The Battle Of Evermore.wav

Pre-gap length 0:00:00.35

Peak level 87.8 %
Track quality 100.0 %
Test CRC 60617990
Copy CRC 60617990
Copy OK

Track 4

Filename C:\REL\Led Zeppelin - 1971 - Led Zeppelin IV\04 - Stairway To Heaven.wav

Pre-gap length 0:00:00.35

Peak level 95.8 %
Track quality 100.0 %
Test CRC 0BC57A72
Copy CRC 0BC57A72
Copy OK

Track 5

Filename C:\REL\Led Zeppelin - 1971 - Led Zeppelin IV\05 - Misty Mountain Hop.wav

Pre-gap length 0:00:00.33

Peak level 94.0 %
Track quality 100.0 %
Test CRC 03E457E2
Copy CRC 03E457E2
Copy OK

Track 6

Filename C:\REL\Led Zeppelin - 1971 - Led Zeppelin IV\06 - Four Sticks.wav

Pre-gap length 0:00:00.36

Peak level 97.2 %
Track quality 100.0 %
Test CRC 7252FA2B
Copy CRC 7252FA2B
Copy OK

Track 7

Filename C:\REL\Led Zeppelin - 1971 - Led Zeppelin IV\07 - Going To California.wav

Pre-gap length 0:00:00.35

Peak level 82.9 %
Track quality 100.0 %
Test CRC 22D6F5B2
Copy CRC 22D6F5B2
Copy OK

Track 8

Filename C:\REL\Led Zeppelin - 1971 - Led Zeppelin IV\08 - When The Levee Breaks.wav

Pre-gap length 0:00:00.34

Peak level 95.9 %
Track quality 100.0 %
Test CRC EFAF91DF
Copy CRC EFAF91DF
Copy OK

No errors occurred

End of status report


[CUETools log; Date: 21.06.2020 15:45:18; Version: 2.1.4]
[AccurateRip ID: 000cd2de-00560cd6-6909f008] disk not present in database.

Track Peak [ CRC32 ] [W/O NULL] [ LOG ]
– 97,2 [67C9CB61] [484F8107]
01 97,1 [8D5814BA] [AE6412D9] CRC32
02 96,1 [00F3AC38] [5665C739] CRC32
03 87,8 [60617990] [106A14CC] CRC32
04 95,8 [0BC57A72] [B4B56E15] CRC32
05 93,9 [03E457E2] [46DE17C6] CRC32
06 97,2 [7252FA2B] [169BBD3F] CRC32
07 82,9 [22D6F5B2] [9FAB83AF] CRC32
08 95,9 [EFAF91DF] [81C0F7F5] CRC32


Led Zeppelin: Collection (1969-1982) [10CD, USL VT Remastered Series, Bootlegs]

Tracklist CD5 - 1973 Houses of The Holy:

1. The Song Remains The Same (5:29)
2. The Rain Song (7:39)
3. Over The Hills And Far Away (4:49)
4. The Crunge (3:17)
5. Dancing Days (3:43)
6. D'yer Ma'ker (4:22)
7. No Quarter (7:00)
8. The Ocean (4:30)

Exact Audio Copy V0.99 prebeta 5 from 4. May 2009

EAC extraction logfile from 16. June 2012, 18:07

Led Zeppelin / Houses of The Holy

Used drive : HL-DT-STDVDRAM GT10N Adapter: 1 ID: 0

Read mode : Secure
Utilize accurate stream : Yes
Defeat audio cache : Yes
Make use of C2 pointers : No

Read offset correction : 102
Overread into Lead-In and Lead-Out : No
Fill up missing offset samples with silence : Yes
Delete leading and trailing silent blocks : No
Null samples used in CRC calculations : Yes
Used interface : Installed external ASPI interface
Gap handling : Appended to previous track

Used output format : Internal WAV Routines
Sample format : 44.100 Hz; 16 Bit; Stereo


TOC of the extracted CD

Track | Start | Length | Start sector | End sector
––––––––––––––––––––––––––––-
1 | 0:00.00 | 5:30.22 | 0 | 24771
2 | 5:30.22 | 7:40.53 | 24772 | 59324
3 | 13:11.00 | 4:50.15 | 59325 | 81089
4 | 18:01.15 | 3:14.42 | 81090 | 95681
5 | 21:15.57 | 3:45.39 | 95682 | 112595
6 | 25:01.21 | 4:24.20 | 112596 | 132415
7 | 29:25.41 | 7:02.13 | 132416 | 164078
8 | 36:27.54 | 4:29.19 | 164079 | 184272


Track 1

Filename C:\REL\Led Zeppelin - 1973 - Houses of The Holy\01 - The Song Remains The Same.wav

Pre-gap length 0:00:02.00

Peak level 96.4 %
Track quality 100.0 %
Test CRC 357D53D5
Copy CRC 357D53D5
Copy OK

Track 2

Filename C:\REL\Led Zeppelin - 1973 - Houses of The Holy\02 - The Rain Song.wav

Pre-gap length 0:00:00.35

Peak level 96.5 %
Track quality 100.0 %
Test CRC E2B04D07
Copy CRC E2B04D07
Copy OK

Track 3

Filename C:\REL\Led Zeppelin - 1973 - Houses of The Holy\03 - Over The Hills And Far Away.wav

Pre-gap length 0:00:00.45

Peak level 98.5 %
Track quality 100.0 %
Test CRC 2E2CC924
Copy CRC 2E2CC924
Copy OK

Track 4

Filename C:\REL\Led Zeppelin - 1973 - Houses of The Holy\04 - The Crunge.wav

Pre-gap length 0:00:00.39

Peak level 98.0 %
Track quality 100.0 %
Test CRC 738E44CF
Copy CRC 738E44CF
Copy OK

Track 5

Filename C:\REL\Led Zeppelin - 1973 - Houses of The Holy\05 - Dancing Days.wav

Peak level 97.5 %
Track quality 100.0 %
Test CRC 59250770
Copy CRC 59250770
Copy OK

Track 6

Filename C:\REL\Led Zeppelin - 1973 - Houses of The Holy\06 - D'yer Mak'er.wav

Pre-gap length 0:00:00.35

Peak level 97.4 %
Track quality 100.0 %
Test CRC 48B4464E
Copy CRC 48B4464E
Copy OK

Track 7

Filename C:\REL\Led Zeppelin - 1973 - Houses of The Holy\07 - No Quarter.wav

Pre-gap length 0:00:00.35

Peak level 98.1 %
Track quality 100.0 %
Test CRC 79BF9B24
Copy CRC 79BF9B24
Copy OK

Track 8

Filename C:\REL\Led Zeppelin - 1973 - Houses of The Holy\08 - The Ocean.wav

Pre-gap length 0:00:01.00

Peak level 98.0 %
Track quality 100.0 %
Test CRC 89B67931
Copy CRC 89B67931
Copy OK

No errors occurred

End of status report


[CUETools log; Date: 21.06.2020 15:48:55; Version: 2.1.4]
CDDBId mismatch: 6C09F808 vs 6C099808
[AccurateRip ID: 000d08d9-0055821b-6c099808] disk not present in database.

Track Peak [ CRC32 ] [W/O NULL] [ LOG ]
– 98,5 [6388877E] [A3C97FD8]
01 96,4 [357D53D5] [3A9A0EA8] CRC32
02 96,5 [E2B04D07] [202EC190] CRC32
03 98,5 [2E2CC924] [A7897228] CRC32
04 98,0 [738E44CF] [7EB7010F] CRC32
05 97,5 [59250770] [4AFC334B] CRC32
06 97,4 [48B4464E] [DFBD6DA6] CRC32
07 98,1 [79BF9B24] [D7CB34E4] CRC32
08 98,0 [89B67931] [BF2BB5DF] CRC32


Led Zeppelin: Collection (1969-1982) [10CD, USL VT Remastered Series, Bootlegs]

Tracklist CD6 - 1975 Physical Graffiti CD1:

1. Custard Pie (4:13)
2. The Rover (5:36)
3. In My Time of Dying (11:04)
4. Houses of the Holy (4:01)
5. Trampled Under Foot (5:35)
6. Kashmir (8:31)

Exact Audio Copy V0.99 prebeta 5 from 4. May 2009

EAC extraction logfile from 24. June 2012, 18:53

Led Zeppelin / Physical Graffiti - CD 1

Used drive : Optiarc DVD RW AD-7910S Adapter: 1 ID: 0

Read mode : Secure
Utilize accurate stream : Yes
Defeat audio cache : Yes
Make use of C2 pointers : No

Read offset correction : 48
Overread into Lead-In and Lead-Out : No
Fill up missing offset samples with silence : Yes
Delete leading and trailing silent blocks : No
Null samples used in CRC calculations : Yes
Used interface : Native Win32 interface for Win NT & 2000
Gap handling : Appended to previous track

Used output format : Internal WAV Routines
Sample format : 44.100 Hz; 16 Bit; Stereo


TOC of the extracted CD

Track | Start | Length | Start sector | End sector
––––––––––––––––––––––––––––-
1 | 0:00.00 | 4:11.25 | 0 | 18849
2 | 4:11.25 | 5:35.24 | 18850 | 43998
3 | 9:46.49 | 11:05.73 | 43999 | 93946
4 | 20:52.47 | 4:02.33 | 93947 | 112129
5 | 24:55.05 | 5:36.39 | 112130 | 137368
6 | 30:31.44 | 8:28.13 | 137369 | 175481


Track 1

Filename F:\UUS\EAC\Led Zeppelin - 1975 - Physical Graffiti - CD 1\01 - Custard Pie.wav

Pre-gap length 0:00:02.00

Peak level 98.6 %
Track quality 100.0 %
Test CRC C8322836
Copy CRC C8322836
Copy OK

Track 2

Filename F:\UUS\EAC\Led Zeppelin - 1975 - Physical Graffiti - CD 1\02 - The Rover.wav

Pre-gap length 0:00:00.36

Peak level 97.7 %
Track quality 100.0 %
Test CRC 3D3E0DDF
Copy CRC 3D3E0DDF
Copy OK

Track 3

Filename F:\UUS\EAC\Led Zeppelin - 1975 - Physical Graffiti - CD 1\03 - In My Time Of Dying.wav

Pre-gap length 0:00:00.37

Peak level 96.2 %
Track quality 100.0 %
Test CRC BC507DEE
Copy CRC BC507DEE
Copy OK

Track 4

Filename F:\UUS\EAC\Led Zeppelin - 1975 - Physical Graffiti - CD 1\04 - Houses Of The Holy.wav

Peak level 97.2 %
Track quality 100.0 %
Test CRC 9C9F40E4
Copy CRC 9C9F40E4
Copy OK

Track 5

Filename F:\UUS\EAC\Led Zeppelin - 1975 - Physical Graffiti - CD 1\05 - Trampled Under Foot.wav

Pre-gap length 0:00:00.40

Peak level 96.6 %
Track quality 100.0 %
Test CRC A7EB935A
Copy CRC A7EB935A
Copy OK

Track 6

Filename F:\UUS\EAC\Led Zeppelin - 1975 - Physical Graffiti - CD 1\06 - Kashmir.wav

Peak level 95.3 %
Track quality 100.0 %
Test CRC CC75C55C
Copy CRC CC75C55C
Copy OK

No errors occurred

End of status report


[CUETools log; Date: 21.06.2020 15:51:33; Version: 2.1.4]
CDDBId mismatch: 51C92306 vs 51092306
[AccurateRip ID: 0008e091-003032c4-51092306] disk not present in database.

Track Peak [ CRC32 ] [W/O NULL] [ LOG ]
– 98,6 [8C7E9FB3] [07891E15]
01 98,6 [C8322836] [E4D56C12] CRC32
02 97,7 [3D3E0DDF] [BD0A9598] CRC32
03 96,2 [BC507DEE] [33C0287B] CRC32
04 97,2 [9C9F40E4] [345C58EA] CRC32
05 96,6 [A7EB935A] [A66781DD] CRC32
06 95,3 [CC75C55C] [2EEB9753] CRC32


Tracklist CD7 - 1975 Physical Graffiti CD2:

1. In the Light (8:44)
2. Bron-Yr-Aur (2:06)
3. Down by the Seaside (5:14)
4. Ten Years Gone (6:31)
5. Night Flight (3:36)
6. The Wanton Song (4:06)
7. Boogie with Stu (3:51)
8. Black Country Woman (4:24)
9. Sick Again (4:43)

Exact Audio Copy V0.99 prebeta 5 from 4. May 2009

EAC extraction logfile from 24. June 2012, 22:43

Led Zeppelin / Physical Graffiti - CD 2

Used drive : Optiarc DVD RW AD-7910S Adapter: 1 ID: 0

Read mode : Secure
Utilize accurate stream : Yes
Defeat audio cache : Yes
Make use of C2 pointers : No

Read offset correction : 48
Overread into Lead-In and Lead-Out : No
Fill up missing offset samples with silence : Yes
Delete leading and trailing silent blocks : No
Null samples used in CRC calculations : Yes
Used interface : Native Win32 interface for Win NT & 2000
Gap handling : Appended to previous track

Used output format : Internal WAV Routines
Sample format : 44.100 Hz; 16 Bit; Stereo


TOC of the extracted CD

Track | Start | Length | Start sector | End sector
––––––––––––––––––––––––––––-
1 | 0:00.00 | 8:42.57 | 0 | 39206
2 | 8:42.57 | 2:06.30 | 39207 | 48686
3 | 10:49.12 | 5:15.04 | 48687 | 72315
4 | 16:04.16 | 6:33.23 | 72316 | 101813
5 | 22:37.39 | 3:37.47 | 101814 | 118135
6 | 26:15.11 | 4:06.42 | 118136 | 136627
7 | 30:21.53 | 3:53.13 | 136628 | 154115
8 | 34:14.66 | 4:23.32 | 154116 | 173872
9 | 38:38.23 | 4:44.58 | 173873 | 195230


Track 1

Filename F:\UUS\EAC\Led Zeppelin - 1975 - Physical Graffiti - CD 2\01 - In The Light.wav

Pre-gap length 0:00:02.00

Peak level 96.9 %
Track quality 100.0 %
Test CRC 830E6F60
Copy CRC 830E6F60
Copy OK

Track 2

Filename F:\UUS\EAC\Led Zeppelin - 1975 - Physical Graffiti - CD 2\02 - Bron-Yr-Aur.wav

Pre-gap length 0:00:00.35

Peak level 62.9 %
Track quality 100.0 %
Test CRC F302EE67
Copy CRC F302EE67
Copy OK

Track 3

Filename F:\UUS\EAC\Led Zeppelin - 1975 - Physical Graffiti - CD 2\03 - Down By The Seaside.wav

Peak level 95.7 %
Track quality 100.0 %
Test CRC F43EF2F3
Copy CRC F43EF2F3
Copy OK

Track 4

Filename F:\UUS\EAC\Led Zeppelin - 1975 - Physical Graffiti - CD 2\04 - Ten Years Gone.wav

Pre-gap length 0:00:00.40

Peak level 95.3 %
Track quality 100.0 %
Test CRC C02C4477
Copy CRC C02C4477
Copy OK

Track 5

Filename F:\UUS\EAC\Led Zeppelin - 1975 - Physical Graffiti - CD 2\05 - Night Flight.wav

Pre-gap length 0:00:00.36

Peak level 95.8 %
Track quality 100.0 %
Test CRC 7295EB41
Copy CRC 7295EB41
Copy OK

Track 6

Filename F:\UUS\EAC\Led Zeppelin - 1975 - Physical Graffiti - CD 2\06 - Wanton Song.wav

Pre-gap length 0:00:00.35

Peak level 95.9 %
Track quality 100.0 %
Test CRC B4CB5848
Copy CRC B4CB5848
Copy OK

Track 7

Filename F:\UUS\EAC\Led Zeppelin - 1975 - Physical Graffiti - CD 2\07 - Boogie With Stu.wav

Pre-gap length 0:00:00.38

Peak level 96.2 %
Track quality 100.0 %
Test CRC 26C8F37E
Copy CRC 26C8F37E
Copy OK

Track 8

Filename F:\UUS\EAC\Led Zeppelin - 1975 - Physical Graffiti - CD 2\08 - Black Country Woman.wav

Pre-gap length 0:00:00.36

Peak level 95.6 %
Track quality 100.0 %
Test CRC 58C6C3D1
Copy CRC 58C6C3D1
Copy OK

Track 9

Filename F:\UUS\EAC\Led Zeppelin - 1975 - Physical Graffiti - CD 2\09 - Sick Again.wav

Peak level 95.6 %
Track quality 100.0 %
Test CRC 9D8BADD3
Copy CRC 9D8BADD3
Copy OK

No errors occurred

End of status report


[CUETools log; Date: 21.06.2020 15:53:54; Version: 2.1.4]
[AccurateRip ID: 000fde88-00717f25-760a2b09] disk not present in database.

Track Peak [ CRC32 ] [W/O NULL] [ LOG ]
– 96,9 [633B8186] [9953D8FB]
01 96,9 [830E6F60] [63798755] CRC32
02 62,9 [F302EE67] [F60D54CB] CRC32
03 95,7 [F43EF2F3] [D51FE4DC] CRC32
04 95,3 [C02C4477] [1306E65D] CRC32
05 95,8 [7295EB41] [9706CC0E] CRC32
06 95,9 [B4CB5848] [86DD7446] CRC32
07 96,2 [26C8F37E] [2271BD4F] CRC32
08 95,6 [58C6C3D1] [EFCF2514] CRC32
09 95,6 [9D8BADD3] [B5B87CFE] CRC32


Led Zeppelin: Collection (1969-1982) [10CD, USL VT Remastered Series, Bootlegs]

Tracklist CD8 - 1976 Presence:

1. Achilles Last Stand (10:25)
2. For Your Life (6:20)
3. Royal Orleans (2:58)
4. Nobody's Fault But Mine (5:27)
5. Candy Store Rock (4:07)
6. Hots On For Nowhere (4:43)
7. Tea For One (9:27)

Exact Audio Copy V0.99 prebeta 5 from 4. May 2009

EAC extraction logfile from 2. June 2012, 19:19

Led Zeppelin / Presence

Used drive : HL-DT-STDVDRAM GT10N Adapter: 1 ID: 0

Read mode : Secure
Utilize accurate stream : Yes
Defeat audio cache : Yes
Make use of C2 pointers : No

Read offset correction : 102
Overread into Lead-In and Lead-Out : No
Fill up missing offset samples with silence : Yes
Delete leading and trailing silent blocks : No
Null samples used in CRC calculations : Yes
Used interface : Native Win32 interface for Win NT & 2000
Gap handling : Appended to previous track

Used output format : Internal WAV Routines
Sample format : 44.100 Hz; 16 Bit; Stereo


TOC of the extracted CD

Track | Start | Length | Start sector | End sector
––––––––––––––––––––––––––––-
1 | 0:00.00 | 10:22.46 | 0 | 46695
2 | 10:22.46 | 6:20.43 | 46696 | 75238
3 | 16:43.14 | 2:58.04 | 75239 | 88592
4 | 19:41.18 | 6:13.65 | 88593 | 116632
5 | 25:55.08 | 4:09.12 | 116633 | 135319
6 | 30:04.20 | 4:42.17 | 135320 | 156486
7 | 34:46.37 | 9:25.63 | 156487 | 198924


Track 1

Filename C:\REL\Led Zeppelin - 1976 - Presence\01 - Achilles Last Stand.wav

Pre-gap length 0:00:02.00

Peak level 95.2 %
Track quality 100.0 %
Test CRC D1AAF6B3
Copy CRC D1AAF6B3
Copy OK

Track 2

Filename C:\REL\Led Zeppelin - 1976 - Presence\02 - For Your Life.wav

Peak level 95.2 %
Track quality 100.0 %
Test CRC E156BDEE
Copy CRC E156BDEE
Copy OK

Track 3

Filename C:\REL\Led Zeppelin - 1976 - Presence\03 - Royal Orleans.wav

Pre-gap length 0:00:00.39

Peak level 95.2 %
Track quality 100.0 %
Test CRC 0B9819B6
Copy CRC 0B9819B6
Copy OK

Track 4

Filename C:\REL\Led Zeppelin - 1976 - Presence\04 - Nobody's Fault But Mine.wav

Pre-gap length 0:00:00.43

Peak level 95.2 %
Track quality 100.0 %
Test CRC C4954507
Copy CRC C4954507
Copy OK

Track 5

Filename C:\REL\Led Zeppelin - 1976 - Presence\05 - Candy Store Rock.wav

Peak level 95.2 %
Track quality 100.0 %
Test CRC 2D7213CE
Copy CRC 2D7213CE
Copy OK

Track 6

Filename C:\REL\Led Zeppelin - 1976 - Presence\06 - Hots On For Nowhere.wav

Pre-gap length 0:00:00.40

Peak level 95.2 %
Track quality 99.9 %
Test CRC 77FB6952
Copy CRC 77FB6952
Copy OK

Track 7

Filename C:\REL\Led Zeppelin - 1976 - Presence\07 - Tea For One.wav

Pre-gap length 0:00:00.37

Peak level 97.7 %
Track quality 100.0 %
Test CRC 763E278B
Copy CRC 763E278B
Copy OK

No errors occurred

End of status report


[CUETools log; Date: 21.06.2020 15:56:23; Version: 2.1.4]
CDDBId mismatch: 5D0A5C07 vs 540A5C07
[AccurateRip ID: 000c7ae5-00488fb0-540a5c07] disk not present in database.

Track Peak [ CRC32 ] [W/O NULL] [ LOG ]
– 97,7 [A099CC5B] [502F88ED]
01 95,2 [D1AAF6B3] [9117E9B6] CRC32
02 95,2 [E156BDEE] [D903349E] CRC32
03 95,2 [0B9819B6] [40817681] CRC32
04 95,2 [C4954507] [51CEFB7D] CRC32
05 95,2 [2D7213CE] [2BA0AAAF] CRC32
06 95,2 [77FB6952] [604A118C] CRC32
07 97,7 [763E278B] [C16E282B] CRC32


Led Zeppelin: Collection (1969-1982) [10CD, USL VT Remastered Series, Bootlegs]

Tracklist CD9 - 1979 In Through The Out Door:

1. In The Evening (6:49)
2. South Bound Saurez (4:12)
3. Fool In The Rain (6:12)
4. Hot Dog (3:17)
5. Carouselambra (10:31)
6. All My Love (5:53)
7. I'm Gonna Crawl (5:30)

Exact Audio Copy V1.0 beta 3 from 29. August 2011

EAC extraction logfile from 18. June 2012, 20:01

Led Zeppelin / In Through The Out Door

Used drive : HL-DT-STDVDRAM GT10N Adapter: 1 ID: 0

Read mode : Secure
Utilize accurate stream : Yes
Defeat audio cache : Yes
Make use of C2 pointers : No

Read offset correction : 102
Overread into Lead-In and Lead-Out : No
Fill up missing offset samples with silence : Yes
Delete leading and trailing silent blocks : No
Null samples used in CRC calculations : Yes
Used interface : Native Win32 interface for Win NT & 2000
Gap handling : Appended to previous track

Used output format : Internal WAV Routines
Sample format : 44.100 Hz; 16 Bit; Stereo


TOC of the extracted CD

Track | Start | Length | Start sector | End sector
––––––––––––––––––––––––––––-
1 | 0:00.00 | 6:49.38 | 0 | 30712
2 | 6:49.38 | 4:08.72 | 30713 | 49384
3 | 10:58.35 | 6:10.52 | 49385 | 77186
4 | 17:09.12 | 3:15.62 | 77187 | 91873
5 | 20:24.74 | 10:34.00 | 91874 | 139423
6 | 30:58.74 | 5:49.56 | 139424 | 165654
7 | 36:48.55 | 5:31.10 | 165655 | 190489


Track 1

Filename C:\REL\Led Zeppelin - 1979 - In Through the Out Door\01 - In The Evening.wav

Pre-gap length 0:00:02.00

Peak level 95.4 %
Extraction speed 5.2 X
Track quality 100.0 %
Test CRC 349A7CEA
Copy CRC 349A7CEA
Copy OK

Track 2

Filename C:\REL\Led Zeppelin - 1979 - In Through the Out Door\02 - South Bound Suarez.wav

Pre-gap length 0:00:00.36

Peak level 97.3 %
Extraction speed 5.7 X
Track quality 100.0 %
Test CRC 129FB2E3
Copy CRC 129FB2E3
Copy OK

Track 3

Filename C:\REL\Led Zeppelin - 1979 - In Through the Out Door\03 - Fool In The Rain.wav

Pre-gap length 0:00:00.35

Peak level 96.1 %
Extraction speed 6.3 X
Track quality 100.0 %
Test CRC 1F7A7164
Copy CRC 1F7A7164
Copy OK

Track 4

Filename C:\REL\Led Zeppelin - 1979 - In Through the Out Door\04 - Hot Dog.wav

Peak level 96.3 %
Extraction speed 6.6 X
Track quality 100.0 %
Test CRC 4E00FBA4
Copy CRC 4E00FBA4
Copy OK

Track 5

Filename C:\REL\Led Zeppelin - 1979 - In Through the Out Door\05 - Carouselambra.wav

Pre-gap length 0:00:00.35

Peak level 95.6 %
Extraction speed 7.2 X
Track quality 100.0 %
Test CRC 6D98EB84
Copy CRC 6D98EB84
Copy OK

Track 6

Filename C:\REL\Led Zeppelin - 1979 - In Through the Out Door\06 - All My Love.wav

Pre-gap length 0:00:00.35

Peak level 97.4 %
Extraction speed 7.8 X
Track quality 100.0 %
Test CRC 0F572B1E
Copy CRC 0F572B1E
Copy OK

Track 7

Filename C:\REL\Led Zeppelin - 1979 - In Through the Out Door\07 - I'm Gonna Crawl.wav

Pre-gap length 0:00:00.30

Peak level 95.7 %
Extraction speed 8.1 X
Track quality 100.0 %
Test CRC 939F4984
Copy CRC 939F4984
Copy OK

No errors occurred

End of status report

==== Log checksum 93DC018E4F1EDC090A94C914CDAF7D9D2B8DCE572682D2AA4B917B191B194E90 ====


[CUETools log; Date: 21.06.2020 15:59:08; Version: 2.1.4]
[AccurateRip ID: 000b5d18-0044a155-3809eb07] disk not present in database.

Track Peak [ CRC32 ] [W/O NULL] [ LOG ]
– 97,4 [8286776F] [0360E032]
01 95,4 [349A7CEA] [03F6C489] CRC32
02 97,3 [129FB2E3] [E245C4DE] CRC32
03 96,1 [1F7A7164] [C0CF102B] CRC32
04 96,3 [4E00FBA4] [FDE2F3A3] CRC32
05 95,6 [6D98EB84] [9230F748] CRC32
06 97,4 [0F572B1E] [AB362EAE] CRC32
07 95,7 [939F4984] [579D38AD] CRC32


Led Zeppelin: Collection (1969-1982) [10CD, USL VT Remastered Series, Bootlegs]

Tracklist CD10 - 1982 Coda:

1. We're Gonna Groove (2:40)
2. Poor Tom (3:01)
3. I Can't Quit You Baby (4:17)
4. Walter's Walk (4:31)
5. Ozone Baby (3:35)
6. Darlene (5:06)
7. Bonzo's Montreux (4:17)
8. Wearing and Tearing (5:31)

Exact Audio Copy V0.99 prebeta 5 from 4. May 2009

EAC extraction logfile from 22. June 2012, 8:35

Led Zeppelin / Coda

Used drive : HL-DT-STDVDRAM GT10N Adapter: 1 ID: 0

Read mode : Secure
Utilize accurate stream : Yes
Defeat audio cache : Yes
Make use of C2 pointers : No

Read offset correction : 102
Overread into Lead-In and Lead-Out : No
Fill up missing offset samples with silence : Yes
Delete leading and trailing silent blocks : No
Null samples used in CRC calculations : Yes
Used interface : Installed external ASPI interface
Gap handling : Appended to previous track

Used output format : Internal WAV Routines
Sample format : 44.100 Hz; 16 Bit; Stereo


TOC of the extracted CD

Track | Start | Length | Start sector | End sector
––––––––––––––––––––––––––––-
1 | 0:01.32 | 2:38.52 | 107 | 12008
2 | 2:40.09 | 3:03.68 | 12009 | 25801
3 | 5:44.02 | 4:18.18 | 25802 | 45169
4 | 10:02.20 | 4:30.47 | 45170 | 65466
5 | 14:32.67 | 3:36.28 | 65467 | 81694
6 | 18:09.20 | 4:57.58 | 81695 | 104027
7 | 23:07.03 | 4:17.35 | 104028 | 123337
8 | 27:24.38 | 5:30.57 | 123338 | 148144


Track 1

Filename C:\REL\Led Zeppelin - 1982 - Coda\01 - We're Gonna Groove.wav

Pre-gap length 0:00:03.32

Peak level 95.5 %
Track quality 100.0 %
Test CRC 7B35D95E
Copy CRC 7B35D95E
Copy OK

Track 2

Filename C:\REL\Led Zeppelin - 1982 - Coda\02 - Poor Tom.wav

Pre-gap length 0:00:00.33

Peak level 96.1 %
Track quality 100.0 %
Test CRC 204CB0C2
Copy CRC 204CB0C2
Copy OK

Track 3

Filename C:\REL\Led Zeppelin - 1982 - Coda\03 - I Can't Quit You Baby.wav

Pre-gap length 0:00:00.33

Peak level 96.9 %
Track quality 100.0 %
Test CRC A98A30A0
Copy CRC A98A30A0
Copy OK

Track 4

Filename C:\REL\Led Zeppelin - 1982 - Coda\04 - Walter's Walk.wav

Peak level 95.6 %
Track quality 99.9 %
Test CRC A6F1C7EA
Copy CRC A6F1C7EA
Copy OK

Track 5

Filename C:\REL\Led Zeppelin - 1982 - Coda\05 - Ozone Baby.wav

Pre-gap length 0:00:00.35

Peak level 97.0 %
Track quality 100.0 %
Test CRC B665582E
Copy CRC B665582E
Copy OK

Track 6

Filename C:\REL\Led Zeppelin - 1982 - Coda\06 - Darlene.wav

Pre-gap length 0:00:00.33

Peak level 96.4 %
Track quality 100.0 %
Test CRC 5BA2F7E6
Copy CRC 5BA2F7E6
Copy OK

Track 7

Filename C:\REL\Led Zeppelin - 1982 - Coda\07 - Bonzo's Montreux.wav

Pre-gap length 0:00:00.63

Peak level 97.9 %
Track quality 100.0 %
Test CRC D377E62F
Copy CRC D377E62F
Copy OK

Track 8

Filename C:\REL\Led Zeppelin - 1982 - Coda\08 - Wearing And Tearing.wav

Peak level 95.7 %
Track quality 100.0 %
Test CRC 76016D6C
Copy CRC 76016D6C
Copy OK

No errors occurred

End of status report


[CUETools log; Date: 21.06.2020 16:01:47; Version: 2.1.4]
Pregap length 00:01:32.
Padded some input files to a frame boundary.
[AccurateRip ID: 00093e43-003f4ae2-6707b608] disk not present in database.

Track Peak [ CRC32 ] [W/O NULL] [ LOG ]
– 97,9 [18C5BC72] [9D39BEFE]
01 95,5 [7B35D95E] [072A6011] CRC32
02 96,1 [204CB0C2] [4B45559E] CRC32
03 96,9 [A98A30A0] [2C8FFCD9] CRC32
04 95,6 [A6F1C7EA] [1FE35802] CRC32
05 97,0 [B665582E] [23955BAC] CRC32
06 96,4 [5BA2F7E6] [BD4F88E5] CRC32
07 97,9 [AA906E0A] [1AC20070] [D377E62F]
08 95,7 [B0C62A9C] [4AC311BA] [76016D6C]


All thanks go to the original releaser

Led Zeppelin in my Blog

Download Led Zeppelin: Collection (1969-1982):