Tags
Language
Tags

Limp Bizkit - New Old Songs (2001) [Japanese Ed.]

Posted By: v3122
Limp Bizkit - New Old Songs (2001) [Japanese Ed.]

Limp Bizkit - New Old Songs (2001)
EAC | Flac(Image) + Cue + Log & MP3 CBR 320Kbps
Flip/Interscope Records, UICS-1028 | ~ 506 or 175 Mb | Artwork(jpg) -> 32 Mb
Breakbeat, Thug Rap, Gangsta, Nu Metal

New Old Songs is a remix album by American rap rock band Limp Bizkit. Released on December 4, 2001, the album contains hip hop remixes of songs from the band's albums Three Dollar Bill, Yall, Significant Other and Chocolate Starfish and the Hot Dog Flavored Water. The album is also the thirteenth best-selling remix album…

~ wiki
Limp Bizkit - New Old Songs (2001):

Limp Bizkit - New Old Songs (2001) [Japanese Ed.]

Tracklist:

01. Nookie (For The Nookie) (Remixed By Neptunes) (3:55)
02. Take A Look Around Feat. E 40 And 8-Ball (Remixed By Timbaland) (4:54)
03. Break Stuff (Remixed By DJ Lethal) (3:33)
04. My Way (The P. Diddy Remix) (Remixed By Sean 'P. Diddy' Combs) (4:23)
05. Crushed Feat. Bosko (Remixed By Bosko) (4:03)
06. N 2gether Now (All In Together Now) (Remixed By The Neptunes) (4:05)
07. Rearranged Feat. Bubba Sparxxx (Remixed By Timbaland) (4:56)
08. Getcha Groove On (Dirt Road Remix) Feat. Xzibit (Remixed By DJ Premier) (4:19)
09. Faith/Fame Remix Feat. Everlast (Remixed By Fred Durst And Josh Abraham) (3:33)
10. My Way (Remixed By DJ Lethal) (4:28)
11. Nookie (Androids Vs. Las Putas Remix) (Remixed By Butch Vig) (4:06)
12. Counterfeit (Lethal Dose Extreme Guitar Remix) (Remixwd By DJ Lethal) (3:20)
13. Rollin' (DJ Monk-Vs-The Track Mack Remix) (Remixed By DJ Monk-Vs-The Track Mack) (6:38)
14. My Way (DJ Premier Way Remix) (Remixed By DJ Premier) (4:37)
15. My Way (William Orbit's Remix) (Remixed By William Orbit) (6:32)
16. My Way (Pistols' Dancehall Dub) (Remixed By The Dub Pistols) (6:24)

Exact Audio Copy V0.99 prebeta 5 from 4. May 2009

Отчёт EAC об извлечении, выполненном 7. ноября 2010, 12:16

Limp Bizkit / New Old Songs (Japan Edition)

Дисковод: ASUS DRW-1814BLT Adapter: 5 ID: 0

Режим чтения : Достоверность
Использование точного потока : Да
Отключение кэша аудио : Да
Использование указателей C2 : Нет

Коррекция смещения при чтении : 6
Способность читать области Lead-in и Lead-out : Нет
Заполнение пропущенных сэмплов тишиной : Да
Удаление блоков с тишиной в начале и конце : Нет
При вычислениях CRC использовались нулевые сэмплы : Да
Интерфейс : Встроенный Win32-интерфейс для Win NT/2000

Выходной формат : Пользовательский кодировщик
Выбранный битрейт : 1024 kBit/s
Качество : Высокий
Добавление ID3-тэга : Нет
Утилита сжатия : C:\Program Files\Exact Audio Copy\Flac\wavpack.exe
Дополнительные параметры : -hm %s %d


TOC извлечённого CD

Трек | Старт | Длительность | Начальный сектор | Конечный сектор
––––––––––––––––––––––––––––––––––-
1 | 0:00.00 | 3:55.25 | 0 | 17649
2 | 3:55.25 | 4:54.48 | 17650 | 39747
3 | 8:49.73 | 3:33.52 | 39748 | 55774
4 | 12:23.50 | 4:23.20 | 55775 | 75519
5 | 16:46.70 | 4:03.13 | 75520 | 93757
6 | 20:50.08 | 4:05.67 | 93758 | 112199
7 | 24:56.00 | 4:56.45 | 112200 | 134444
8 | 29:52.45 | 4:19.05 | 134445 | 153874
9 | 34:11.50 | 3:33.03 | 153875 | 169852
10 | 37:44.53 | 4:28.12 | 169853 | 189964
11 | 42:12.65 | 4:06.60 | 189965 | 208474
12 | 46:19.50 | 3:20.68 | 208475 | 223542
13 | 49:40.43 | 6:42.15 | 223543 | 253707
14 | 56:22.58 | 4:37.22 | 253708 | 274504
15 | 61:00.05 | 6:33.40 | 274505 | 304019
16 | 67:33.45 | 6:24.43 | 304020 | 332862


Характеристики диапазона извлечения и сообщения об ошибках

Выбранный диапазон

Имя файла C:\Users\Admin\Desktop\2001 - New Old Songs (Japan Edition)\Limp Bizkit - New Old Songs (Japan Edition).wav

Пиковый уровень 100.0 %
Качество диапазона 100.0 %
CRC теста 18AA813B
CRC копии 18AA813B
Копирование… OK

Ошибок не произошло


AccurateRip: сводка

Трек 1 точное извлечение (доверие 2) [E64BDF07]
Трек 2 нет в базе данных
Трек 3 точное извлечение (доверие 2) [15374DA4]
Трек 4 точное извлечение (доверие 2) [6968DE1C]
Трек 5 точное извлечение (доверие 2) [8322DA32]
Трек 6 точное извлечение (доверие 2) [DB251226]
Трек 7 точное извлечение (доверие 2) [77A4F298]
Трек 8 точное извлечение (доверие 2) [221E89FF]
Трек 9 точное извлечение (доверие 2) [3BE25359]
Трек 10 точное извлечение (доверие 2) [B1622A3E]
Трек 11 точное извлечение (доверие 2) [5CF774E0]
Трек 12 точное извлечение (доверие 2) [FBA6F86D]
Трек 13 точное извлечение (доверие 2) [D1E935F0]
Трек 14 точное извлечение (доверие 2) [C5F372C0]
Трек 15 точное извлечение (доверие 2) [61C3A307]
Трек 16 точное извлечение (доверие 2) [E00205DF]

15 трек(и) скопированы точно
1 трек(и) не содержатся в базе AccurateRip

Некоторые треки не прошли проверку на точность

Конец отчёта


[CUETools log; Date: 12.07.2021 18:35:55; Version: 2.1.4]
[AccurateRip ID: 0028481f-01e78c8a-e5115610] found.
Track [ CRC | V2 ] Status
01 [e64bdf07|5c8a50b0] (3+4/7) Accurately ripped
02 [254eb986|1ab39a63] (2+4/6) Accurately ripped
03 [15374da4|84d59f7d] (3+3/6) Accurately ripped
04 [6968de1c|5cb12fbb] (3+4/7) Accurately ripped
05 [8322da32|5232e2d5] (2+4/6) Accurately ripped
06 [db251226|3457eeb9] (2+4/6) Accurately ripped
07 [77a4f298|92eb28b8] (2+4/6) Accurately ripped
08 [221e89ff|f3310b3a] (3+4/7) Accurately ripped
09 [3be25359|6578a3b0] (2+4/6) Accurately ripped
10 [b1622a3e|4b50cde5] (2+4/6) Accurately ripped
11 [5cf774e0|2c69a143] (2+5/7) Accurately ripped
12 [fba6f86d|1a48d03f] (2+5/7) Accurately ripped
13 [d1e935f0|269d773f] (3+5/8) Accurately ripped
14 [c5f372c0|e86482e3] (2+5/7) Accurately ripped
15 [61c3a307|b18c5056] (2+5/7) Accurately ripped
16 [e00205df|814d0ff6] (2+5/7) Accurately ripped

Track Peak [ CRC32 ] [W/O NULL] [ LOG ]
– 99,9 [18AA813B] [1D946BE5] CRC32
01 99,9 [E5EE72FB] [652630F8]
02 99,9 [B5DF8BB7] [3817C10E]
03 99,9 [A81E8AFA] [5399643D]
04 99,9 [B6FBB5DA] [3FCAA9E9]
05 99,9 [95A56166] [4B9F5D68]
06 99,9 [6D6EDC44] [12803CB4]
07 99,9 [99FD1486] [A17E6EEA]
08 99,9 [A3089ECC] [4B575FDE]
09 99,9 [9B88328F] [1750E64B]
10 99,9 [99B90335] [ADF00DC8]
11 99,9 [724C43CF] [7C0112C8]
12 99,9 [C07EADF2] [45D27092]
13 99,9 [406507A8] [35E0CD21]
14 99,9 [C3F491B5] [848B217D]
15 99,9 [237FBB15] [64BFFE3E]
16 99,9 [27D364A6] [32F399D7]


Limp Bizkit - New Old Songs (2001) [Japanese Ed.]

All thanks go to the original releaser

Limp Bizkit in my Blog

Download Limp Bizkit - New Old Songs (2001):