Tags
Language
Tags

BBC SO, London Sinfonietta, Oliver Knussen - Magnus Lindberg: Aura; Engine (2000)

Posted By: Designol
BBC SO, London Sinfonietta, Oliver Knussen - Magnus Lindberg: Aura; Engine (2000)

Magnus Lindberg: Aura (In Memoriam Witold Lutosławski); Engine (2000)
BBC Symphony Orchestra; London Sinfonietta; Oliver Knussen, conductor

EAC | FLAC | Tracks (Cue&Log) ~ 261 Mb | Mp3 (CBR320) ~ 125 Mb | Scans included
Classical, Contemporary | Label: Deutsche Grammophon | # 463 184-2 | 00:51:21

Magnus Lindberg burst onto the contemporary music scene in the 1980s with his early work Kraft (as in "power", and not the American food conglomerate and inventor of Velveeta cheese by-product substance), an avant-garde spectacular that took the "sound mass" procedures of Berio or Xenakis and wedded them to an explosive rhythmic energy. He's broadened his style since then, taking in tonal elements and even the occasional tune, but the rhythmic vitality remains, and his coloristic gifts, his ear for ever new and remarkable instrumental sound combinations, have only increased. Aura is a four-movement symphony as indescribable as it is a joy to hear. Dedicated to the memory of Lutoslawski, the piece shows its composer similarly possessed of a vibrant, communicative personal musical language. Although it plays continuously for about 37 minutes, newcomers to Lindberg's sound creations should start with the finale, a sort of dance that begins with simple tunefulness before finding itself in a sort of riotous minimalist hell. It's hugely fun, as is the entire work. Lindberg's ability to sustain large stretches of music such as this with effortless mastery makes him, along with his very different-sounding older compatriot Rautavaara, virtually unique in the world of contemporary music today.

The composition of Engine involves some computer-generated procedures, but the result sounds like Lindberg all the same. Working with a virtuoso chamber ensemble, he evolves a 14-minute fireball of a piece out of tiny thematic cells. All of this music is ferociously difficult to play, and Oliver Knussen deserves full credit for his passionate advocacy and impactful leadership. Not everything is perfect, though. The recording balances the brass–horns in particular–too forwardly, and clearly suffers from the presence of extra microphones. With music of this complexity, it's best to trust the composer and the players rather than to engineer the finished product at the mixing board. Still, this release offers music of exceptional beauty and power by a major composer that, taken with Ondine's various Lindberg discs, deserves a place in every contemporary music collection. Great stuff.

Review by David Hurwitz, ClassicsToday.com

Magnus Lindberg and I agree: "My favourite instrument is the orchestra". We also came into the world in the same year (1958) but he arrived in Helsinki, me in London.

Lindberg's is a distinctive voice in contemporary music. He has a huge imagination for sound and the ability to conjure space. Aura, a concerto for orchestra written in memory of Lutoslawski, is a big piece (37 minutes) which contrasts and integrates the orchestra in the most commanding way. Lindberg chooses unlikely combinations (trumpet against piano, high winds against xylophone, scurrying strings with metal sheets in attendance) or blends various instruments to form a consort invoking far-away panoramas.

Lindberg doesn't rely on sound only; harmony is equally important. Aura has a structure (albeit one a little hazy) with defined points of arrival and an ultimate destination (the final bars are a magical distillation of earlier promise: to reach them one almighty, purging climax is required - a fantastic sequence). Lindberg's language is approachable (melodic cells feed and develop Aura's discourse) and there's plenty of surface activity with rapid contrasts of colour. This is a really fine piece which is perhaps a tad too long - I think Lindberg is slightly too occupied with Aura's display element (mini cadenzas) and occasionally sidelines its symphonic aspirations, but Aura's main argument is rarely abandoned. This is music with a wide appeal with something to say and crosses boundaries saying it. Anyone who admires Lutoslawski's Third or Fourth Symphonies will be on home-ground; there's some Carter-like passages, affiliations to Colin Matthews, and the consonant imagery (if not the language) of John Adams. I offer these composers purely as a guide - Lindberg is his own man and has created a very distinctive catalogue of works.

Engine (1996) isn't so welcoming. Its fifteen minutes of stuttering rhythms and dissonant chords certainly compels attention. Perhaps Berio and Xenakis come to mind but Lindberg has a softer edge (although his scoring can be hard-edged) and some solos are quite playful and improvisatory. Again there are plenty of contrasting timbres and the piece doesn't get stuck in a groove; indeed it juggernauts and hesitates before stopping.

The performances are first-class of course. I did wonder about some of the balances in Aura. I thought the percussion slightly too spotlit and wondered if some filigree detail in the orchestra's lower spectrum was as cleanly defined as it might be. This is a minuscule caveat concerning an important release of first recordings. Another version of Aura would be very welcome - I'm sure that Salonen, Saraste or Oramo would have a view on music that is open to interpretation. Meanwhile this DG release is a winner.

Review by Colin Anderson, MusicWeb-International.com

BBC SO, London Sinfonietta, Oliver Knussen - Magnus Lindberg: Aura; Engine (2000)



BBC Symphony Orchestra (Aura)
London Sinfonietta (Engine)
Oliver Knussen, conductor

Recordings: London; BBC Maida Vale Studio 1, 11/1998 (Aura);
Henry Wood Hall, 12/1997 (Engine)

Tracklist:

Aura (1993-94)
In Memoriam Witold Lutosławski
01. 1st Movement (12:55)
02. 2nd Movement (12:30)
03. 3rd Movement (6:07)
04. 4th Movement (5:30)

05. Engine (1996) (14:19)


Exact Audio Copy V1.0 beta 1 from 15. November 2010

EAC extraction logfile from 4. March 2011, 0:59

Magnus Lindberg / Aura; Engine

Used drive : HP DVD Writer 557s Adapter: 5 ID: 0

Read mode : Secure
Utilize accurate stream : Yes
Defeat audio cache : Yes
Make use of C2 pointers : No

Read offset correction : 6
Overread into Lead-In and Lead-Out : No
Fill up missing offset samples with silence : Yes
Delete leading and trailing silent blocks : No
Null samples used in CRC calculations : Yes
Used interface : Native Win32 interface for Win NT & 2000
Gap handling : Appended to previous track

Used output format : User Defined Encoder
Selected bitrate : 768 kBit/s
Quality : High
Add ID3 tag : No
Command line compressor : C:\Program Files\Exact Audio Copy\FLAC\FLAC.EXE
Additional command line options : -8 -V -T "ARTIST=%a" -T "TITLE=%t" -T "ALBUM=%g" -T "DATE=%y" -T "TRACKNUMBER=%n" -T "GENRE=%m" -T "COMMENT=EAC FLAC -8" %s


TOC of the extracted CD

Track | Start | Length | Start sector | End sector
––––––––––––––––––––––––––––-
1 | 0:00.00 | 12:55.08 | 0 | 58132
2 | 12:55.08 | 12:30.14 | 58133 | 114396
3 | 25:25.22 | 6:06.68 | 114397 | 141914
4 | 31:32.15 | 5:29.60 | 141915 | 166649
5 | 37:02.00 | 14:18.48 | 166650 | 231047


Track 1

Filename G:\- new music\finland\lindberg, magnus (1958) {helsinki}\aura - engine (2000)\01. Magnus Lindberg – Aura- I..wav

Pre-gap length 0:00:02.00

Peak level 97.7 %
Extraction speed 1.3 X
Track quality 100.0 %
Test CRC 11B9CD60
Copy CRC 11B9CD60
Accurately ripped (confidence 7) [DF37160E]
Copy OK

Track 2

Filename G:\- new music\finland\lindberg, magnus (1958) {helsinki}\aura - engine (2000)\02. Magnus Lindberg – Aura- II..wav

Peak level 81.7 %
Extraction speed 1.7 X
Track quality 100.0 %
Test CRC 9943EB6D
Copy CRC 9943EB6D
Accurately ripped (confidence 7) [F6EDA992]
Copy OK

Track 3

Filename G:\- new music\finland\lindberg, magnus (1958) {helsinki}\aura - engine (2000)\03. Magnus Lindberg – Aura- III..wav

Peak level 97.7 %
Extraction speed 1.7 X
Track quality 99.9 %
Test CRC FCE4451A
Copy CRC FCE4451A
Accurately ripped (confidence 7) [AAF56CB2]
Copy OK

Track 4

Filename G:\- new music\finland\lindberg, magnus (1958) {helsinki}\aura - engine (2000)\04. Magnus Lindberg – Aura- IV..wav

Pre-gap length 0:00:00.01

Peak level 97.7 %
Extraction speed 1.9 X
Track quality 100.0 %
Test CRC 8A1806F8
Copy CRC 8A1806F8
Accurately ripped (confidence 7) [ED170BE6]
Copy OK

Track 5

Filename G:\- new music\finland\lindberg, magnus (1958) {helsinki}\aura - engine (2000)\05. Magnus Lindberg – Engine.wav

Pre-gap length 0:00:13.20

Peak level 92.8 %
Extraction speed 2.2 X
Track quality 100.0 %
Test CRC 33C8A085
Copy CRC 33C8A085
Accurately ripped (confidence 6) [9670C443]
Copy OK


All tracks accurately ripped

No errors occurred

End of status report

[CUETools log; Date: 29.08.2017 17:05:21; Version: 2.1.4]
[CTDB TOCID: _fSbahRJ1utGp0Wrl.1hXdAlv3U-] found.
Track | CTDB Status
1 | (13/13) Accurately ripped
2 | (13/13) Accurately ripped
3 | (13/13) Accurately ripped
4 | (13/13) Accurately ripped
5 | (13/13) Accurately ripped
[AccurateRip ID: 000addcf-00318a40-460c0805] found.
Track [ CRC | V2 ] Status
01 [df37160e|a6cef832] (08+11/19) Accurately ripped
02 [f6eda992|58ee627e] (08+11/19) Accurately ripped
03 [aaf56cb2|9e51d9e8] (08+11/19) Accurately ripped
04 [ed170be6|6c0592c4] (08+11/19) Accurately ripped
05 [9670c443|713a2647] (07+11/18) Accurately ripped

Track Peak [ CRC32 ] [W/O NULL] [ LOG ]
– 97,7 [AD0FB1BB] [6EFC1F02]
01 97,7 [11B9CD60] [3C2F7F10] CRC32
02 81,7 [9943EB6D] [015EC9C9] CRC32
03 97,7 [FCE4451A] [D841C04B] CRC32
04 97,7 [8A1806F8] [12623942] CRC32
05 92,8 [33C8A085] [0181BD72] CRC32

foobar2000 1.2 / Dynamic Range Meter 1.1.1
log date: 2017-08-29 17:03:52

––––––––––––––––––––––––––––––––––––––––
Analyzed: BBC Symphony Orchestra, Oliver Knussen / Aura - Engine (1-4)
London Sinfonietta, Oliver Knussen / Aura - Engine (5)
––––––––––––––––––––––––––––––––––––––––

DR Peak RMS Duration Track
––––––––––––––––––––––––––––––––––––––––
DR18 -0.20 dB -23.44 dB 12:55 01-Aura (1993-94): I
DR14 -1.75 dB -21.44 dB 12:30 02-Aura (1993-94): II
DR15 -0.20 dB -21.21 dB 6:07 03-Aura (1993-94): III
DR13 -0.20 dB -18.40 dB 5:30 04-Aura (1993-94): IV
DR16 -0.65 dB -21.28 dB 14:19 05-Engine (1996)
––––––––––––––––––––––––––––––––––––––––

Number of tracks: 5
Official DR value: DR15

Samplerate: 44100 Hz
Channels: 2
Bits per sample: 16
Bitrate: 683 kbps
Codec: FLAC
================================================================================

BBC SO, London Sinfonietta, Oliver Knussen - Magnus Lindberg: Aura; Engine (2000)

BBC SO, London Sinfonietta, Oliver Knussen - Magnus Lindberg: Aura; Engine (2000)

All thanks to original releaser - depicting_the_sky

More interesting music in My Blog