Tags
Language
Tags

Lloyd Cole - Love Story (1995)

Posted By: popsakov
Lloyd Cole - Love Story (1995)

Lloyd Cole - Love Story (1995)
EAC Rip | FLAC (Tracks) + Cue + m3u + Log ~ 299 Mb | MP3 CBR320 ~ 108 Mb
Scans Included | 00:44:08 | RAR 5% Recovery
Alternative/Indie Rock, Soft Rock, Acoustic | Fontana #528 529-2

It stands to reason that a Lloyd Cole album called Love Story would not have a happy beginning or middle, much less ending. Actually, though, it does start out happy, "Trigger Happy," that is, and later on, Cole is "Happy for You," in which he sings, "If you love him, you should leave me." In between, things get no sunnier, as Cole and his characters drink and despair, but carry on. That determination is very much part of Cole's negative world-view: "Everybody knows this is nowhere," he says, to coin a phrase, "but you've gotta be there." (Except, one supposes, for Lucy, who jumps from the 39th floor in the rollicking "Let's Get Lost.") Typically, Cole couches these sentiments in melodic folk-rock, such that, with the volume low and just following the attractive lilt of his voice, a listener might find this a far more soothing piece of music than it turns out to be on closer examination.

~ William Ruhlmann, All Music

***************

Lloyd Cole - Love Story (1995)

Lloyd Cole - Love Story (1995)

Track List:

01. Trigger Happy [3:01]
02. Sentimental Fool [3:25]
03. I Didn't Know That You Cared [4:12]
04. Love Ruins Everything [3:20]
05. Baby [3:58]
06. Be There [4:48]
07. Unhappy Song [3:41]
08. Like Lovers Do [4:00]
09. Happy For You [3:50]
10. Traffic [2:50]
11. Let's Get Lost [2:03]
12. For Crying Out Loud [5:00]

Exact Audio Copy V1.0 beta 3 from 29. August 2011

EAC extraction logfile from 31. December 2011, 16:58

Lloyd Cole / Love Story

Used drive : HL-DT-STDVDRAM GH22NS50 Adapter: 1 ID: 0

Read mode : Secure
Utilize accurate stream : Yes
Defeat audio cache : Yes
Make use of C2 pointers : No

Read offset correction : 667
Overread into Lead-In and Lead-Out : No
Fill up missing offset samples with silence : Yes
Delete leading and trailing silent blocks : No
Null samples used in CRC calculations : Yes
Used interface : Native Win32 interface for Win NT & 2000
Gap handling : Appended to previous track

Used output format : User Defined Encoder
Selected bitrate : 1024 kBit/s
Quality : High
Add ID3 tag : No
Command line compressor : C:\Program Files (x86)\Exact Audio Copy\Flac\flac.exe
Additional command line options : -8 -V -T "ARTIST=%artist%" -T "TITLE=%title%" -T "ALBUM=%albumtitle%" -T "DATE=%year%" -T "TRACKNUMBER=%tracknr%" -T "GENRE=%genre%" -T "PERFORMER=%albuminterpret%" -T "COMPOSER=%composer%" %haslyrics%–tag-from-file=LYRICS="%lyricsfile%"%haslyrics% -T "ALBUMARTIST=%albumartist%" -T "DISCNUMBER=%cdnumber%" -T "TOTALDISCS=%totalcds%" -T "TOTALTRACKS=%numtracks%" -T "COMMENT=%comment%" %source% -o %dest%


TOC of the extracted CD

Track | Start | Length | Start sector | End sector
––––––––––––––––––––––––––––-
1 | 0:00.00 | 3:01.20 | 0 | 13594
2 | 3:01.20 | 3:24.67 | 13595 | 28961
3 | 6:26.12 | 4:11.73 | 28962 | 47859
4 | 10:38.10 | 3:20.20 | 47860 | 62879
5 | 13:58.30 | 3:57.40 | 62880 | 80694
6 | 17:55.70 | 4:48.15 | 80695 | 102309
7 | 22:44.10 | 3:41.10 | 102310 | 118894
8 | 26:25.20 | 3:59.45 | 118895 | 136864
9 | 30:24.65 | 3:50.30 | 136865 | 154144
10 | 34:15.20 | 2:50.27 | 154145 | 166921
11 | 37:05.47 | 2:02.40 | 166922 | 176111
12 | 39:08.12 | 4:59.70 | 176112 | 198606


Track 1

Filename C:\EAC rips\Lloyd Cole - Love Story (FLAC)\01 Trigger Happy.wav

Pre-gap length 0:00:02.00

Peak level 97.0 %
Extraction speed 0.8 X
Track quality 99.9 %
Test CRC EF001CF8
Copy CRC EF001CF8
Accurately ripped (confidence 9) [70A2B44A] (AR v2)
Copy OK

Track 2

Filename C:\EAC rips\Lloyd Cole - Love Story (FLAC)\02 Sentimental Fool.wav

Pre-gap length 0:00:01.60

Peak level 97.0 %
Extraction speed 1.1 X
Track quality 100.0 %
Test CRC CC3FFFD1
Copy CRC CC3FFFD1
Accurately ripped (confidence 9) [B92BD356] (AR v2)
Copy OK

Track 3

Filename C:\EAC rips\Lloyd Cole - Love Story (FLAC)\03 I Didn't Know That You Cared.wav

Pre-gap length 0:00:00.76

Peak level 97.0 %
Extraction speed 1.0 X
Track quality 99.9 %
Test CRC 87776AD6
Copy CRC 87776AD6
Accurately ripped (confidence 9) [D96B57DF] (AR v2)
Copy OK

Track 4

Filename C:\EAC rips\Lloyd Cole - Love Story (FLAC)\04 Love Ruins Everything.wav

Peak level 95.0 %
Extraction speed 1.2 X
Track quality 100.0 %
Test CRC 1819DB4A
Copy CRC 1819DB4A
Accurately ripped (confidence 9) [B2617F96] (AR v2)
Copy OK

Track 5

Filename C:\EAC rips\Lloyd Cole - Love Story (FLAC)\05 Baby.wav

Pre-gap length 0:00:01.30

Peak level 97.0 %
Extraction speed 1.4 X
Track quality 100.0 %
Test CRC 2887D89D
Copy CRC 2887D89D
Accurately ripped (confidence 9) [DC9E7A7E] (AR v2)
Copy OK

Track 6

Filename C:\EAC rips\Lloyd Cole - Love Story (FLAC)\06 Be There.wav

Pre-gap length 0:00:01.24

Peak level 97.0 %
Extraction speed 1.5 X
Track quality 100.0 %
Test CRC F5EAF8E3
Copy CRC F5EAF8E3
Accurately ripped (confidence 9) [0F286C4A] (AR v2)
Copy OK

Track 7

Filename C:\EAC rips\Lloyd Cole - Love Story (FLAC)\07 Unhappy Song.wav

Pre-gap length 0:00:02.60

Peak level 97.0 %
Extraction speed 1.5 X
Track quality 100.0 %
Test CRC ED9A664D
Copy CRC ED9A664D
Accurately ripped (confidence 9) [5E939CEB] (AR v2)
Copy OK

Track 8

Filename C:\EAC rips\Lloyd Cole - Love Story (FLAC)\08 Like Lovers Do.wav

Pre-gap length 0:00:01.86

Peak level 94.5 %
Extraction speed 1.6 X
Track quality 100.0 %
Test CRC 8F6298BF
Copy CRC 8F6298BF
Accurately ripped (confidence 9) [BCB88B1D] (AR v2)
Copy OK

Track 9

Filename C:\EAC rips\Lloyd Cole - Love Story (FLAC)\09 Happy For You.wav

Pre-gap length 0:00:01.04

Peak level 95.1 %
Extraction speed 1.5 X
Track quality 99.9 %
Test CRC 3A1AEA61
Copy CRC 3A1AEA61
Accurately ripped (confidence 9) [39C0BEB0] (AR v2)
Copy OK

Track 10

Filename C:\EAC rips\Lloyd Cole - Love Story (FLAC)\10 Traffic.wav

Peak level 95.1 %
Extraction speed 1.7 X
Track quality 100.0 %
Test CRC DCF1646D
Copy CRC DCF1646D
Accurately ripped (confidence 9) [1C630682] (AR v2)
Copy OK

Track 11

Filename C:\EAC rips\Lloyd Cole - Love Story (FLAC)\11 Let's Get Lost.wav

Peak level 92.8 %
Extraction speed 1.6 X
Track quality 100.0 %
Test CRC 747B5CA2
Copy CRC 747B5CA2
Accurately ripped (confidence 9) [02C70433] (AR v2)
Copy OK

Track 12

Filename C:\EAC rips\Lloyd Cole - Love Story (FLAC)\12 For Crying Out Loud.wav

Peak level 92.1 %
Extraction speed 1.9 X
Track quality 100.0 %
Test CRC 1C7734ED
Copy CRC 1C7734ED
Accurately ripped (confidence 8) [08B0BAC0] (AR v2)
Copy OK


All tracks accurately ripped

No errors occurred

End of status report

–– CUETools DB Plugin V2.1.3

[CTDB TOCID: AwDo6Gm0jGoAe6_DilgXg1WJi.k-] found, Submit result: AwDo6Gm0jGoAe6_DilgXg1WJi.k- has been confirmed
[46137bf0] (24/24) Accurately ripped


==== Log checksum 61B93ECC2E757B9BEAE43935C00D0BCAD3AFD8AB5D6F2C02F091292A91193AF8 ====

[CUETools log; Date: 17.07.2017 11:18:21; Version: 2.1.5]
[CTDB TOCID: AwDo6Gm0jGoAe6_DilgXg1WJi.k-] found.
Track | CTDB Status
1 | (46/46) Accurately ripped
2 | (46/46) Accurately ripped
3 | (46/46) Accurately ripped
4 | (46/46) Accurately ripped
5 | (46/46) Accurately ripped
6 | (44/46) Accurately ripped, or (2/46) differs in 23518 samples @00:29:17-00:29:37
7 | (46/46) Accurately ripped
8 | (46/46) Accurately ripped
9 | (46/46) Accurately ripped
10 | (46/46) Accurately ripped
11 | (46/46) Accurately ripped
12 | (46/46) Accurately ripped
[AccurateRip ID: 0013a6a8-00b843fd-a10a580c] found.
Track [ CRC | V2 ] Status
01 [1c4acab3|70a2b44a] (26+36/65) Accurately ripped
02 [efb55ddc|b92bd356] (26+35/64) Accurately ripped
03 [9fc46958|d96b57df] (26+35/64) Accurately ripped
04 [69608187|b2617f96] (27+36/66) Accurately ripped
05 [59701d45|dc9e7a7e] (27+36/66) Accurately ripped
06 [e7eaebe0|0f286c4a] (26+36/65) Accurately ripped
07 [173d851e|5e939ceb] (27+36/66) Accurately ripped
08 [56bbf458|bcb88b1d] (27+35/65) Accurately ripped
09 [da84f1db|39c0beb0] (26+36/65) Accurately ripped
10 [2b0452bd|1c630682] (26+35/64) Accurately ripped
11 [0491aebb|02c70433] (26+36/65) Accurately ripped
12 [1f57d6b0|08b0bac0] (26+35/64) Accurately ripped
Offsetted by -523:
01 [3011af49] (00/65) No match (V2 was not tested)
02 [5a1633da] (00/64) No match (V2 was not tested)
03 [25ac8099] (00/64) No match (V2 was not tested)
04 [78f15ffb] (00/66) No match (V2 was not tested)
05 [973d2c25] (00/66) No match (V2 was not tested)
06 [b6388986] (00/65) No match (V2 was not tested)
07 [c0e75c7f] (00/66) No match (V2 was not tested)
08 [1524aa5d] (00/65) No match (V2 was not tested)
09 [be836e8d] (00/65) No match (V2 was not tested)
10 [c64553a0] (00/64) No match (V2 was not tested)
11 [4edbbac2] (00/65) No match (V2 was not tested)
12 [5ac20b40] (00/64) No match (V2 was not tested)

Track Peak [ CRC32 ] [W/O NULL] [ LOG ]
– 97,0 [2B0FBCE2] [1869462B]
01 97,0 [EF001CF8] [B41D0C75] CRC32
02 97,0 [CC3FFFD1] [93B11508] CRC32
03 97,0 [87776AD6] [51E473B4] CRC32
04 95,0 [1819DB4A] [8568C434] CRC32
05 97,0 [2887D89D] [C2A4A132] CRC32
06 97,0 [F5EAF8E3] [97796497] CRC32
07 97,0 [ED9A664D] [8CF06CB6] CRC32
08 94,5 [8F6298BF] [DE7460D9] CRC32
09 95,1 [3A1AEA61] [3719877D] CRC32
10 95,1 [DCF1646D] [5C1F92C8] CRC32
11 92,8 [747B5CA2] [A1DEACEE] CRC32
12 92,1 [1C7734ED] [627B12F3] CRC32

Lloyd Cole - Love Story (1995)


All thanks go to the original ripper(s) …

>>> Lloyd Cole in my Blog <<<

DOWNLOAD: