Tags
Language
Tags

Loretta Lynn - All Time Greatest Hits (2002)

Posted By: Designol
Loretta Lynn - All Time Greatest Hits (2002)

Loretta Lynn - All Time Greatest Hits (2002)
EAC | FLAC | Image (Cue&Log) ~ 365 Mb | Mp3 (CBR320) ~ 159 Mb | Scans included
Label: MCA Nashville | # 088 170 281-2 | Time: 00:58:06
Country, Honky Tonk, Nashville Sound, Country-Pop

All Time Greatest Hits is a 2002 greatest hits album by country music legend Loretta Lynn. In 2003, the album was ranked number 485 on Rolling Stone magazine's list of the 500 greatest albums of all time.

This straightforward hits collection contains all 16 of Loretta Lynn's number one country hits according to Billboard, five of them duets with Conway Twitty, plus three number two hits and three number three hits, all released originally between 1964 and 1979. The singer also scored one other number two hit, the Twitty duet "I Still Believe in Waltzes" from 1981, and several other number three hits, as well as numerous other major songs that are not included. Some of them could have fit on a CD that runs less than 57 and a half minutes, but from a record company point of view the issue is less the time than the number of tracks, since song publishers must be paid royalties on each title. That makes 22 tracks (none of which run longer than three minutes and 15 seconds) a packed disc from a profit perspective, even if consumers wonder why the album isn't more complete. As it is, there are enough of Lynn's big records to justify the title and make this a good purchase for anyone seeking a single-disc hits collection.

Review by William Ruhlmann, Allmusic.com

Loretta Lynn - All Time Greatest Hits (2002)



Tracklist:

01. Wine Women And Song (2:05)
02. Happy Birthday (2:06)
03. You Ain't Woman Enough (To Take My Man) (2:16)
04. Don't Come Home A drinkin' (With Lovin' On Your Mind) (2:11)
05. Fist City (2:15)
06. You've Just Stepped In (From Stepping Out On Me) (2:21)
07. Woman Of The World (Leave My World Alone) (2:58)
08. Coal Miner's Daughter (3:02)
09. After The Fire Is Gone (2:42)
10. Lead Me On (2:28)
11. One's On The Way (2:41)
12. Rated 'X' (2:41)
13. Love Is The Foundation (2:34)
14. Louisiana Woman, Mississippi Man (2:34)
15. As Soon As I Hang Up The Phone (2:44)
16. Trouble In Paradise (2:12)
17. When The Tingle Becomes A Chill (3:04)
18. Feelins' (3:03)
19. Out Of My Head And Back In My Bed (2:44)
20. Somebody Somewhere (Don't Know What He's Missin' Tonight) (3:02)
21. She's Got You (3:08)
22. I Can't Feel You Anymore (3:16)


Exact Audio Copy V1.3 from 2. September 2016

EAC extraction logfile from 3. April 2018, 13:04

Loretta Lynn / All Time Greatest Hits

Used drive : ATAPI iHAS124 F Adapter: 1 ID: 1

Read mode : Secure
Utilize accurate stream : Yes
Defeat audio cache : Yes
Make use of C2 pointers : No

Read offset correction : 6
Overread into Lead-In and Lead-Out : No
Fill up missing offset samples with silence : Yes
Delete leading and trailing silent blocks : No
Null samples used in CRC calculations : Yes
Used interface : Native Win32 interface for Win NT & 2000

Used output format : User Defined Encoder
Selected bitrate : 1024 kBit/s
Quality : High
Add ID3 tag : No
Command line compressor : C:\Program Files (x86)\Exact Audio Copy\Flac\flac.exe
Additional command line options : -V -6 %source% -o %dest%


TOC of the extracted CD

Track | Start | Length | Start sector | End sector
––––––––––––––––––––––––––––-
1 | 0:00.00 | 2:04.66 | 0 | 9365
2 | 2:04.66 | 2:06.35 | 9366 | 18850
3 | 4:11.26 | 2:15.42 | 18851 | 29017
4 | 6:26.68 | 2:10.68 | 29018 | 38835
5 | 8:37.61 | 2:14.60 | 38836 | 48945
6 | 10:52.46 | 2:20.57 | 48946 | 59502
7 | 13:13.28 | 2:57.65 | 59503 | 72842
8 | 16:11.18 | 3:01.48 | 72843 | 86465
9 | 19:12.66 | 2:41.55 | 86466 | 98595
10 | 21:54.46 | 2:28.18 | 98596 | 109713
11 | 24:22.64 | 2:40.62 | 109714 | 121775
12 | 27:03.51 | 2:41.15 | 121776 | 133865
13 | 29:44.66 | 2:33.43 | 133866 | 145383
14 | 32:18.34 | 2:34.30 | 145384 | 156963
15 | 34:52.64 | 2:44.15 | 156964 | 169278
16 | 37:37.04 | 2:12.17 | 169279 | 179195
17 | 39:49.21 | 3:04.23 | 179196 | 193018
18 | 42:53.44 | 3:02.48 | 193019 | 206716
19 | 45:56.17 | 2:44.22 | 206717 | 219038
20 | 48:40.39 | 3:02.00 | 219039 | 232688
21 | 51:42.39 | 3:08.22 | 232689 | 246810
22 | 54:50.61 | 3:15.48 | 246811 | 261483


Range status and errors

Selected range

Filename D:\WORKING\Loretta Lynn - All Time Greatest Hits.wav

Peak level 100.0 %
Extraction speed 6.3 X
Range quality 100.0 %
Test CRC A2A56935
Copy CRC A2A56935
Copy OK

No errors occurred


AccurateRip summary

Track 1 accurately ripped (confidence 1) [464044AD] (AR v2)
Track 2 accurately ripped (confidence 1) [C1A1764B] (AR v2)
Track 3 accurately ripped (confidence 1) [134ADE1E] (AR v2)
Track 4 accurately ripped (confidence 1) [625EF459] (AR v2)
Track 5 accurately ripped (confidence 1) [E02097CD] (AR v2)
Track 6 accurately ripped (confidence 1) [3CD96C3E] (AR v2)
Track 7 accurately ripped (confidence 1) [907D089E] (AR v2)
Track 8 accurately ripped (confidence 1) [A8D14DCC] (AR v2)
Track 9 accurately ripped (confidence 1) [6F16FE45] (AR v2)
Track 10 accurately ripped (confidence 1) [01A4B06F] (AR v2)
Track 11 accurately ripped (confidence 1) [9D977BD1] (AR v2)
Track 12 accurately ripped (confidence 1) [50487FA0] (AR v2)
Track 13 accurately ripped (confidence 1) [9B37AD57] (AR v2)
Track 14 accurately ripped (confidence 1) [203956AB] (AR v2)
Track 15 accurately ripped (confidence 1) [5CB067FC] (AR v2)
Track 16 accurately ripped (confidence 1) [29D33963] (AR v2)
Track 17 accurately ripped (confidence 1) [70A8EFA4] (AR v2)
Track 18 accurately ripped (confidence 1) [10071511] (AR v2)
Track 19 accurately ripped (confidence 1) [A0F84EB5] (AR v2)
Track 20 accurately ripped (confidence 1) [FFFD040E] (AR v2)
Track 21 accurately ripped (confidence 1) [2A1AC6FB] (AR v2)
Track 22 accurately ripped (confidence 1) [18E1ED8B] (AR v2)

All tracks accurately ripped

End of status report

–– CUETools DB Plugin V2.1.6

[CTDB TOCID: n4mD5gBfXk5aIddVoz1EtkpN1io-] disk not present in database
Submit result: n4mD5gBfXk5aIddVoz1EtkpN1io- has been uploaded


==== Log checksum F4B7A2C643EEEF85C5FA5772EBED605687C941136E432F27491AFCF2254C3AA9 ====

foobar2000 1.2 / Dynamic Range Meter 1.1.1
log date: 2018-04-03 19:09:08

––––––––––––––––––––––––––––––––––––––––
Analyzed: Loretta Lynn / All Time Greatest Hits
––––––––––––––––––––––––––––––––––––––––

DR Peak RMS Duration Track
––––––––––––––––––––––––––––––––––––––––
DR12 0.00 dB -13.96 dB 2:05 01-Wine Women And Song
DR13 0.00 dB -14.42 dB 2:06 02-Happy Birthday
DR13 0.00 dB -15.09 dB 2:16 03-You Ain't Woman Enough (To Take My Man)
DR12 0.00 dB -14.20 dB 2:11 04-Don't Come Home A drinkin' (With Lovin' On Your Mind)
DR12 0.00 dB -14.42 dB 2:15 05-Fist City
DR13 -0.03 dB -14.64 dB 2:21 06-You've Just Stepped In (From Stepping Out On Me)
DR11 0.00 dB -13.60 dB 2:58 07-Woman Of The World (Leave My World Alone)
DR11 0.00 dB -13.12 dB 3:02 08-Coal Miner's Daughter
DR12 0.00 dB -13.30 dB 2:42 09-After The Fire Is Gone
DR11 0.00 dB -13.27 dB 2:28 10-Lead Me On
DR12 0.00 dB -14.68 dB 2:41 11-One's On The Way
DR13 0.00 dB -14.40 dB 2:41 12-Rated 'X'
DR12 0.00 dB -15.32 dB 2:34 13-Love Is The Foundation
DR12 -0.22 dB -15.34 dB 2:34 14-Louisiana Woman, Mississippi Man
DR11 0.00 dB -14.05 dB 2:44 15-As Soon As I Hang Up The Phone
DR11 0.00 dB -13.49 dB 2:12 16-Trouble In Paradise
DR13 0.00 dB -16.16 dB 3:04 17-When The Tingle Becomes A Chill
DR12 0.00 dB -14.85 dB 3:03 18-Feelins'
DR13 0.00 dB -15.07 dB 2:44 19-Out Of My Head And Back In My Bed
DR11 0.00 dB -13.93 dB 3:02 20-Somebody Somewhere (Don't Know What He's Missin' Tonight)
DR12 0.00 dB -14.99 dB 3:08 21-She's Got You
DR12 0.00 dB -15.03 dB 3:16 22-I Can't Feel You Anymore
––––––––––––––––––––––––––––––––––––––––

Number of tracks: 22
Official DR value: DR12

Samplerate: 44100 Hz
Channels: 2
Bits per sample: 16
Bitrate: 815 kbps
Codec: FLAC
================================================================================

Loretta Lynn - All Time Greatest Hits (2002)

Loretta Lynn - All Time Greatest Hits (2002)

All thanks to original releaser - doolykim

More interesting music in My Blog