Tags
Language
Tags

Lou Reed - Between Thought And Expression: The Lou Reed Anthology (1992) [3CD Box Set]

Posted By:
Lou Reed - Between Thought And Expression: The Lou Reed Anthology (1992) [3CD Box Set]

Lou Reed - Between Thought And Expression: The Lou Reed Anthology (1992)
EAC | Flac(Image) + Cue + Log & MP3 CBR 320Kbps
3CD | RCA/BMG, PD90621(3) | ~ 1273 or 519 Mb | Artwork(jpg) -> 5.21 Mb
Classic Rock, Glam, Hard Rock, Noise

In October 1990, Lou Reed interviewed Vaclav Havel, playwright, poet, president of the newly emancipated Czechoslovakia, and – surprisingly? – a Velvet Underground fan. During the course of their conversation, Havel handed Reed a book. "These are your lyrics, hand-printed and translated into Czechoslovakian. There were only 200 of them. They were very dangerous to have. People went to jail." Nobody will go to jail for owning Between Thought and Expression, but Reed's lyrics remain dangerous – not, as in Communist Czechoslovakia, for what they are, but for what they say. Deactivating society's most fail-safe mechanisms, he tells secrets, lifts shrouds, and, at his best, depicts a reality so harsh, so harrowing, that it becomes almost fantastical. Nobody could live like that. Nobody could love like that. And, surely, nobody could think like that. Between Thought and Expression, three discs and four hours culling Reed's own personal favorites from a then-25-year career, presents that reality without distraction. From the Velvets through to the end of the '80s, with diversions through most of the intriguing alleyways that Reed glanced down during that latter decade, the box is strongest where Reed is at his most powerful – the inevitable sequence that ran between 1972-1974 most of all. But reevaluate Reed's '80s output and you will be pleasantly surprised, while even the nadir of Rock and Roll Heart proves salvageable. For the collectors, a handful of unreleased cuts include early versions of "Downtown Dirt" and "Leave Me Alone," plus "Here Comes the Bride" emerges a Take No Prisoners outtake that is just as much fun as the rest of that album. "America (Star Spangled Banner)" sounds uncannily like one of those '60s pop classics that punk bands used to speed up, and there's also a new live version of "Heroin," to do with what you will. Indeed, if you ignore the absence of a handful of personal favorites (and overlook the fact that anyone who doesn't already own most of them probably thinks Lou Reed is an instrument that you play in the bathroom), you've got every key track in Reed's pre-New York repertoire, with even the oft-dismissed Metal Machine Music making a 92-second cameo appearance to keep the pedants at bay. Taking Reed's career stage by stage, there are better collections than this out there – the Legendary box that splits between his two stints on RCA for one. But as a solid overview backed by an informative, Reed-approved booklet, Between Thought and Expression readily lives up to its maker's reputation. And that of his lyrics.

by Dave Thompson, allmusic
Lou Reed - Between Thought And Expression: The Lou Reed Anthology (1992):

Lou Reed - Between Thought And Expression: The Lou Reed Anthology (1992) [3CD Box Set]

Tracklist CD1:

01. I Can't Stand It (2:36)
02. Lisa Says (5:33)
03. Ocean (5:06)
04. Walk On The Wild Side (4:13)
05. Satellite Of Love (3:39)
06. Vicious (2:56)
07. Caroline Says I (3:57)
08. How Do You Think It Feels (3:43)
09. Oh Jim (5:11)
10. Caroline Says II (4:13)
11. The Kids (7:52)
12. Sad Song (7:09)
13. Sweet Jane (7:57)
14. Kill Your Sons (3:38)
15. Coney Island Baby (6:37)

Exact Audio Copy V1.0 beta 1 from 15. November 2010

EAC extraction logfile from 13. March 2011, 13:14

Lou Reed / Between Thought and Expression: The Lou Reed Anthology - Disc 1 of 3

Used drive : Optiarc DVD RW AD-7561S Adapter: 1 ID: 0

Read mode : Secure
Utilize accurate stream : Yes
Defeat audio cache : Yes
Make use of C2 pointers : No

Read offset correction : 6
Overread into Lead-In and Lead-Out : No
Fill up missing offset samples with silence : Yes
Delete leading and trailing silent blocks : No
Null samples used in CRC calculations : Yes
Used interface : Native Win32 interface for Win NT & 2000
Gap handling : Appended to previous track

Used output format : User Defined Encoder
Selected bitrate : 128 kBit/s
Quality : High
Add ID3 tag : No
Command line compressor : C:\Program Files (x86)\Exact Audio Copy\Flac\flac.exe
Additional command line options : -V -8 -T "artist=%a" -T "title=%t" -T "album=%g" -T "date=%y" -T "tracknumber=%n" -T "genre=%m" %s


TOC of the extracted CD

Track | Start | Length | Start sector | End sector
––––––––––––––––––––––––––––-
1 | 0:00.00 | 2:35.67 | 0 | 11691
2 | 2:35.67 | 5:33.25 | 11692 | 36691
3 | 8:09.17 | 5:06.15 | 36692 | 59656
4 | 13:15.32 | 4:13.28 | 59657 | 78659
5 | 17:28.60 | 3:39.10 | 78660 | 95094
6 | 21:07.70 | 2:56.20 | 95095 | 108314
7 | 24:04.15 | 3:56.62 | 108315 | 126076
8 | 28:01.02 | 3:42.70 | 126077 | 142796
9 | 31:43.72 | 5:11.30 | 142797 | 166151
10 | 36:55.27 | 4:12.60 | 166152 | 185111
11 | 41:08.12 | 7:51.45 | 185112 | 220481
12 | 48:59.57 | 7:08.70 | 220482 | 252651
13 | 56:08.52 | 7:57.08 | 252652 | 288434
14 | 64:05.60 | 3:37.55 | 288435 | 304764
15 | 67:43.40 | 6:37.37 | 304765 | 334576


Track 1

Filename C:\EAC Rips\Lou Reed - 1992 - Between Thought and Expression- The Lou Reed Anthology - Disc 1 of 3\01 - I Can't Stand It (from ''Lou Reed'' - 1972).wav

Pre-gap length 0:00:02.00

Peak level 98.0 %
Extraction speed 2.5 X
Track quality 100.0 %
Test CRC EA1D91B8
Copy CRC EA1D91B8
Accurately ripped (confidence 15) [D65744B9]
Copy OK

Track 2

Filename C:\EAC Rips\Lou Reed - 1992 - Between Thought and Expression- The Lou Reed Anthology - Disc 1 of 3\02 - Lisa Says (from ''Lou Reed'' - 1972).wav

Peak level 90.2 %
Extraction speed 3.4 X
Track quality 100.0 %
Test CRC 1BFE99CD
Copy CRC 1BFE99CD
Accurately ripped (confidence 18) [B34B0C67]
Copy OK

Track 3

Filename C:\EAC Rips\Lou Reed - 1992 - Between Thought and Expression- The Lou Reed Anthology - Disc 1 of 3\03 - Ocean (from ''Lou Reed'' - 1972).wav

Peak level 82.9 %
Extraction speed 3.7 X
Track quality 100.0 %
Test CRC F2294787
Copy CRC F2294787
Accurately ripped (confidence 17) [FE44B63D]
Copy OK

Track 4

Filename C:\EAC Rips\Lou Reed - 1992 - Between Thought and Expression- The Lou Reed Anthology - Disc 1 of 3\04 - Walk On The Wild Side (from ''Transformer'' - 1972).wav

Peak level 100.0 %
Extraction speed 3.3 X
Track quality 99.9 %
Test CRC 31700D15
Copy CRC 31700D15
Accurately ripped (confidence 17) [8553B230]
Copy OK

Track 5

Filename C:\EAC Rips\Lou Reed - 1992 - Between Thought and Expression- The Lou Reed Anthology - Disc 1 of 3\05 - Satellite Of Love (from ''Transformer'' - 1972).wav

Peak level 88.8 %
Extraction speed 3.3 X
Track quality 99.9 %
Test CRC BD4659CB
Copy CRC BD4659CB
Accurately ripped (confidence 17) [FE11B43A]
Copy OK

Track 6

Filename C:\EAC Rips\Lou Reed - 1992 - Between Thought and Expression- The Lou Reed Anthology - Disc 1 of 3\06 - Vicious (from ''Transformer'' - 1972).wav

Peak level 98.1 %
Extraction speed 4.1 X
Track quality 100.0 %
Test CRC ACE5C24C
Copy CRC ACE5C24C
Accurately ripped (confidence 17) [8BAE9DDC]
Copy OK

Track 7

Filename C:\EAC Rips\Lou Reed - 1992 - Between Thought and Expression- The Lou Reed Anthology - Disc 1 of 3\07 - Caroline Says I (from ''Berlin'' - 1973).wav

Peak level 77.2 %
Extraction speed 4.5 X
Track quality 100.0 %
Test CRC B20F7F37
Copy CRC B20F7F37
Accurately ripped (confidence 17) [DF1072D4]
Copy OK

Track 8

Filename C:\EAC Rips\Lou Reed - 1992 - Between Thought and Expression- The Lou Reed Anthology - Disc 1 of 3\08 - How Do You Think It Feels (from ''Berlin'' - 1973).wav

Peak level 75.5 %
Extraction speed 4.6 X
Track quality 100.0 %
Test CRC 5980919C
Copy CRC 5980919C
Accurately ripped (confidence 17) [7A657D46]
Copy OK

Track 9

Filename C:\EAC Rips\Lou Reed - 1992 - Between Thought and Expression- The Lou Reed Anthology - Disc 1 of 3\09 - Oh Jim (from ''Berlin'' - 1973).wav

Peak level 78.5 %
Extraction speed 5.0 X
Track quality 100.0 %
Test CRC 002B39C1
Copy CRC 002B39C1
Accurately ripped (confidence 17) [96C1E335]
Copy OK

Track 10

Filename C:\EAC Rips\Lou Reed - 1992 - Between Thought and Expression- The Lou Reed Anthology - Disc 1 of 3\10 - Caroline Says II (from ''Berlin'' - 1973).wav

Peak level 95.4 %
Extraction speed 5.1 X
Track quality 100.0 %
Test CRC E3DACE33
Copy CRC E3DACE33
Accurately ripped (confidence 17) [D06CB64F]
Copy OK

Track 11

Filename C:\EAC Rips\Lou Reed - 1992 - Between Thought and Expression- The Lou Reed Anthology - Disc 1 of 3\11 - The Kids (from ''Berlin'' - 1973).wav

Peak level 78.8 %
Extraction speed 5.7 X
Track quality 100.0 %
Test CRC D66611A2
Copy CRC D66611A2
Accurately ripped (confidence 17) [BDF86586]
Copy OK

Track 12

Filename C:\EAC Rips\Lou Reed - 1992 - Between Thought and Expression- The Lou Reed Anthology - Disc 1 of 3\12 - Sad Song (from ''Berlin'' - 1973).wav

Peak level 97.2 %
Extraction speed 6.0 X
Track quality 100.0 %
Test CRC E47E3BCA
Copy CRC E47E3BCA
Accurately ripped (confidence 16) [A1F7792E]
Copy OK

Track 13

Filename C:\EAC Rips\Lou Reed - 1992 - Between Thought and Expression- The Lou Reed Anthology - Disc 1 of 3\13 - Sweet Jane (from ''Rock N Roll Animal'' - 1974).wav

Peak level 72.1 %
Extraction speed 6.3 X
Track quality 100.0 %
Test CRC 30268D07
Copy CRC 30268D07
Accurately ripped (confidence 15) [207C3DE6]
Copy OK

Track 14

Filename C:\EAC Rips\Lou Reed - 1992 - Between Thought and Expression- The Lou Reed Anthology - Disc 1 of 3\14 - Kill Your Sons (from ''Sally Can't Dance'' - 1974).wav

Peak level 97.2 %
Extraction speed 5.9 X
Track quality 100.0 %
Test CRC A96B573B
Copy CRC A96B573B
Accurately ripped (confidence 15) [D81FD4CE]
Copy OK

Track 15

Filename C:\EAC Rips\Lou Reed - 1992 - Between Thought and Expression- The Lou Reed Anthology - Disc 1 of 3\15 - Coney Island Baby (from ''Coney Island Baby'' - 1975).wav

Peak level 97.2 %
Extraction speed 5.7 X
Track quality 99.9 %
Test CRC BAFE9884
Copy CRC BAFE9884
Accurately ripped (confidence 15) [C4B8432E]
Copy OK


All tracks accurately ripped

No errors occurred

End of status report

==== Log checksum DAB01808C01069B4507745ED82C1D712F7BE7917F148D51AB308F544C1117619 ====


[CUETools log; Date: 29.06.2021 19:34:31; Version: 2.1.4]
[AccurateRip ID: 0024ca98-01aaec0a-d7116d0f] found.
Track [ CRC | V2 ] Status
01 [d65744b9|1e460cff] (018+029/102) Accurately ripped
02 [b34b0c67|6b72ec30] (022+030/104) Accurately ripped
03 [fe44b63d|6745d867] (021+030/105) Accurately ripped
04 [8553b230|8761e2bd] (021+030/108) Accurately ripped
05 [fe11b43a|33bf7e35] (021+030/106) Accurately ripped
06 [8bae9ddc|5f7fd823] (021+030/105) Accurately ripped
07 [df1072d4|4d3d1a09] (021+030/106) Accurately ripped
08 [7a657d46|dde98a26] (021+030/105) Accurately ripped
09 [96c1e335|2cf26a7e] (021+030/104) Accurately ripped
10 [d06cb64f|b654873b] (021+030/104) Accurately ripped
11 [bdf86586|d8e480fa] (021+030/105) Accurately ripped
12 [a1f7792e|7818ee80] (020+029/103) Accurately ripped
13 [207c3de6|0ec3e87d] (019+030/104) Accurately ripped
14 [d81fd4ce|fa3c046b] (019+030/103) Accurately ripped
15 [c4b8432e|aacc1e3b] (019+030/100) Accurately ripped
Offsetted by -941:
01 [c9723bae] (013/102) Accurately ripped
02 [931af25c] (013/104) Accurately ripped
03 [47933eae] (013/105) Accurately ripped
04 [13bceea2] (015/108) Accurately ripped
05 [a394b79a] (013/106) Accurately ripped
06 [8e643ef5] (012/105) Accurately ripped
07 [1d73c59d] (011/106) Accurately ripped
08 [c8bbcf1a] (012/105) Accurately ripped
09 [7ef6a5f0] (012/104) Accurately ripped
10 [bd04bdf6] (012/104) Accurately ripped
11 [df454a2f] (013/105) Accurately ripped
12 [4e59131e] (013/103) Accurately ripped
13 [1e36b19f] (014/104) Accurately ripped
14 [173aa081] (013/103) Accurately ripped
15 [d823627d] (012/100) Accurately ripped
Offsetted by -1503:
01 [d133b5ad] (007/102) Accurately ripped
02 [4bdc8603] (007/104) Accurately ripped
03 [8d3c4098] (007/105) Accurately ripped
04 [93379f5d] (007/108) Accurately ripped
05 [ceb3fcc0] (007/106) Accurately ripped
06 [edfbcc88] (007/105) Accurately ripped
07 [4658bff6] (007/106) Accurately ripped
08 [0653e3d0] (000/105) No match (V2 was not tested)
09 [08fd93b1] (007/104) Accurately ripped
10 [cb988ae1] (007/104) Accurately ripped
11 [7cd7e59a] (007/105) Accurately ripped
12 [f3e874d8] (007/103) Accurately ripped
13 [b6d51f74] (007/104) Accurately ripped
14 [383d9c1c] (007/103) Accurately ripped
15 [98a64963] (007/100) Accurately ripped
Offsetted by -935:
01 [62ffab60] (000/102) No match
02 [45ceb48e] (000/104) No match
03 [11f79239] (000/105) No match
04 [6416f4de] (000/108) No match
05 [f71183f4] (000/106) No match
06 [4669e594] (000/105) No match
07 [b8e3322a] (002/106) Accurately ripped
08 [499e2af2] (000/105) No match
09 [cb92f116] (000/104) No match
10 [c0258e16] (000/104) No match
11 [2e0ddaea] (000/105) No match
12 [7b865458] (000/103) No match
13 [7463420d] (000/104) No match
14 [4ca056d7] (000/103) No match
15 [8d334bfb] (000/100) No match
Offsetted by -865:
01 [f609723e] (000/102) No match (V2 was not tested)
02 [36964980] (000/104) No match (V2 was not tested)
03 [f173936e] (000/105) No match (V2 was not tested)
04 [09b61c47] (000/108) No match (V2 was not tested)
05 [ee96f954] (000/106) No match (V2 was not tested)
06 [3ff91ed6] (000/105) No match (V2 was not tested)
07 [85f6f649] (000/106) No match (V2 was not tested)
08 [dc015020] (000/105) No match (V2 was not tested)
09 [f573f567] (000/104) No match (V2 was not tested)
10 [b56ac0e3] (000/104) No match (V2 was not tested)
11 [dccfeff9] (000/105) No match (V2 was not tested)
12 [dd4c97de] (000/103) No match (V2 was not tested)
13 [c5114e50] (000/104) No match (V2 was not tested)
14 [12769efc] (000/103) No match (V2 was not tested)
15 [cd979ab9] (000/100) No match (V2 was not tested)

Track Peak [ CRC32 ] [W/O NULL] [ LOG ]
– 100,0 [35392970] [21B0BA1E]
01 98,0 [EA1D91B8] [03E549D3] CRC32
02 90,2 [1BFE99CD] [9B747702] CRC32
03 82,9 [F2294787] [8CD7CD7F] CRC32
04 100,0 [31700D15] [225766EB] CRC32
05 88,8 [BD4659CB] [53EEC562] CRC32
06 98,1 [ACE5C24C] [1E428775] CRC32
07 77,2 [B20F7F37] [D9F00025] CRC32
08 75,5 [5980919C] [9C71AFFD] CRC32
09 78,5 [002B39C1] [61919AE7] CRC32
10 95,4 [E3DACE33] [46F7862A] CRC32
11 78,8 [D66611A2] [73277F0A] CRC32
12 97,2 [E47E3BCA] [A62DC20E] CRC32
13 72,1 [30268D07] [4B106922] CRC32
14 97,2 [A96B573B] [C11C7A77] CRC32
15 97,2 [BAFE9884] [6CB95A13] CRC32


Lou Reed - Between Thought And Expression: The Lou Reed Anthology (1992) [3CD Box Set]

Tracklist CD2:

01. Nowhere At All (Non LP B-Side - 1975) (3:15)
02. Kicks (6:02)
03. Downtown Dirt (Outtake) (4:18)
04. Rock And Roll Heart (3:06)
05. Vicious Circle (2:53)
06. Temporary Thing (5:15)
07. Real Good Time Together (3:22)
08. Leave Me Alone (Outtake) (5:33)
09. Heroin (Live at the Roxy Theatre, LA - 1976) (12:20)
10. Here Comes The Bride (Outtake) (6:07)
11. Street Hassle (11:00)
12. Metal Machine Music (1:34)
13. The Bells (6:31)

Exact Audio Copy V1.0 beta 1 from 15. November 2010

EAC extraction logfile from 13. March 2011, 13:59

Lou Reed / Between Thought and Expression: The Lou Reed Anthology - Disc 2 of 3

Used drive : Optiarc DVD RW AD-7561S Adapter: 1 ID: 0

Read mode : Secure
Utilize accurate stream : Yes
Defeat audio cache : Yes
Make use of C2 pointers : No

Read offset correction : 6
Overread into Lead-In and Lead-Out : No
Fill up missing offset samples with silence : Yes
Delete leading and trailing silent blocks : No
Null samples used in CRC calculations : Yes
Used interface : Native Win32 interface for Win NT & 2000
Gap handling : Appended to previous track

Used output format : User Defined Encoder
Selected bitrate : 128 kBit/s
Quality : High
Add ID3 tag : No
Command line compressor : C:\Program Files (x86)\Exact Audio Copy\Flac\flac.exe
Additional command line options : -V -8 -T "artist=%a" -T "title=%t" -T "album=%g" -T "date=%y" -T "tracknumber=%n" -T "genre=%m" %s


TOC of the extracted CD

Track | Start | Length | Start sector | End sector
––––––––––––––––––––––––––––-
1 | 0:00.00 | 3:15.35 | 0 | 14659
2 | 3:15.35 | 6:02.20 | 14660 | 41829
3 | 9:17.55 | 4:17.67 | 41830 | 61171
4 | 13:35.47 | 3:06.25 | 61172 | 75146
5 | 16:41.72 | 2:52.65 | 75147 | 88111
6 | 19:34.62 | 5:15.10 | 88112 | 111746
7 | 24:49.72 | 3:22.10 | 111747 | 126906
8 | 28:12.07 | 5:32.63 | 126907 | 151869
9 | 33:44.70 | 12:19.60 | 151870 | 207354
10 | 46:04.55 | 6:07.07 | 207355 | 234886
11 | 52:11.62 | 10:59.70 | 234887 | 284381
12 | 63:11.57 | 1:33.70 | 284382 | 291426
13 | 64:45.52 | 6:31.23 | 291427 | 320774


Track 1

Filename C:\EAC Rips\Lou Reed - 1992 - Between Thought and Expression- The Lou Reed Anthology - Disc 2 of 3\01 - Nowhere At All (Non LP B-Side - 1975).wav

Pre-gap length 0:00:02.00

Peak level 89.3 %
Extraction speed 2.7 X
Track quality 100.0 %
Test CRC 385EE156
Copy CRC 385EE156
Accurately ripped (confidence 18) [27B19836]
Copy OK

Track 2

Filename C:\EAC Rips\Lou Reed - 1992 - Between Thought and Expression- The Lou Reed Anthology - Disc 2 of 3\02 - Kicks (from ''Coney Island Baby'' - 1975).wav

Peak level 92.5 %
Extraction speed 3.1 X
Track quality 99.9 %
Test CRC 426A5D47
Copy CRC 426A5D47
Accurately ripped (confidence 18) [39BE6E0B]
Copy OK

Track 3

Filename C:\EAC Rips\Lou Reed - 1992 - Between Thought and Expression- The Lou Reed Anthology - Disc 2 of 3\03 - Downtown Dirt (Outtake from ''Coney Island Baby'' - 1975).wav

Peak level 97.7 %
Extraction speed 3.7 X
Track quality 100.0 %
Test CRC 810A03CA
Copy CRC 810A03CA
Accurately ripped (confidence 18) [7360546D]
Copy OK

Track 4

Filename C:\EAC Rips\Lou Reed - 1992 - Between Thought and Expression- The Lou Reed Anthology - Disc 2 of 3\04 - Rock And Roll Heart (from ''Rock And Roll Heart'' - 1976).wav

Peak level 89.7 %
Extraction speed 3.7 X
Track quality 100.0 %
Test CRC 80E1E450
Copy CRC 80E1E450
Accurately ripped (confidence 19) [B6821FF5]
Copy OK

Track 5

Filename C:\EAC Rips\Lou Reed - 1992 - Between Thought and Expression- The Lou Reed Anthology - Disc 2 of 3\05 - Vicious Circle (from ''Rock And Roll Heart'' - 1976).wav

Peak level 89.1 %
Extraction speed 3.9 X
Track quality 100.0 %
Test CRC 80661E8A
Copy CRC 80661E8A
Accurately ripped (confidence 18) [83793BD5]
Copy OK

Track 6

Filename C:\EAC Rips\Lou Reed - 1992 - Between Thought and Expression- The Lou Reed Anthology - Disc 2 of 3\06 - Temporary Thing (from ''Rock And Roll Heart'' - 1976).wav

Pre-gap length 0:00:00.82

Peak level 98.2 %
Extraction speed 3.8 X
Track quality 99.9 %
Test CRC 868FA510
Copy CRC 868FA510
Accurately ripped (confidence 18) [F706C3BC]
Copy OK

Track 7

Filename C:\EAC Rips\Lou Reed - 1992 - Between Thought and Expression- The Lou Reed Anthology - Disc 2 of 3\07 - Real Good Time Together (from ''Street Hassle'' - 1978).wav

Peak level 87.5 %
Extraction speed 4.4 X
Track quality 100.0 %
Test CRC 8E98AB6A
Copy CRC 8E98AB6A
Accurately ripped (confidence 18) [13CE16AE]
Copy OK

Track 8

Filename C:\EAC Rips\Lou Reed - 1992 - Between Thought and Expression- The Lou Reed Anthology - Disc 2 of 3\08 - Leave Me Alone (Outtake from ''Coney Island Baby'' - 1975).wav

Pre-gap length 0:00:00.60

Peak level 97.3 %
Extraction speed 4.2 X
Track quality 99.9 %
Test CRC EBDC9DDA
Copy CRC EBDC9DDA
Accurately ripped (confidence 18) [1E0B63FD]
Copy OK

Track 9

Filename C:\EAC Rips\Lou Reed - 1992 - Between Thought and Expression- The Lou Reed Anthology - Disc 2 of 3\09 - Heroin (Live at the Roxy Theatre, LA - 1976).wav

Peak level 100.0 %
Extraction speed 4.9 X
Track quality 99.9 %
Test CRC 81437562
Copy CRC 81437562
Accurately ripped (confidence 18) [2C9B2355]
Copy OK

Track 10

Filename C:\EAC Rips\Lou Reed - 1992 - Between Thought and Expression- The Lou Reed Anthology - Disc 2 of 3\10 - Here Comes The Bride (Outtake from ''Take No Prisoners'' - 1978).wav

Peak level 80.6 %
Extraction speed 5.8 X
Track quality 100.0 %
Test CRC F0C127B2
Copy CRC F0C127B2
Accurately ripped (confidence 19) [EF2F67E6]
Copy OK

Track 11

Filename C:\EAC Rips\Lou Reed - 1992 - Between Thought and Expression- The Lou Reed Anthology - Disc 2 of 3\11 - Street Hassle (from ''Street Hassle'' - 1978).wav

Pre-gap length 0:00:01.00

Peak level 84.7 %
Extraction speed 4.9 X
Track quality 99.9 %
Test CRC 43F27CD2
Copy CRC 43F27CD2
Accurately ripped (confidence 17) [A7B8CD08]
Copy OK

Track 12

Filename C:\EAC Rips\Lou Reed - 1992 - Between Thought and Expression- The Lou Reed Anthology - Disc 2 of 3\12 - Metal Machine Music (from ''Metal Machine Music'' - 1975).wav

Peak level 51.9 %
Extraction speed 4.9 X
Track quality 100.0 %
Test CRC 000DA7E9
Copy CRC 000DA7E9
Accurately ripped (confidence 17) [640BACEB]
Copy OK

Track 13

Filename C:\EAC Rips\Lou Reed - 1992 - Between Thought and Expression- The Lou Reed Anthology - Disc 2 of 3\13 - The Bells (from ''The Bells'' - 1979).wav

Pre-gap length 0:00:01.26

Peak level 82.7 %
Extraction speed 3.3 X
Track quality 99.8 %
Test CRC AC1C9466
Copy CRC AC1C9466
Accurately ripped (confidence 17) [23EA2330]
Copy OK


All tracks accurately ripped

No errors occurred

End of status report

==== Log checksum C0DC19B53252F9AF987B4DBEFFC2834AD395609C9D4335FBD71867AE50D9D9DE ====


[CUETools log; Date: 29.06.2021 19:43:46; Version: 2.1.4]
[AccurateRip ID: 001eac9f-013da669-c510b50d] found.
Track [ CRC | V2 ] Status
01 [27b19836|788ef60b] (022+045/099) Accurately ripped
02 [39be6e0b|f3d2e55c] (022+043/097) Accurately ripped
03 [7360546d|ef7734fb] (022+045/100) Accurately ripped
04 [b6821ff5|5c9e6c9e] (023+044/099) Accurately ripped
05 [83793bd5|6bf3389d] (022+044/098) Accurately ripped
06 [f706c3bc|64b57571] (022+044/099) Accurately ripped
07 [13ce16ae|5476e7aa] (022+044/099) Accurately ripped
08 [1e0b63fd|f974de24] (022+045/101) Accurately ripped
09 [2c9b2355|04d33c46] (022+044/102) Accurately ripped
10 [ef2f67e6|3164b9f9] (023+044/102) Accurately ripped
11 [a7b8cd08|3a9f2e5c] (021+044/099) Accurately ripped
12 [640baceb|a6cb51c6] (021+044/099) Accurately ripped
13 [23ea2330|26948bc6] (021+045/099) Accurately ripped
Offsetted by -2505:
01 [1ed7077a] (013/099) Accurately ripped
02 [0964d281] (013/097) Accurately ripped
03 [e9cb0ab4] (014/100) Accurately ripped
04 [5dd749ae] (013/099) Accurately ripped
05 [612024fc] (013/098) Accurately ripped
06 [a53a1d30] (013/099) Accurately ripped
07 [380fd00c] (013/099) Accurately ripped
08 [b446771d] (014/101) Accurately ripped
09 [b567c8c3] (015/102) Accurately ripped
10 [849ea3db] (014/102) Accurately ripped
11 [53a1a5ab] (013/099) Accurately ripped
12 [13576272] (013/099) Accurately ripped
13 [f1a88cac] (012/099) Accurately ripped
Offsetted by -2864:
01 [91c47af6] (000/099) No match (V2 was not tested)
02 [9623252b] (000/097) No match (V2 was not tested)
03 [40f8e43d] (000/100) No match (V2 was not tested)
04 [6151797d] (000/099) No match (V2 was not tested)
05 [665293f1] (000/098) No match (V2 was not tested)
06 [92c2577c] (000/099) No match (V2 was not tested)
07 [1c0b554e] (000/099) No match (V2 was not tested)
08 [84d27f2b] (000/101) No match (V2 was not tested)
09 [b53ee400] (000/102) No match (V2 was not tested)
10 [f081fab9] (000/102) No match (V2 was not tested)
11 [585c1760] (000/099) No match (V2 was not tested)
12 [0e79f0cf] (000/099) No match (V2 was not tested)
13 [e08b0470] (000/099) No match (V2 was not tested)

Track Peak [ CRC32 ] [W/O NULL] [ LOG ]
– 100,0 [5F3BC2DE] [F568B3BA]
01 89,3 [385EE156] [16D5172E] CRC32
02 92,5 [426A5D47] [30A27798] CRC32
03 97,7 [810A03CA] [F1835B7C] CRC32
04 89,7 [80E1E450] [41FAC054] CRC32
05 89,1 [80661E8A] [70EAED40] CRC32
06 98,2 [868FA510] [821491C3] CRC32
07 87,5 [8E98AB6A] [802B71F0] CRC32
08 97,3 [EBDC9DDA] [2FBB0441] CRC32
09 100,0 [81437562] [362C0F27] CRC32
10 80,6 [F0C127B2] [A98AF225] CRC32
11 84,7 [43F27CD2] [EC4A2A51] CRC32
12 51,9 [000DA7E9] [E7C09312] CRC32
13 82,7 [AC1C9466] [8365FEC1] CRC32


Lou Reed - Between Thought And Expression: The Lou Reed Anthology (1992) [3CD Box Set]

Tracklist CD3:

01. America (Star Spangled Banner) (Outtake) (2:50)
02. Think It Over (3:26)
03. Teach The Gifted Children (3:15)
04. The Gun (3:41)
05. The Blue Mask (5:04)
06. My House (5:25)
07. Waves Of Fear (4:13)
08. Little Sister (6:08)
09. Legendary Hearts (3:24)
10. The Last Shot (3:24)
11. New Sensations (5:44)
12. My Friend George (3:56)
13. Doin' The Things That We Want To (3:58)
14. The Original Wrapper (3:39)
15. Video Violence (5:36)
16. Tell It To Your Heart (5:13)
17. Voices Of Freedom (5:15)

Exact Audio Copy V1.0 beta 1 from 15. November 2010

EAC extraction logfile from 13. March 2011, 15:36

Lou Reed / Between Thought and Expression: The Lou Reed Anthology - Disc 3 of 3

Used drive : Optiarc DVD RW AD-7561S Adapter: 1 ID: 0

Read mode : Secure
Utilize accurate stream : Yes
Defeat audio cache : Yes
Make use of C2 pointers : No

Read offset correction : 6
Overread into Lead-In and Lead-Out : No
Fill up missing offset samples with silence : Yes
Delete leading and trailing silent blocks : No
Null samples used in CRC calculations : Yes
Used interface : Native Win32 interface for Win NT & 2000
Gap handling : Appended to previous track

Used output format : User Defined Encoder
Selected bitrate : 128 kBit/s
Quality : High
Add ID3 tag : No
Command line compressor : C:\Program Files (x86)\Exact Audio Copy\Flac\flac.exe
Additional command line options : -V -8 -T "artist=%a" -T "title=%t" -T "album=%g" -T "date=%y" -T "tracknumber=%n" -T "genre=%m" %s


TOC of the extracted CD

Track | Start | Length | Start sector | End sector
––––––––––––––––––––––––––––-
1 | 0:00.00 | 2:50.37 | 0 | 12786
2 | 2:50.37 | 3:26.08 | 12787 | 28244
3 | 6:16.45 | 3:14.55 | 28245 | 42849
4 | 9:31.25 | 3:41.22 | 42850 | 59446
5 | 13:12.47 | 5:03.48 | 59447 | 82219
6 | 18:16.20 | 5:25.10 | 82220 | 106604
7 | 23:41.30 | 4:13.15 | 106605 | 125594
8 | 27:54.45 | 6:07.67 | 125595 | 153186
9 | 34:02.37 | 3:24.33 | 153187 | 168519
10 | 37:26.70 | 3:24.22 | 168520 | 183841
11 | 40:51.17 | 5:44.15 | 183842 | 209656
12 | 46:35.32 | 3:56.25 | 209657 | 227381
13 | 50:31.57 | 3:57.38 | 227382 | 245194
14 | 54:29.20 | 3:39.07 | 245195 | 261626
15 | 58:08.27 | 5:35.60 | 261627 | 286811
16 | 63:44.12 | 5:13.33 | 286812 | 310319
17 | 68:57.45 | 5:14.72 | 310320 | 333941


Track 1

Filename C:\EAC Rips\Lou Reed - 1992 - Between Thought and Expression- The Lou Reed Anthology - Disc 3 of 3\01 - America (Star Spangled Banner) (Outtake from ''Growing Up In Public'' - 1980).wav

Pre-gap length 0:00:02.00

Peak level 97.2 %
Extraction speed 2.6 X
Track quality 100.0 %
Test CRC F5655DA6
Copy CRC F5655DA6
Accurately ripped (confidence 20) [0A3F03D0]
Copy OK

Track 2

Filename C:\EAC Rips\Lou Reed - 1992 - Between Thought and Expression- The Lou Reed Anthology - Disc 3 of 3\02 - Think It Over (from ''Growing Up In Public'' - 1980).wav

Pre-gap length 0:00:00.60

Peak level 81.3 %
Extraction speed 3.1 X
Track quality 100.0 %
Test CRC 541FE422
Copy CRC 541FE422
Accurately ripped (confidence 20) [DD84EFD2]
Copy OK

Track 3

Filename C:\EAC Rips\Lou Reed - 1992 - Between Thought and Expression- The Lou Reed Anthology - Disc 3 of 3\03 - Teach The Gifted Children (from ''Growing Up In Public'' - 1980).wav

Peak level 88.9 %
Extraction speed 3.3 X
Track quality 100.0 %
Test CRC 4B6075FA
Copy CRC 4B6075FA
Accurately ripped (confidence 20) [5B5664F6]
Copy OK

Track 4

Filename C:\EAC Rips\Lou Reed - 1992 - Between Thought and Expression- The Lou Reed Anthology - Disc 3 of 3\04 - The Gun (from ''The Blue Mask'' - 1982).wav

Peak level 88.4 %
Extraction speed 3.6 X
Track quality 100.0 %
Test CRC BF3EC58B
Copy CRC BF3EC58B
Accurately ripped (confidence 20) [7E24454F]
Copy OK

Track 5

Filename C:\EAC Rips\Lou Reed - 1992 - Between Thought and Expression- The Lou Reed Anthology - Disc 3 of 3\05 - The Blue Mask (from ''The Blue Mask'' - 1982).wav

Peak level 97.2 %
Extraction speed 4.1 X
Track quality 100.0 %
Test CRC 63840BD7
Copy CRC 63840BD7
Accurately ripped (confidence 20) [28E1B515]
Copy OK

Track 6

Filename C:\EAC Rips\Lou Reed - 1992 - Between Thought and Expression- The Lou Reed Anthology - Disc 3 of 3\06 - My House (from ''The Blue Mask'' - 1982).wav

Peak level 97.2 %
Extraction speed 4.4 X
Track quality 100.0 %
Test CRC 893D3229
Copy CRC 893D3229
Accurately ripped (confidence 20) [3022A1FA]
Copy OK

Track 7

Filename C:\EAC Rips\Lou Reed - 1992 - Between Thought and Expression- The Lou Reed Anthology - Disc 3 of 3\07 - Waves Of Fear (from ''The Blue Mask'' - 1982).wav

Peak level 97.2 %
Extraction speed 4.5 X
Track quality 100.0 %
Test CRC 34A6D40B
Copy CRC 34A6D40B
Accurately ripped (confidence 21) [AA005DA2]
Copy OK

Track 8

Filename C:\EAC Rips\Lou Reed - 1992 - Between Thought and Expression- The Lou Reed Anthology - Disc 3 of 3\08 - Little Sister (from the ''Get Crazy'' Soundtrack - 1983).wav

Peak level 93.6 %
Extraction speed 5.0 X
Track quality 100.0 %
Test CRC BFA95C28
Copy CRC BFA95C28
Accurately ripped (confidence 19) [6C972995]
Copy OK

Track 9

Filename C:\EAC Rips\Lou Reed - 1992 - Between Thought and Expression- The Lou Reed Anthology - Disc 3 of 3\09 - Legendary Hearts (from ''Legendary Hearts'' - 1983).wav

Pre-gap length 0:00:00.46

Peak level 97.2 %
Extraction speed 4.8 X
Track quality 100.0 %
Test CRC 5B641246
Copy CRC 5B641246
Accurately ripped (confidence 20) [C163D8CE]
Copy OK

Track 10

Filename C:\EAC Rips\Lou Reed - 1992 - Between Thought and Expression- The Lou Reed Anthology - Disc 3 of 3\10 - The Last Shot (from ''Legendary Hearts'' - 1983).wav

Peak level 97.2 %
Extraction speed 4.9 X
Track quality 100.0 %
Test CRC A02FEE2F
Copy CRC A02FEE2F
Accurately ripped (confidence 21) [E9F38E67]
Copy OK

Track 11

Filename C:\EAC Rips\Lou Reed - 1992 - Between Thought and Expression- The Lou Reed Anthology - Disc 3 of 3\11 - New Sensations (from ''New Sensations'' - 1984).wav

Pre-gap length 0:00:01.56

Peak level 86.5 %
Extraction speed 5.5 X
Track quality 100.0 %
Test CRC E9DBBCB9
Copy CRC E9DBBCB9
Accurately ripped (confidence 20) [5D7F12F9]
Copy OK

Track 12

Filename C:\EAC Rips\Lou Reed - 1992 - Between Thought and Expression- The Lou Reed Anthology - Disc 3 of 3\12 - My Friend George (from ''New Sensations'' - 1984).wav

Peak level 97.2 %
Extraction speed 5.4 X
Track quality 100.0 %
Test CRC BC25B992
Copy CRC BC25B992
Accurately ripped (confidence 20) [1642A94E]
Copy OK

Track 13

Filename C:\EAC Rips\Lou Reed - 1992 - Between Thought and Expression- The Lou Reed Anthology - Disc 3 of 3\13 - Doin' The Things That We Want To (from ''New Sensations'' - 1984).wav

Peak level 97.2 %
Extraction speed 5.5 X
Track quality 100.0 %
Test CRC 975B0AA2
Copy CRC 975B0AA2
Accurately ripped (confidence 20) [8904EBDA]
Copy OK

Track 14

Filename C:\EAC Rips\Lou Reed - 1992 - Between Thought and Expression- The Lou Reed Anthology - Disc 3 of 3\14 - The Original Wrapper (from ''Mistrial'' - 1986).wav

Pre-gap length 0:00:01.50

Peak level 95.6 %
Extraction speed 5.7 X
Track quality 100.0 %
Test CRC A53970A6
Copy CRC A53970A6
Accurately ripped (confidence 19) [7DB5F9C8]
Copy OK

Track 15

Filename C:\EAC Rips\Lou Reed - 1992 - Between Thought and Expression- The Lou Reed Anthology - Disc 3 of 3\15 - Video Violence (from ''Mistrial'' - 1986).wav

Peak level 93.4 %
Extraction speed 6.2 X
Track quality 100.0 %
Test CRC 8EA0E73C
Copy CRC 8EA0E73C
Accurately ripped (confidence 20) [5E2E0C0C]
Copy OK

Track 16

Filename C:\EAC Rips\Lou Reed - 1992 - Between Thought and Expression- The Lou Reed Anthology - Disc 3 of 3\16 - Tell It To Your Heart (from ''Mistrial'' - 1986).wav

Pre-gap length 0:00:01.06

Peak level 87.7 %
Extraction speed 6.4 X
Track quality 100.0 %
Test CRC 8B176C4E
Copy CRC 8B176C4E
Accurately ripped (confidence 20) [98DAF6B8]
Copy OK

Track 17

Filename C:\EAC Rips\Lou Reed - 1992 - Between Thought and Expression- The Lou Reed Anthology - Disc 3 of 3\17 - Voices Of Freedom (from ''The Secret Policeman's Third Ball- The Music'' - 1987).wav

Pre-gap length 0:00:01.30

Peak level 77.7 %
Extraction speed 6.4 X
Track quality 100.0 %
Test CRC 74CFB2A5
Copy CRC 74CFB2A5
Accurately ripped (confidence 18) [49E3F209]
Copy OK


All tracks accurately ripped

No errors occurred

End of status report

==== Log checksum FAFC1AFC6CBE77373ED02D8BEAC7902803E4437A2B0586BB218AF7D5E949ADB5 ====


[CUETools log; Date: 29.06.2021 19:47:26; Version: 2.1.4]
[AccurateRip ID: 002b4ed9-022eae92-fc116411] found.
Track [ CRC | V2 ] Status
01 [0a3f03d0|50e51876] (024+042/100) Accurately ripped
02 [dd84efd2|fe1f0c86] (024+044/101) Accurately ripped
03 [5b5664f6|b8ce0b4b] (024+045/102) Accurately ripped
04 [7e24454f|e48f5834] (024+044/101) Accurately ripped
05 [28e1b515|9e9a7e93] (024+044/101) Accurately ripped
06 [3022a1fa|c2ecb1d9] (024+044/101) Accurately ripped
07 [aa005da2|ffc56465] (025+044/102) Accurately ripped
08 [6c972995|dcb7eed2] (023+044/100) Accurately ripped
09 [c163d8ce|7937ff2b] (024+044/101) Accurately ripped
10 [e9f38e67|a1b919f4] (025+045/103) Accurately ripped
11 [5d7f12f9|7e72c52b] (024+044/101) Accurately ripped
12 [1642a94e|9172e732] (024+045/102) Accurately ripped
13 [8904ebda|614493e5] (024+045/102) Accurately ripped
14 [7db5f9c8|240cf006] (023+043/098) Accurately ripped
15 [5e2e0c0c|8709d1aa] (024+045/101) Accurately ripped
16 [98daf6b8|c7828d65] (024+045/102) Accurately ripped
17 [49e3f209|507d352c] (022+044/098) Accurately ripped
Offsetted by -2464:
01 [0ea60a50] (014/100) Accurately ripped
02 [274cfb8e] (013/101) Accurately ripped
03 [66d553da] (013/102) Accurately ripped
04 [e4282dbe] (013/101) Accurately ripped
05 [245f2da7] (013/101) Accurately ripped
06 [b6b70cf2] (013/101) Accurately ripped
07 [e7984ee2] (013/102) Accurately ripped
08 [da58772c] (013/100) Accurately ripped
09 [2a522034] (013/101) Accurately ripped
10 [8fbdc0e8] (013/103) Accurately ripped
11 [0fd1a1ed] (013/101) Accurately ripped
12 [183c2739] (013/102) Accurately ripped
13 [9fb11da4] (013/102) Accurately ripped
14 [b02782a6] (013/098) Accurately ripped
15 [b60f716e] (012/101) Accurately ripped
16 [63aeb938] (013/102) Accurately ripped
17 [c38d1087] (013/098) Accurately ripped

Track Peak [ CRC32 ] [W/O NULL] [ LOG ]
– 97,2 [7584A192] [AA3A8BE6]
01 97,2 [F5655DA6] [1D71A926] CRC32
02 81,3 [541FE422] [789CCEE1] CRC32
03 88,9 [4B6075FA] [814A71F8] CRC32
04 88,4 [BF3EC58B] [A6A039C2] CRC32
05 97,2 [63840BD7] [1FC9252E] CRC32
06 97,2 [893D3229] [D0BDB31F] CRC32
07 97,2 [34A6D40B] [8ED63D26] CRC32
08 93,6 [BFA95C28] [AB57D07B] CRC32
09 97,2 [5B641246] [E78CF292] CRC32
10 97,2 [A02FEE2F] [5C0E7FFA] CRC32
11 86,5 [E9DBBCB9] [E93DB32F] CRC32
12 97,2 [BC25B992] [F6421440] CRC32
13 97,2 [975B0AA2] [6918A551] CRC32
14 95,6 [A53970A6] [6B989686] CRC32
15 93,4 [8EA0E73C] [21176EF1] CRC32
16 87,7 [8B176C4E] [BA48B25E] CRC32
17 77,7 [74CFB2A5] [F8DC565D] CRC32


Lou Reed - Between Thought And Expression: The Lou Reed Anthology (1992) [3CD Box Set]

All thanks go to the original releaser

Lou Reed in my Blog

Download Lou Reed - Between Thought And Expression: The Lou Reed Anthology (1992):