Tags
Language
Tags

Love - Da Capo (1966) [MFSL Remastered 2013, Audio CD Layer]

Posted By: Designol
Love - Da Capo (1966) [MFSL Remastered 2013, Audio CD Layer]

Love - Da Capo (1966) [MFSL Remastered 2013]
EAC | FLAC | Image (Cue&Log) ~ 224 Mb | Mp3 (CBR320) ~ 109 Mb | Scans included | 00:36:27
Folk-Rock, Baroque Pop, Psychedelic | Label: Mobile Fidelity Sound Lab | # UDSACD 2130

Love broadened their scope into psychedelia on their sophomore effort, Arthur Lee's achingly melodic songwriting gifts reaching full flower. The six songs that comprised the first side of this album when it was first issued are a truly classic body of work, highlighted by the atomic blast of pre-punk rock "Seven & Seven Is" (their only hit single), the manic jazz tempos of "Stephanie Knows Who", and the enchanting "She Comes in Colors", perhaps Lee's best composition (and reportedly the inspiration for the Rolling Stones' "She's a Rainbow"). It's only half a great album, though; the seventh and final track, "Revelation", is a tedious 19-minute jam that keeps Da Capo from attaining truly classic status.

Review by Richie Unterberger, Allmusic.com

No West Coast band put a deeper psychedelic spin on the mid-60s’ burgeoning folk-rock scene than Love. And during a twelve-month period between late 1966 and 1967, no group rivaled Arthur Lee and company’s freewheeling imagination and musical blend. Love’s tenure was brief, but its impact and influence will forever loom large. Home to the collective’s lone Top 40 hit, Da Capo is psychedelia at its best: a thoroughly original, vivid, unrestrained canvass for Lee’s beautiful, eclectic ideas and pioneering sonic journeys.

Mastered from the original master tapes, our numbered limited-edition hybrid SACD of Da Capo presents the album in living color. Interwoven textures, delicate accents, hand-stitched details, and wide-spanning dynamics integral to each song’s framework and function emerge with three-dimensional perspective. MoFi engineers painstakingly ensured that the disc breathes with tube amplifier-like warmth and transparency, characteristics tethered to the era’s finest recordings. Background woodwinds, horns, and vintage organs occupy distinct spaces, while the soundstage boasts both excellent depth of field and width.

Arriving shortly after its debut, Da Capo established Love as psychedelia visionaries. A cult classic since its original release in January 1967, the record greatly expands on the experimentation of the Beatles’ Revolver and predates the Rolling Stones’ Their Satanic Majesties Request, Fab Four’s Sgt. Pepper’s Lonely Hearts Club Band, and Pink Floyd’s Piper at the Gates of Dawn by months. Executed by an expanded seven-piece lineup, Da Capo encapsulates baroque pop, proto punk, bossa nova, garage rock, and hard-driving jazz. Its limits are bounded only by Lee’s scope, and the Memphis native remains unbounded throughout.

Accurately tabbed by critic Lillian Roxon as “an amusing paradox,” Lee’s identity as an African-American channeling the sound of a white Englishman expressing the Southern blues gives Da Capo added mysticism and muscle. From the tumbling house of mirrors that is the opening “Stephanie Knows Who” to the galloping, heavy, reverb-appointed “Seven & Seven Is”—a hit tune that confirmed Love’s identity as Los Angeles’ baddest street toughs—the effort swings and surprises, each turn leading down new corridors.

Such discovery lies behind the groundbreaking “Revelation,” a 19-minute jam that occupied the entire second side of the LP and strongly rumored to have been produced by an uncredited Neil Young. Originally titled “John Lee Hooker,” it progresses as a free-for-all boogie that, according to myth, soon inspired the Stones to pen “Goin’ Home.” Similar tradition is tied to Love’s harpsichord-fragranced “She Comes In Colors,” a baroque gem that led to the Stones’ “She’s a Rainbow.”

Mobile Fidelity Sound Lab Description

Love - Da Capo (1966) [MFSL Remastered 2013, Audio CD Layer]



Tracklist:

01. Stephanie Knows Who (02:33)
02. Orange Skies (02:51)
03. iQue Vida! (03:40)
04. Seven & Seven Is (02:16)
05. The Castle (03:01)
06. She Comes In Colors (02:47)
07. Revelation (19:00)


Exact Audio Copy V1.0 beta 3 from 29. August 2011

EAC extraction logfile from 16. August 2013, 12:38

Love / Da Capo

Used drive : TEAC DV-W516GD Adapter: 4 ID: 1

Read mode : Secure
Utilize accurate stream : Yes
Defeat audio cache : Yes
Make use of C2 pointers : No

Read offset correction : 6
Overread into Lead-In and Lead-Out : No
Fill up missing offset samples with silence : Yes
Delete leading and trailing silent blocks : No
Null samples used in CRC calculations : Yes
Used interface : Native Win32 interface for Win NT & 2000

Used output format : User Defined Encoder
Selected bitrate : 1024 kBit/s
Quality : High
Add ID3 tag : No
Command line compressor : C:\Program Files\Exact Audio Copy\Flac\flac.exe
Additional command line options : -V -8 -T "Date=%year%" -T "Genre=%genre%" %source%


TOC of the extracted CD

Track | Start | Length | Start sector | End sector
––––––––––––––––––––––––––––-
1 | 0:00.00 | 2:36.01 | 0 | 11700
2 | 2:36.01 | 2:53.65 | 11701 | 24740
3 | 5:29.66 | 3:43.12 | 24741 | 41477
4 | 9:13.03 | 2:19.21 | 41478 | 51923
5 | 11:32.24 | 3:03.60 | 51924 | 65708
6 | 14:36.09 | 2:50.21 | 65709 | 78479
7 | 17:26.30 | 19:00.08 | 78480 | 163987


Range status and errors

Selected range

Filename D:\TEMP\Love - Da Capo\Love - Da Capo.wav

Peak level 96.4 %
Extraction speed 2.4 X
Range quality 100.0 %
Test CRC 9051D298
Copy CRC 9051D298
Copy OK

No errors occurred


AccurateRip summary

Track 1 not present in database
Track 2 not present in database
Track 3 not present in database
Track 4 not present in database
Track 5 not present in database
Track 6 not present in database
Track 7 not present in database

None of the tracks are present in the AccurateRip database

End of status report

–– CUETools DB Plugin V2.1.3

[CTDB TOCID: 5UbkW30iNPePaRkcNHFYfLoIUuY-] disk not present in database, Submit result: 5UbkW30iNPePaRkcNHFYfLoIUuY- has been uploaded


==== Log checksum 9C747B1B2309AF5F53A7EBA666778ACCF8C5F863367A728997C0D116CB2479DA ====

foobar2000 1.2 / Dynamic Range Meter 1.1.1
log date: 2013-08-18 17:02:52

––––––––––––––––––––––––––––––––––––––––
Analyzed: Love / Da Capo
––––––––––––––––––––––––––––––––––––––––

DR Peak RMS Duration Track
––––––––––––––––––––––––––––––––––––––––
DR11 -0.40 dB -13.44 dB 2:36 01-Stephanie Knows Who
DR9 -1.83 dB -14.24 dB 2:54 02-Orange Skies
DR11 -0.46 dB -14.75 dB 3:43 03-iQue Vida!
DR9 -0.41 dB -12.15 dB 2:19 04-Seven & Seven Is
DR12 -0.52 dB -15.70 dB 3:04 05-The Castle
DR10 -0.74 dB -14.67 dB 2:50 06-She Comes In Colors
DR12 -0.31 dB -15.44 dB 19:00 07-Revelation
––––––––––––––––––––––––––––––––––––––––

Number of tracks: 7
Official DR value: DR11

Samplerate: 44100 Hz
Channels: 2
Bits per sample: 16
Bitrate: 761 kbps
Codec: FLAC
================================================================================

Love - Da Capo (1966) [MFSL Remastered 2013, Audio CD Layer]

Love - Da Capo (1966) [MFSL Remastered 2013, Audio CD Layer]