Tags
Language
Tags

VA - Metal Ballads Volume I (1993) {Unison}

Posted By: TestTickles
VA - Metal Ballads Volume I (1993) {Unison}

VA - Metal Ballads Volume I (1993) {Unison}
EAC Rip | FLAC with CUE and log | scans | 467 mb
MP3 CBR 320kbps | RAR | 174 mb
Genre: hard rock, heavy metal, thrash metal

Metal Ballads Volume I is a 1993 compilation done when heavy metal music was still king of the nation. This pressing was released in Bulgaria by Unison.

VA - Metal Ballads Volume I (1993) {Unison}

01. Metallica - Nothing Else Matters
02. Lita Ford & Ozzy Osbourne - Close My Eyes Forever
03. Manowar - The Crown And The Ring (Lament Of The Kings)
04. Helloween - A Tale That Wasn't Right
05. Axel Rudi Pell - Broken Heart
06. Bonfire - You Make Me Feel
07. L.A. Guns - Crystal Eyes
08. Cinderella - Dont't Know What You Got (Till It's Gone)
09. Tony Martin - Why Love
10. Manowar - Heart Of Steel
11. Accept - Amamos La Vida
12. Axel Rudi Pell - When A Blind Man Cries
13. Iron Maiden - Strange World
14. Bonfire - Who's Foolin' Who
15. Steelheart - She's Gone

Exact Audio Copy V0.99 prebeta 4 from 23. January 2008

EAC extraction logfile from 18. April 2009, 22:23

Various Artists / Metal Ballads Volume I

Used drive : MATSHITA CD-RW CW-8124 (revision DA0D)

Read mode : Secure
Utilize accurate stream : Yes
Defeat audio cache : Yes
Make use of C2 pointers : No

Read offset correction : 48
Overread into Lead-In and Lead-Out : No
Fill up missing offset samples with silence : Yes
Delete leading and trailing silent blocks : No
Null samples used in CRC calculations : Yes
Used interface : Installed external ASPI interface
Gap handling : Appended to previous track

Used output format : Internal WAV Routines
Sample format : 44.100 Hz; 16 Bit; Stereo

TOC of the extracted CD

Track | Start | Length | Start sector | End sector
––––––––––––––––––––––––––––-
1 | 0:00.00 | 6:30.67 | 0 | 29316
2 | 6:30.67 | 4:42.23 | 29317 | 50489
3 | 11:13.15 | 4:48.60 | 50490 | 72149
4 | 16:02.00 | 4:44.52 | 72150 | 93501
5 | 20:46.52 | 5:08.40 | 93502 | 116641
6 | 25:55.17 | 4:41.05 | 116642 | 137721
7 | 30:36.22 | 5:53.25 | 137722 | 164221
8 | 36:29.47 | 5:19.23 | 164222 | 188169
9 | 41:48.70 | 4:01.42 | 188170 | 206286
10 | 45:50.37 | 5:09.40 | 206287 | 229501
11 | 51:00.02 | 4:40.53 | 229502 | 250554
12 | 55:40.55 | 4:37.70 | 250555 | 271399
13 | 60:18.50 | 5:45.55 | 271400 | 297329
14 | 66:04.30 | 3:34.62 | 297330 | 313441
15 | 69:39.17 | 5:53.58 | 313442 | 339974

Track 1

Filename C:\cuntfist\FLAC\VA - Metal Ballads Volume I (1993) [FLAC] {Unison}\01 - Metallica - Nothing Else Matters.wav

Pre-gap length 0:00:02.00

Peak level 100.0 %
Track quality 100.0 %
Test CRC E0013CA3
Copy CRC 312FD7E5
Track not present in AccurateRip database
Copy OK

Track 2

Filename C:\cuntfist\FLAC\VA - Metal Ballads Volume I (1993) [FLAC] {Unison}\02 - Lita Ford & Ozzy Osbourne - Close My Eyes Forever.wav

Pre-gap length 0:00:02.25

Peak level 91.6 %
Track quality 100.0 %
Test CRC 867A6C3F
Copy CRC 867A6C3F
Track not present in AccurateRip database
Copy OK

Track 3

Filename C:\cuntfist\FLAC\VA - Metal Ballads Volume I (1993) [FLAC] {Unison}\03 - Manowar - The Crown And The Ring (Lament Of The Kings).wav

Pre-gap length 0:00:01.33

Peak level 79.3 %
Track quality 100.0 %
Test CRC 01249BF9
Copy CRC 01249BF9
Track not present in AccurateRip database
Copy OK

Track 4

Filename C:\cuntfist\FLAC\VA - Metal Ballads Volume I (1993) [FLAC] {Unison}\04 - Helloween - A Tale That Wasn't Right.wav

Pre-gap length 0:00:01.70

Peak level 74.1 %
Track quality 100.0 %
Test CRC EA782A6D
Copy CRC EA782A6D
Track not present in AccurateRip database
Copy OK

Track 5

Filename C:\cuntfist\FLAC\VA - Metal Ballads Volume I (1993) [FLAC] {Unison}\05 - Axel Rudi Pell - Broken Heart.wav

Pre-gap length 0:00:01.62

Peak level 100.0 %
Track quality 100.0 %
Test CRC 26EF8FC8
Copy CRC 26EF8FC8
Track not present in AccurateRip database
Copy OK

Track 6

Filename C:\cuntfist\FLAC\VA - Metal Ballads Volume I (1993) [FLAC] {Unison}\06 - Bonfire - You Make Me Feel.wav

Pre-gap length 0:00:01.17

Peak level 86.7 %
Track quality 100.0 %
Test CRC A28D2957
Copy CRC A28D2957
Track not present in AccurateRip database
Copy OK

Track 7

Filename C:\cuntfist\FLAC\VA - Metal Ballads Volume I (1993) [FLAC] {Unison}\07 - L.A - Guns - Crystal Eyes.wav

Peak level 95.8 %
Track quality 99.9 %
Test CRC 1E75220A
Copy CRC 1E75220A
Track not present in AccurateRip database
Copy OK

Track 8

Filename C:\cuntfist\FLAC\VA - Metal Ballads Volume I (1993) [FLAC] {Unison}\08 - Cinderella - Dont't Know What You Got (Till It's Gone).wav

Pre-gap length 0:00:02.17

Peak level 96.3 %
Track quality 100.0 %
Test CRC 6E2954B8
Copy CRC 6E2954B8
Track not present in AccurateRip database
Copy OK

Track 9

Filename C:\cuntfist\FLAC\VA - Metal Ballads Volume I (1993) [FLAC] {Unison}\09 - Tony Martin - Why Love.wav

Pre-gap length 0:00:01.70

Peak level 83.1 %
Track quality 100.0 %
Test CRC D4916E06
Copy CRC D4916E06
Track not present in AccurateRip database
Copy OK

Track 10

Filename C:\cuntfist\FLAC\VA - Metal Ballads Volume I (1993) [FLAC] {Unison}\10 - Manowar - Heart Of Steel.wav

Pre-gap length 0:00:00.62

Peak level 84.7 %
Track quality 100.0 %
Test CRC 6BAEB209
Copy CRC 6BAEB209
Track not present in AccurateRip database
Copy OK

Track 11

Filename C:\cuntfist\FLAC\VA - Metal Ballads Volume I (1993) [FLAC] {Unison}\11 - Accept - Amamos La Vida.wav

Pre-gap length 0:00:00.67

Peak level 97.0 %
Track quality 100.0 %
Test CRC 53B41DC6
Copy CRC 53B41DC6
Track not present in AccurateRip database
Copy OK

Track 12

Filename C:\cuntfist\FLAC\VA - Metal Ballads Volume I (1993) [FLAC] {Unison}\12 - Axel Rudi Pell - When A Blind Man Cries.wav

Pre-gap length 0:00:01.25

Peak level 81.6 %
Track quality 99.9 %
Test CRC 92CD26AD
Copy CRC 92CD26AD
Track not present in AccurateRip database
Copy OK

Track 13

Filename C:\cuntfist\FLAC\VA - Metal Ballads Volume I (1993) [FLAC] {Unison}\13 - Iron Maiden - Strange World.wav

Pre-gap length 0:00:01.20

Peak level 97.7 %
Track quality 100.0 %
Test CRC 5EC06F4D
Copy CRC 5EC06F4D
Track not present in AccurateRip database
Copy OK

Track 14

Filename C:\cuntfist\FLAC\VA - Metal Ballads Volume I (1993) [FLAC] {Unison}\14 - Bonfire - Who's Foolin' Who.wav

Pre-gap length 0:00:00.73

Peak level 99.2 %
Track quality 99.9 %
Test CRC 681BC000
Copy CRC 681BC000
Track not present in AccurateRip database
Copy OK

Track 15

Filename C:\cuntfist\FLAC\VA - Metal Ballads Volume I (1993) [FLAC] {Unison}\15 - Steelheart - She's Gone.wav

Pre-gap length 0:00:00.35

Peak level 84.7 %
Track quality 100.0 %
Test CRC 9CF36F9E
Copy CRC 9CF36F9E
Track not present in AccurateRip database
Copy OK

None of the tracks are present in the AccurateRip database

No errors occurred

End of status report



VA - Metal Ballads Volume I (1993) {Unison}


Thank you to the original uploader.