Subcategories

Madagascar - Spirit Of The Street (1981) {FunkyTownGrooves}

Posted By: tiburon
Madagascar - Spirit Of The Street (1981) {FunkyTownGrooves}

Madagascar - Spirit Of The Street (1981) {FunkyTownGrooves}
EAC 1.0b3 | FLAC tracks level 8 | Cue+Log+M3U | Full Scans 600dpi | 356MB + 5% Recovery
MP3 CBR 320 Kbps | 92MB + 5% Recovery
Genre: Funk, Soul
Madagascar - Spirit Of The Street (1981) {FunkyTownGrooves}

2010 remastered first time on CD reissue of the 1981 album, released by soul supergroup Madagascar on the Arista label. In the early 80's was not the most favorable time to be a soul band. Or young and talented without a care of the evils of the world… but this one album remains as a very collectable addition in the history of soul music. The album sounded like no one else out there, at the time. The notable track on the album was the song 'Rainbow', with Marva King and John Barnes taking the leads, became a song highly popular in the U. K. "Baby Not Tonight" and " Rainbow" were the only singles of the album to chart on the US R&B Chart in 1981 and 1982 respectively.
Track List
1. Pay Attention (3:39)
2. This Is When It Counts (5:07)
3. Rainbow (4:36)
4. Baby Not Tonight (4:18)
5. Dance Spirit Dance (3:58)
6. Playin' With Fire (4:02)
7. Here Today, Gone Tomorrow (5:18)
8. Thank You For Our Song (4:12)
9. International Jamboree (4:51)

musicians
Marva King - Vocals, Vocals (Background)
Gerald Albright - Flute, Saxophone, Vocals
John Barnes - Horn Arrangements, Keyboards, Rhythm Arrangements, Synthesizer, Vocal Arrangement, Vocals, Vocals (Background)
Sharon Barnes - Vocals
Raymond Brown - Flugelhorn, Horn Arrangements, Tambourine, Trumpet
Paulinho Da Costa - Percussion
Nathan East - Bass
Ed Greene - Drums
Robert Greenidge Drums (Steel)
Billy Griffin - Vocal Arrangement, Vocals (Background)
Donald Griffin - Guitar
Mortonette Jenkins - Vocals
Janice Sadler - Vocals (Background)

Produced by John Barnes


Exact Audio Copy V1.0 beta 3 from 29. August 2011

EAC extraction logfile from 28. November 2014, 1:53

Madagascar / Spirit Of The Street

Used drive : ATAPI DVD A DH16A6L-C Adapter: 2 ID: 0

Read mode : Secure
Utilize accurate stream : Yes
Defeat audio cache : Yes
Make use of C2 pointers : No

Read offset correction : 6
Overread into Lead-In and Lead-Out : No
Fill up missing offset samples with silence : Yes
Delete leading and trailing silent blocks : No
Null samples used in CRC calculations : Yes
Used interface : Native Win32 interface for Win NT & 2000
Gap handling : Appended to previous track

Used output format : User Defined Encoder
Selected bitrate : 1024 kBit/s
Quality : High
Add ID3 tag : No
Command line compressor : C:\Program Files\FLAC\flac.exe
Additional command line options : -8 -V -T "ARTIST=%artist%" -T "TITLE=%title%" -T "ALBUM=%albumtitle%" -T "DATE=%year%" -T "TRACKNUMBER=%tracknr%" -T "GENRE=%genre%" -T "PERFORMER=%albuminterpret%" -T "COMPOSER=%composer%" %haslyrics%–tag-from-file=LYRICS="%lyricsfile%"%haslyrics% -T "ALBUMARTIST=%albumartist%" -T "DISCNUMBER=%cdnumber%" -T "TOTALDISCS=%totalcds%" -T "TOTALTRACKS=%numtracks%" -T "COMMENT=%comment%" %source% -o %dest%


TOC of the extracted CD

Track | Start | Length | Start sector | End sector
––––––––––––––––––––––––––––-
1 | 0:00.00 | 3:39.36 | 0 | 16460
2 | 3:39.36 | 5:07.23 | 16461 | 39508
3 | 8:46.59 | 4:36.48 | 39509 | 60256
4 | 13:23.32 | 4:18.58 | 60257 | 79664
5 | 17:42.15 | 3:58.56 | 79665 | 97570
6 | 21:40.71 | 4:02.51 | 97571 | 115771
7 | 25:43.47 | 5:18.63 | 115772 | 139684
8 | 31:02.35 | 4:12.58 | 139685 | 158642
9 | 35:15.18 | 4:51.51 | 158643 | 180518


Track 1

Filename F:\0\!!!!!POST!!!!\Madagascar - Spirit Of The Street (1981)\01 - Pay Attention.wav

Pre-gap length 0:00:02.00

Peak level 100.0 %
Extraction speed 2.6 X
Track quality 99.9 %
Test CRC D4F82488
Copy CRC D4F82488
Accurately ripped (confidence 1) [C7494715] (AR v2)
Copy OK

Track 2

Filename F:\0\!!!!!POST!!!!\Madagascar - Spirit Of The Street (1981)\02 - This Is When It Counts.wav

Pre-gap length 0:00:01.57

Peak level 100.0 %
Extraction speed 3.8 X
Track quality 100.0 %
Test CRC 382D81F7
Copy CRC 382D81F7
Accurately ripped (confidence 1) [9FC1D992] (AR v2)
Copy OK

Track 3

Filename F:\0\!!!!!POST!!!!\Madagascar - Spirit Of The Street (1981)\03 - Rainbow.wav

Peak level 100.0 %
Extraction speed 4.2 X
Track quality 100.0 %
Test CRC 119D0EE5
Copy CRC 119D0EE5
Accurately ripped (confidence 1) [6E06D0C3] (AR v2)
Copy OK

Track 4

Filename F:\0\!!!!!POST!!!!\Madagascar - Spirit Of The Street (1981)\04 - Baby Not Tonight.wav

Pre-gap length 0:00:01.72

Peak level 100.0 %
Extraction speed 4.5 X
Track quality 100.0 %
Test CRC 697BBD9B
Copy CRC 697BBD9B
Accurately ripped (confidence 1) [88CBF4EE] (AR v2)
Copy OK

Track 5

Filename F:\0\!!!!!POST!!!!\Madagascar - Spirit Of The Street (1981)\05 - Dance Spirit Dance.wav

Pre-gap length 0:00:00.56

Peak level 100.0 %
Extraction speed 3.8 X
Track quality 100.0 %
Test CRC 26C4B3DC
Copy CRC 26C4B3DC
Accurately ripped (confidence 1) [25BC2388] (AR v2)
Copy OK

Track 6

Filename F:\0\!!!!!POST!!!!\Madagascar - Spirit Of The Street (1981)\06 - Playin' With Fire.wav

Pre-gap length 0:00:00.74

Peak level 99.6 %
Extraction speed 3.0 X
Track quality 99.9 %
Test CRC 56E60AE4
Copy CRC 56E60AE4
Accurately ripped (confidence 1) [4D94A1BE] (AR v2)
Copy OK

Track 7

Filename F:\0\!!!!!POST!!!!\Madagascar - Spirit Of The Street (1981)\07 - Here Today, Gone Tomorrow.wav

Pre-gap length 0:00:01.58

Peak level 100.0 %
Extraction speed 5.4 X
Track quality 100.0 %
Test CRC 739F6F7E
Copy CRC 739F6F7E
Accurately ripped (confidence 1) [B84E9458] (AR v2)
Copy OK

Track 8

Filename F:\0\!!!!!POST!!!!\Madagascar - Spirit Of The Street (1981)\08 - Thank You For Our Song.wav

Pre-gap length 0:00:00.60

Peak level 99.7 %
Extraction speed 5.5 X
Track quality 100.0 %
Test CRC 85CA0363
Copy CRC 85CA0363
Accurately ripped (confidence 1) [07483094] (AR v2)
Copy OK

Track 9

Filename F:\0\!!!!!POST!!!!\Madagascar - Spirit Of The Street (1981)\09 - International Jamboree.wav

Pre-gap length 0:00:00.46

Peak level 100.0 %
Extraction speed 5.7 X
Track quality 100.0 %
Test CRC 700132C9
Copy CRC 700132C9
Accurately ripped (confidence 1) [F83F0330] (AR v2)
Copy OK


All tracks accurately ripped

No errors occurred

End of status report

==== Log checksum 2E41BFE1A6A7931FBA1B7A854BE12B6A9BBDA65608E8F928A51DD72330FE28A9 ====

Madagascar - Spirit Of The Street (1981) {FunkyTownGrooves}
Madagascar - Spirit Of The Street (1981) {FunkyTownGrooves}


Thanks to the original ripper