Subcategories
Tags
Language
Tags

Geoffrey Douglas Madge - Kaikhosru Sorabji: Opus Clavicembalisticum (1983) Remastered 1999, 5CD Box Set

Posted By: Designol
Geoffrey Douglas Madge - Kaikhosru Sorabji: Opus Clavicembalisticum (1983) Remastered 1999, 5CD Box Set

Geoffrey Douglas Madge - Kaikhosru Sorabji: Opus Clavicembalisticum (1983)
Remastered 1999, 5CD Box Set
EAC | FLAC | Image (Cue&Log) ~ 949 Mb | Mp3 (CBR320) ~ 552 Mb | Scans ~ 72 Mb
Genre: Classical | Label: BIS | # BIS-CD-1062/1064 | Time: 03:59:13

A work with a name like this can only be unusual. The opus in question is a three-part solo piano epic, lasting a shade under four hours and of a complexity to match. Combine an all-night raga sequence with Bach's Art of Fugue and you're getting close. Is it worth the listen? Yes, if you want to give your heart and mind–not just your brain–a real workout. For all his outsize demands, Sorabji was a front-rank pianist, who understood technique as a physical end to spiritual means. There are stretches of manic complexity here, but also passages of real poetry: try the lengthy "Interludium primum" which opens Part 2, or many of the 81(!) variations which follow the magisterial "Passacaglia" in Part 3. It's music which cries out for transcendental virtuosity, and Geoffrey Douglas Madge gives it just that. He gave four performances over six years and this Chicago one from 1983 assumed mythic status among those who heard it. Remastered for CD release, it is awe-inspiring in its grasp of what's gone into this music: the audience clearly living it with the pianist every step of the way. Hear it for yourself, then why not run the marathon or climb Everest for relaxation?

Review by Richard Whitehouse

Opus clavicembalisticum isn’t actually the longest piano work in existence – Sorabji wrote several longer, but so far they haven’t been performed or recorded. Only two pianists have essayed the complete OC (as it’s known in the trade) since the composer premiered it in 1930. Geoffrey Douglas Madge gave the second performance, at Utrecht in 1982, subsequently released on LPs of indifferent sound. John Ogdon’s 1988 South Bank performance was complemented by a studio-recorded CD release by Altarus. This ‘new’ recording is of a concert performance Madge gave in Chicago in 1983 – the US premiere – long admired by Sorabji purists as possibly the most faithful rendering the Brobdingnagian work has had. The sound is very good – clear and clean, with just a few creaks and virtually no audience noise. Madge too is a clear, clean and impressively accurate player of Sorabji’s mind-bogglingly involved polyphony. Ogdon took 50 minutes longer, although on four discs rather than five: Madge’s extra disc avoids splitting the Variations. Yet OC is one of those mysterious works that spurns clock time: it’s not really long – the mind adjusts to scale, as in Wagner and Bruckner. Some Sorabjians tend to shake their heads sadly over Ogdon’s performance, but I wouldn’t be without it: there’s a grandeur and wild daring about it, and a Romantic voluptuousness, that transcend its deficiencies and are the opposite of Madge’s approach (compare their readings of the short Toccata movement to see). Sorabjians should have both, of course: and if you want to hear a towering and still-enigmatic achievement of 20th-century piano literature, this BIS set is self-recommending.

Review by Calum MacDonald, BBC Music Magazine

Finally we have a great recording of this spellbinding piece back to the repertoire. Sorabji's heinously difficult music is well-nigh unperformable, distinctly due to the composer's attitude to society in general which created a series of complex and mammoth compositions that remain unrecorded. In fact this is a live relay of the 1983 concert which Madge gave in New York, certainly one of his best performances of Clavicembalisticum. I remember being enthused by the piece when I read an extensive article in IPQ about John Ogdon's studio recording for Chris Rice's obscure label Altarus.

There I thought that the writer exaggerated his claim on the importance of that flawed recording, indeed it is dismissed in the notes for this release as plainly flawed, apparently Ogdon takes over an hour longer than Madge, surely too much. Indeed Madge had me completely breathless with his amazing and incredible virtuosity in this, the sine qua non of all piano repertoire. Some parts such as the massive Passacaglia in the Fourth part are altogether too difficult for comprehension, indeed one wonders what Sorabji was thinking about when writing such complex notes in such a dissident manner. However there are rewards to be had in the Third Part where the sheer overwhelming force of the Theme and Variations carries all before it in technical accomplishment and unuldarated mastery.

The introductory essays accompanying the booklet espouse on the writing of overlong works which can be explained in shorter terms and occasionally I really felt that Sorabji overstates some of the fugal passages to an impossible extent. And I have to be honest, if there are any wrong notes in Madge's performance then I did not spot them! BIS's packaging is the usual excellence with notes by Sorabji experts together with a short introduction from Madge who deserves the highest posssible praise for his incredible playing. The recording is also quite outstanding with a crystal-clear piano and minimal audience noise except the deserving and excruciating applause that concludes what must have been a memorable event. Reading some of Sorabji's venomous writings puts Opus Clavicembalisticum more into perspective, a work of huge and daunting proportions but one with a deep personal message behind it. Now, what would Sorabji say of that? I shudder to think!

Review by Gerald Fenech, MusicWeb-International.com

Geoffrey Douglas Madge - Kaikhosru Sorabji: Opus Clavicembalisticum (1983) Remastered 1999, 5CD Box Set



Geoffrey Douglas Madge - Kaikhosru Sorabji: Opus Clavicembalisticum (1983) Remastered 1999, 5CD Box Set




Tracklist:

CD1 (50:36)

01. Pars Prima - I. Introito (3:18)
02. Pars Prima - II. Preludio-Corale (Nexus) (13:33)
03. Pars Prima - III. Fuga I quatuor vocibus (12:06)
04. Pars Prima - IV. Fantasia (5:35)
05. Pars Prima - V. Fuga II duplex (16:05)


CD2 (50:17)

01. Pars Altera - VI. Interludium primum (Thema cum XLIX variationibus) (45:05)
02. Pars Altera - VII. Cadenza I (5:12)


CD3 (33:55)

01. Pars Altera - VIII. Fuga tertia triplex - Dux primus (10:22)
02. Pars Altera - VIII. Fuga tertia triplex - Dux alter (11:01)
03. Pars Altera - VIII. Fuga tertia triplex - Dux tertius (12:32)


CD4 (1:01:05)

01. Pars Tertia - IX. Interludium alterum - Toccata (5:50)
02. Pars Tertia - IX. Interludium alterum - Adagio (16:25)
03. Pars Tertia - IX. Interludium alterum - Passacaglia cum LXXXI variationibus (35:22)
04. Pars Tertia - X. Cadenza II (3:28)


CD5 (43:20)

01. Pars Tertia - XI. Fuga IV quadruplex - Dux primus (8:34)
02. Pars Tertia - XI. Fuga IV quadruplex - Dux alter (7:32)
03. Pars Tertia - XI. Fuga IV quadruplex - Dux tertius (7:23)
04. Pars Tertia - XI. Fuga IV quadruplex - Dux quartus (9:57)
05. Pars Tertia - XII. Coda-Stretta (7:34)

06. Applause (2:21)


Exact Audio Copy V1.0 beta 1 from 15. November 2010

EAC extraction logfile from 19. January 2012, 18:22

Kaikhosru Sorabji / Opus clavicembalisticum (CD1)

Used drive : Optiarc DVD RW AD-7203A Adapter: 4 ID: 1

Read mode : Secure
Utilize accurate stream : Yes
Defeat audio cache : Yes
Make use of C2 pointers : No

Read offset correction : 48
Overread into Lead-In and Lead-Out : No
Fill up missing offset samples with silence : Yes
Delete leading and trailing silent blocks : No
Null samples used in CRC calculations : Yes
Used interface : Native Win32 interface for Win NT & 2000

Used output format : User Defined Encoder
Selected bitrate : 128 kBit/s
Quality : High
Add ID3 tag : No
Command line compressor : C:\Program Files\FLAC\flac.exe
Additional command line options : -T "COMMENT=Ripped by GFox" -8 -V %s


TOC of the extracted CD

Track | Start | Length | Start sector | End sector
––––––––––––––––––––––––––––-
1 | 0:00.00 | 3:17.38 | 0 | 14812
2 | 3:17.38 | 13:33.37 | 14813 | 75824
3 | 16:51.00 | 12:05.38 | 75825 | 130237
4 | 28:56.38 | 5:34.62 | 130238 | 155349
5 | 34:31.25 | 16:04.50 | 155350 | 227699


Range status and errors

Selected range

Filename D:\EAC\Kaikhosru Sorabji - Opus clavicembalisticum (CD1).wav

Peak level 93.4 %
Extraction speed 1.2 X
Range quality 100.0 %
Test CRC C64CB516
Copy CRC C64CB516
Copy OK

No errors occurred


AccurateRip summary

Track 1 cannot be verified as accurate (confidence 2) [CD5A8EE2], AccurateRip returned [322DFB4F]
Track 2 cannot be verified as accurate (confidence 2) [29B965C8], AccurateRip returned [23D2C15F]
Track 3 cannot be verified as accurate (confidence 2) [7965A36D], AccurateRip returned [FD92F29E]
Track 4 cannot be verified as accurate (confidence 2) [37B246F6], AccurateRip returned [FBA22C2A]
Track 5 cannot be verified as accurate (confidence 2) [4778DD37], AccurateRip returned [45F107CA]

No tracks could be verified as accurate
You may have a different pressing from the one(s) in the database

End of status report

==== Log checksum 1BA217C78CEDF3575CF1762C3B00DFE9D040A0D64101A369B0A0F7DA49CF40CE ====

[CUETools log; Date: 25.12.2017 19:56:57; Version: 2.1.4]
[CTDB TOCID: l8xxS44tw878PY6xHSaykaZD3H0-] found.
Track | CTDB Status
1 | (6/6) Accurately ripped
2 | (6/6) Accurately ripped
3 | (6/6) Accurately ripped
4 | (6/6) Accurately ripped
5 | (6/6) Accurately ripped
[AccurateRip ID: 00093716-002c922c-390bdc05] found.
Track [ CRC | V2 ] Status
01 [cd5a8ee2|c1db5674] (0+0/8) No match
02 [29b965c8|c7751685] (0+0/8) No match
03 [7965a36d|1e4bb807] (0+0/8) No match
04 [37b246f6|bd136383] (0+0/8) No match
05 [4778dd37|a6b5d8fd] (0+0/8) No match
Offsetted by 628:
01 [322dfb4f] (2/8) Accurately ripped
02 [23d2c15f] (2/8) Accurately ripped
03 [fd92f29e] (2/8) Accurately ripped
04 [fba22c2a] (2/8) Accurately ripped
05 [45f107ca] (2/8) Accurately ripped

Track Peak [ CRC32 ] [W/O NULL] [ LOG ]
– 93,4 [C64CB516] [AD386FEC] CRC32
01 65,6 [DBCE6C3D] [83EDE74C]
02 93,4 [898E9EB4] [6743DB9B]
03 76,0 [5AC76807] [BF3619D1]
04 82,8 [ECEB5B41] [CDEC80DB]
05 71,3 [7D671F33] [6998D323]

foobar2000 1.2 / Dynamic Range Meter 1.1.1
log date: 2017-12-25 19:08:23

––––––––––––––––––––––––––––––––––––––––
Analyzed: Kaikhosru Sorabji / Opus clavicembalisticum (CD1)
––––––––––––––––––––––––––––––––––––––––

DR Peak RMS Duration Track
––––––––––––––––––––––––––––––––––––––––
DR12 -3.66 dB -21.51 dB 3:18 01-Pars Prima - I. Introito
DR13 -0.59 dB -21.01 dB 13:33 02-Pars Prima - II. Preludio-Corale (Nexus)
DR13 -2.37 dB -21.89 dB 12:06 03-Pars Prima - III. Fuga I quatuor vocibus
DR12 -1.63 dB -19.87 dB 5:35 04-Pars Prima - IV. Fantasia
DR13 -2.93 dB -20.12 dB 16:05 05-Pars Prima - V. Fuga II duplex
––––––––––––––––––––––––––––––––––––––––

Number of tracks: 5
Official DR value: DR13

Samplerate: 44100 Hz
Channels: 2
Bits per sample: 16
Bitrate: 546 kbps
Codec: FLAC
================================================================================


Exact Audio Copy V1.0 beta 1 from 15. November 2010

EAC extraction logfile from 19. January 2012, 20:17

Kaikhosru Sorabji / Opus clavicembalisticum (CD2)

Used drive : Optiarc DVD RW AD-7203A Adapter: 4 ID: 1

Read mode : Secure
Utilize accurate stream : Yes
Defeat audio cache : Yes
Make use of C2 pointers : No

Read offset correction : 48
Overread into Lead-In and Lead-Out : No
Fill up missing offset samples with silence : Yes
Delete leading and trailing silent blocks : No
Null samples used in CRC calculations : Yes
Used interface : Native Win32 interface for Win NT & 2000

Used output format : User Defined Encoder
Selected bitrate : 128 kBit/s
Quality : High
Add ID3 tag : No
Command line compressor : C:\Program Files\FLAC\flac.exe
Additional command line options : -T "COMMENT=Ripped by GFox" -8 -V %s


TOC of the extracted CD

Track | Start | Length | Start sector | End sector
––––––––––––––––––––––––––––-
1 | 0:00.00 | 45:05.00 | 0 | 202874
2 | 45:05.00 | 5:12.00 | 202875 | 226274


Range status and errors

Selected range

Filename D:\EAC\Kaikhosru Sorabji - Opus clavicembalisticum (CD2).wav

Peak level 98.2 %
Extraction speed 0.4 X
Range quality 100.0 %
Test CRC 38609595
Copy CRC 38609595
Copy OK

No errors occurred


AccurateRip summary

Track 1 cannot be verified as accurate (confidence 2) [02EA9AC1], AccurateRip returned [EC1E891D]
Track 2 cannot be verified as accurate (confidence 2) [6D21548F], AccurateRip returned [07EBAAAE]

No tracks could be verified as accurate
You may have a different pressing from the one(s) in the database

End of status report

==== Log checksum 329D0B94A62246137959A486F5EF61F2650FFF0EAA2DC6210766D5493378F471 ====

[CUETools log; Date: 25.12.2017 19:57:09; Version: 2.1.4]
[CTDB TOCID: 9GVbu3P2bHLj7SzJ.55TBRoTVb0-] found.
Track | CTDB Status
1 | (7/7) Accurately ripped
2 | (7/7) Accurately ripped
[AccurateRip ID: 00068c5e-00108ca0-120bc902] found.
Track [ CRC | V2 ] Status
01 [02ea9ac1|f7b3751e] (0+0/7) No match
02 [6d21548f|9eef0baf] (0+0/8) No match
Offsetted by -625:
01 [ec1e891d] (2/7) Accurately ripped
02 [07ebaaae] (2/8) Accurately ripped

Track Peak [ CRC32 ] [W/O NULL] [ LOG ]
– 98,2 [38609595] [5F80DCBC] CRC32
01 98,2 [8450E817] [5F377A5D]
02 82,3 [2BA335FA] [3C5E48C3]

foobar2000 1.2 / Dynamic Range Meter 1.1.1
log date: 2017-12-25 19:08:42

––––––––––––––––––––––––––––––––––––––––
Analyzed: Kaikhosru Sorabji / Opus clavicembalisticum (CD2)
––––––––––––––––––––––––––––––––––––––––

DR Peak RMS Duration Track
––––––––––––––––––––––––––––––––––––––––
DR15 -0.15 dB -21.70 dB 45:05 01-Pars Altera - VI. Interludium primum (Thema cum XLIX variationibus)
DR11 -1.69 dB -18.80 dB 5:12 02-Pars Altera - VII. Cadenza I
––––––––––––––––––––––––––––––––––––––––

Number of tracks: 2
Official DR value: DR13

Samplerate: 44100 Hz
Channels: 2
Bits per sample: 16
Bitrate: 536 kbps
Codec: FLAC
================================================================================


Exact Audio Copy V1.0 beta 1 from 15. November 2010

EAC extraction logfile from 19. January 2012, 20:46

Kaikhosru Sorabji / Opus clavicembalisticum (CD3)

Used drive : Optiarc DVD RW AD-7203A Adapter: 4 ID: 1

Read mode : Secure
Utilize accurate stream : Yes
Defeat audio cache : Yes
Make use of C2 pointers : No

Read offset correction : 48
Overread into Lead-In and Lead-Out : No
Fill up missing offset samples with silence : Yes
Delete leading and trailing silent blocks : No
Null samples used in CRC calculations : Yes
Used interface : Native Win32 interface for Win NT & 2000

Used output format : User Defined Encoder
Selected bitrate : 128 kBit/s
Quality : High
Add ID3 tag : No
Command line compressor : C:\Program Files\FLAC\flac.exe
Additional command line options : -T "COMMENT=Ripped by GFox" -8 -V %s


TOC of the extracted CD

Track | Start | Length | Start sector | End sector
––––––––––––––––––––––––––––-
1 | 0:00.00 | 10:22.00 | 0 | 46649
2 | 10:22.00 | 11:00.55 | 46650 | 96204
3 | 21:22.55 | 12:32.00 | 96205 | 152604


Range status and errors

Selected range

Filename D:\EAC\Kaikhosru Sorabji - Opus clavicembalisticum (CD3).wav

Peak level 85.3 %
Extraction speed 1.2 X
Range quality 100.0 %
Test CRC 87C4CEB9
Copy CRC 87C4CEB9
Copy OK

No errors occurred


AccurateRip summary

Track 1 cannot be verified as accurate (confidence 2) [FFA24660], AccurateRip returned [276E3417]
Track 2 cannot be verified as accurate (confidence 2) [826F593F], AccurateRip returned [31337C36]
Track 3 cannot be verified as accurate (confidence 2) [1B1B0B73], AccurateRip returned [CF9D44CD]

No tracks could be verified as accurate
You may have a different pressing from the one(s) in the database

End of status report

==== Log checksum 79E35CD20612677106BFED3A09AFBC037335E39C1CA76511996C94C03439611E ====

[CUETools log; Date: 25.12.2017 19:57:18; Version: 2.1.4]
[CTDB TOCID: QL6QnEHWGTzVa7rYt55nt6wSVSk-] found.
Track | CTDB Status
1 | (7/7) Accurately ripped
2 | (7/7) Accurately ripped
3 | (7/7) Accurately ripped
[AccurateRip ID: 00048224-000f2450-1d07f203] found.
Track [ CRC | V2 ] Status
01 [ffa24660|f8319b39] (0+0/7) No match
02 [826f593f|f7e7bf78] (0+0/8) No match
03 [1b1b0b73|bf41856e] (0+0/8) No match
Offsetted by 29:
01 [276e3417] (2/7) Accurately ripped
02 [31337c36] (2/8) Accurately ripped
03 [cf9d44cd] (2/8) Accurately ripped

Track Peak [ CRC32 ] [W/O NULL] [ LOG ]
– 85,3 [87C4CEB9] [BB39A447] CRC32
01 74,5 [3DA441E6] [AF39AE10]
02 74,3 [791292F0] [259780B3]
03 85,3 [9C1F6B7F] [FF6071EF]

foobar2000 1.2 / Dynamic Range Meter 1.1.1
log date: 2017-12-25 19:08:57

––––––––––––––––––––––––––––––––––––––––
Analyzed: Kaikhosru Sorabji / Opus clavicembalisticum (CD3)
––––––––––––––––––––––––––––––––––––––––

DR Peak RMS Duration Track
––––––––––––––––––––––––––––––––––––––––
DR12 -2.55 dB -20.92 dB 10:22 01-Pars Altera - VIII. Fuga tertia triplex - Dux primus
DR13 -2.57 dB -19.71 dB 11:01 02-Pars Altera - VIII. Fuga tertia triplex - Dux alter
DR13 -1.38 dB -18.23 dB 12:32 03-Pars Altera - VIII. Fuga tertia triplex - Dux tertius
––––––––––––––––––––––––––––––––––––––––

Number of tracks: 3
Official DR value: DR13

Samplerate: 44100 Hz
Channels: 2
Bits per sample: 16
Bitrate: 570 kbps
Codec: FLAC
================================================================================


Exact Audio Copy V1.0 beta 1 from 15. November 2010

EAC extraction logfile from 19. January 2012, 21:21

Kaikhosru Sorabji / Opus clavicembalisticum (CD4)

Used drive : Optiarc DVD RW AD-7203A Adapter: 4 ID: 1

Read mode : Secure
Utilize accurate stream : Yes
Defeat audio cache : Yes
Make use of C2 pointers : No

Read offset correction : 48
Overread into Lead-In and Lead-Out : No
Fill up missing offset samples with silence : Yes
Delete leading and trailing silent blocks : No
Null samples used in CRC calculations : Yes
Used interface : Native Win32 interface for Win NT & 2000

Used output format : User Defined Encoder
Selected bitrate : 128 kBit/s
Quality : High
Add ID3 tag : No
Command line compressor : C:\Program Files\FLAC\flac.exe
Additional command line options : -T "COMMENT=Ripped by GFox" -8 -V %s


TOC of the extracted CD

Track | Start | Length | Start sector | End sector
––––––––––––––––––––––––––––-
1 | 0:00.00 | 5:50.00 | 0 | 26249
2 | 5:50.00 | 16:25.00 | 26250 | 100124
3 | 22:15.00 | 35:22.00 | 100125 | 259274
4 | 57:37.00 | 3:28.00 | 259275 | 274874


Range status and errors

Selected range

Filename D:\EAC\Kaikhosru Sorabji - Opus clavicembalisticum (CD4).wav

Peak level 98.0 %
Extraction speed 0.2 X
Range quality 99.9 %
Test CRC C3F66F0B
Copy CRC C3F66F0B
Copy OK

No errors occurred


AccurateRip summary

Track 1 cannot be verified as accurate (confidence 2) [E4A735BA], AccurateRip returned [6A988C81]
Track 2 cannot be verified as accurate (confidence 2) [09591C6D], AccurateRip returned [6BBAC35A]
Track 3 cannot be verified as accurate (confidence 2) [68BCFDB7], AccurateRip returned [B05701F7]
Track 4 cannot be verified as accurate (confidence 2) [82FC532B], AccurateRip returned [D82E1AA7]

No tracks could be verified as accurate
You may have a different pressing from the one(s) in the database

End of status report

==== Log checksum 72F39BE5391DC451581EE4D24E219B33746A6DF2654DAC7B083D1CD087BF2450 ====

[CUETools log; Date: 25.12.2017 19:57:33; Version: 2.1.4]
[CTDB TOCID: m45_z.CXwNABs5z9jelHie5InWE-] found.
Track | CTDB Status
1 | (7/7) Accurately ripped
2 | (7/7) Accurately ripped
3 | (7/7) Accurately ripped
4 | (7/7) Accurately ripped
[AccurateRip ID: 000a142d-002a2e3f-2f0e5104] found.
Track [ CRC | V2 ] Status
01 [e4a735ba|3e28f063] (0+0/7) No match
02 [09591c6d|c472ae63] (0+0/7) No match
03 [68bcfdb7|173958a8] (0+0/8) No match
04 [82fc532b|22c9659d] (0+0/8) No match
Offsetted by -647:
01 [6a988c81] (2/7) Accurately ripped
02 [6bbac35a] (2/7) Accurately ripped
03 [b05701f7] (2/8) Accurately ripped
04 [d82e1aa7] (2/8) Accurately ripped

Track Peak [ CRC32 ] [W/O NULL] [ LOG ]
– 98,0 [C3F66F0B] [3B5D4F33] CRC32
01 71,9 [03C790BC] [4A323FD2]
02 67,9 [DCA9E3EF] [A76DD6C6]
03 98,0 [51BDAACA] [17FCD870]
04 69,4 [984C8338] [4490ED1F]

foobar2000 1.2 / Dynamic Range Meter 1.1.1
log date: 2017-12-25 19:09:23

––––––––––––––––––––––––––––––––––––––––
Analyzed: Kaikhosru Sorabji / Opus clavicembalisticum (CD4)
––––––––––––––––––––––––––––––––––––––––

DR Peak RMS Duration Track
––––––––––––––––––––––––––––––––––––––––
DR12 -2.86 dB -18.25 dB 5:50 01-Pars Tertia - IX. Interludium alterum - Toccata
DR21 -3.35 dB -32.58 dB 16:25 02-Pars Tertia - IX. Interludium alterum - Adagio
DR15 -0.17 dB -20.33 dB 35:22 03-Pars Tertia - IX. Interludium alterum - Passacaglia cum LXXXI variationibus
DR11 -3.17 dB -18.62 dB 3:28 04-Pars Tertia - X. Cadenza II
––––––––––––––––––––––––––––––––––––––––

Number of tracks: 4
Official DR value: DR15

Samplerate: 44100 Hz
Channels: 2
Bits per sample: 16
Bitrate: 551 kbps
Codec: FLAC
================================================================================


Exact Audio Copy V1.0 beta 1 from 15. November 2010

EAC extraction logfile from 19. January 2012, 21:52

Kaikhosru Sorabji / Opus clavicembalisticum (CD5)

Used drive : Optiarc DVD RW AD-7203A Adapter: 4 ID: 1

Read mode : Secure
Utilize accurate stream : Yes
Defeat audio cache : Yes
Make use of C2 pointers : No

Read offset correction : 48
Overread into Lead-In and Lead-Out : No
Fill up missing offset samples with silence : Yes
Delete leading and trailing silent blocks : No
Null samples used in CRC calculations : Yes
Used interface : Native Win32 interface for Win NT & 2000

Used output format : User Defined Encoder
Selected bitrate : 128 kBit/s
Quality : High
Add ID3 tag : No
Command line compressor : C:\Program Files\FLAC\flac.exe
Additional command line options : -T "COMMENT=Ripped by GFox" -8 -V %s


TOC of the extracted CD

Track | Start | Length | Start sector | End sector
––––––––––––––––––––––––––––-
1 | 0:00.00 | 8:33.63 | 0 | 38537
2 | 8:33.63 | 7:31.42 | 38538 | 72404
3 | 16:05.30 | 7:23.08 | 72405 | 105637
4 | 23:28.38 | 9:56.42 | 105638 | 150379
5 | 33:25.05 | 7:33.70 | 150380 | 184424
6 | 40:59.00 | 2:21.00 | 184425 | 194999


Range status and errors

Selected range

Filename D:\EAC\Kaikhosru Sorabji - Opus clavicembalisticum (CD5).wav

Peak level 100.0 %
Extraction speed 0.2 X
Range quality 100.0 %
Test CRC E9FD6D59
Copy CRC E9FD6D59
Copy OK

No errors occurred


AccurateRip summary

Track 1 cannot be verified as accurate (confidence 2) [DA05917C], AccurateRip returned [58027D73]
Track 2 cannot be verified as accurate (confidence 2) [3C9B039F], AccurateRip returned [4D5F9F57]
Track 3 cannot be verified as accurate (confidence 2) [921E4D5F], AccurateRip returned [B78EEF53]
Track 4 cannot be verified as accurate (confidence 2) [0883A388], AccurateRip returned [FB778B23]
Track 5 cannot be verified as accurate (confidence 2) [F9E8C891], AccurateRip returned [B5D8153D]
Track 6 cannot be verified as accurate (confidence 2) [F9939FD5], AccurateRip returned [8909660F]

No tracks could be verified as accurate
You may have a different pressing from the one(s) in the database

End of status report

==== Log checksum E00BBAAE4D9A17EE66C3216C8C20CD2BA530743120D4065F861148F4612E55CE ====

[CUETools log; Date: 25.12.2017 19:57:45; Version: 2.1.4]
[CTDB TOCID: DjYsFNWAYKS0DpxRToulywDiWtw-] found.
Track | CTDB Status
1 | (6/6) Accurately ripped
2 | (6/6) Accurately ripped
3 | (6/6) Accurately ripped
4 | (6/6) Accurately ripped
5 | (6/6) Accurately ripped
6 | (6/6) Accurately ripped
[AccurateRip ID: 000b6392-003c1fc6-3f0a2806] found.
Track [ CRC | V2 ] Status
01 [da05917c|5e4c6be5] (0+0/7) No match
02 [3c9b039f|d9cdeb77] (0+0/8) No match
03 [921e4d5f|096b70fa] (0+0/8) No match
04 [0883a388|ebd4c532] (0+0/8) No match
05 [f9e8c891|7aa93e26] (0+0/8) No match
06 [f9939fd5|0f56c111] (0+0/6) No match
Offsetted by -625:
01 [58027d73] (2/7) Accurately ripped
02 [4d5f9f57] (2/8) Accurately ripped
03 [b78eef53] (2/8) Accurately ripped
04 [fb778b23] (2/8) Accurately ripped
05 [b5d8153d] (2/8) Accurately ripped
06 [8909660f] (2/6) Accurately ripped

Track Peak [ CRC32 ] [W/O NULL] [ LOG ]
– 100,0 [E9FD6D59] [EFF492C9] CRC32
01 50,2 [BAD1E2F9] [737CB49B]
02 60,7 [AD056DCE] [1275D8D7]
03 57,9 [28AD43F7] [AD6A6FC1]
04 50,2 [AF4E5D54] [33AE67B3]
05 70,5 [7E5AB503] [E5B9781B]
06 100,0 [22D5D79E] [FD52676B]

foobar2000 1.2 / Dynamic Range Meter 1.1.1
log date: 2017-12-25 19:09:40

––––––––––––––––––––––––––––––––––––––––
Analyzed: Kaikhosru Sorabji / Opus clavicembalisticum (CD5)
––––––––––––––––––––––––––––––––––––––––

DR Peak RMS Duration Track
––––––––––––––––––––––––––––––––––––––––
DR13 -5.98 dB -24.71 dB 8:34 01-Pars Tertia - XI. Fuga IV quadruplex - Dux primus
DR13 -4.33 dB -22.57 dB 7:32 02-Pars Tertia - XI. Fuga IV quadruplex - Dux alter
DR12 -4.73 dB -22.07 dB 7:23 03-Pars Tertia - XI. Fuga IV quadruplex - Dux tertius
DR13 -5.98 dB -23.37 dB 9:57 04-Pars Tertia - XI. Fuga IV quadruplex - Dux quartus
DR11 -3.04 dB -18.34 dB 7:34 05-Pars Tertia - XII. Coda-Stretta
DR15 0.00 dB -19.68 dB 2:21 06-Applause
––––––––––––––––––––––––––––––––––––––––

Number of tracks: 6
Official DR value: DR13

Samplerate: 44100 Hz
Channels: 2
Bits per sample: 16
Bitrate: 564 kbps
Codec: FLAC
================================================================================

Geoffrey Douglas Madge - Kaikhosru Sorabji: Opus Clavicembalisticum (1983) Remastered 1999, 5CD Box Set

All thanks to original releaser - GFox

More interesting music in My Blog