Subcategories

Madrugada - The Best Of Madrugada (2010) 2CD

Posted By: Designol
Madrugada - The Best Of Madrugada (2010) 2CD

Madrugada - The Best Of Madrugada (2010) 2CD
EAC | FLAC | Tracks (Cue&Log) ~ 918 Mb | Mp3 (CBR320) ~ 322 Mb | Scans ~ 172 Mb
Rock, Neo-Psychedelia, Alternative Rock | Label: EMI | # 509999492822 | 02:20:41

The Best Of Madrugada is a compilation album by the Norwegian rock band Madrugada. It was released on EMI Records in November 2010, and contains 27 Madrugada classics – including a previously unreleased track called All This Wanting To Be Free.

The Best Of Madrugada is compiled by Sivert Høyem, Frode Jacobsen and Jon Lauvland Pettersen. The collection is based on original singles Majesty, Lift Me, The Kids Are On High Street and key live and signature tracks such as Black Mambo, Strange Colour Blue. Fan-favorites such as Quite Emotional, Step Into This Room and Dance For Me are also included.
The album is sequenced as two thematically different discs – the first as a Madrugada live set with noisier, aggressive and up tempo tunes and the second disc with a more moody and mellow atmosphere. The new song All This Wanting To Be Free was presented to Robert Burås by Frode Jacobsen and Sivert Høyem on the band’s last rehearsal. Although enthusiastic, Robert didn’t get the chance to play on it before he passed away. Later on, Jacobsen, Høyem and Alex Kloster Jensen layered guitars on the track while Erland Dahlen added drums.

This is the ultimate distillate of a musical era that stands without comparison in the history of Norwegian rock - the final chapter of a band that ended way too soon. Their legacy speaks for itself. A wonderful treasure trove of music that has stood the test of time and that will continue to engage and amaze new listeners in the years to come.

Madrugada - The Best Of Madrugada (2010) 2CD



Tracklist:

CD1:

01. The Kids Are On High Street (04:58)
02. 7 Seconds (03:36)
03. Look Away Lucifer (05:11)
04. Belladonna (04:19)
05. Blood Shot Adult Commitment (04:55)
06. Higher (2010 Digital Remaster) (04:46)
07. Beautyproof (2010 Digital Remaster) (03:57)
08. Black Mambo (05:51)
09. Salt (2010 Digital Remaster) (04:47)
10. Stories From The Streets (05:18)
11. I Don't Fit (04:21)
12. Majesty (Live) (06:43)
13. You Better Leave (Live) (04:29)
14. All This Wanting To Be Free (05:25)

CD2:

01. What's On Your Mind (04:01)
02. Hold On To You (06:14)
03. Strange Colour Blue (2010 Digital Remaster) (05:05)
04. Vocal (2010 Digital Remaster) (06:27)
05. Hands Up I Love You (05:37)
06. Majesty (04:23)
07. This Old House (2010 Digital Remaster) (05:07)
08. Lift Me (04:05)
09. Honey Bee (05:33)
10. Electric (2010 Digital Remaster) (04:52)
11. Quite Emotional (04:18)
12. Step Into This Room And Dance for Me (05:13)
13. A Deadend Mind (04:52)
14. Sail Away (06:09)


Exact Audio Copy V1.0 beta 1 from 15. November 2010

EAC extraction logfile from 29. November 2010, 17:34

Madrugada / The Best Of Madrugada (CD1)

Used drive : ATAPI iHBS112 2 Adapter: 1 ID: 1

Read mode : Secure
Utilize accurate stream : Yes
Defeat audio cache : Yes
Make use of C2 pointers : No

Read offset correction : 6
Overread into Lead-In and Lead-Out : No
Fill up missing offset samples with silence : Yes
Delete leading and trailing silent blocks : No
Null samples used in CRC calculations : Yes
Used interface : Native Win32 interface for Win NT & 2000
Gap handling : Appended to previous track

Used output format : User Defined Encoder
Selected bitrate : 768 kBit/s
Quality : High
Add ID3 tag : No
Command line compressor : C:\Program Files (x86)\Exact Audio Copy\Flac\flac.exe
Additional command line options : -8 -V -T "ARTIST=%a" -T "TITLE=%t" -T "ALBUM=%g" -T "DATE=%y" -T "TRACKNUMBER=%n" -T "TOTALTRACKS=%x" -T "GENRE=%m" -T "ALBUMARTIST=%v" -T "ALBUM ARTIST=%v" -T "COMMENT=EAC Secure Mode, Test & Copy, AccurateRip, FLAC -8" %s


TOC of the extracted CD

Track | Start | Length | Start sector | End sector
––––––––––––––––––––––––––––-
1 | 0:00.00 | 4:58.59 | 0 | 22408
2 | 4:58.59 | 3:36.25 | 22409 | 38633
3 | 8:35.09 | 5:11.59 | 38634 | 62017
4 | 13:46.68 | 4:19.18 | 62018 | 81460
5 | 18:06.11 | 4:55.74 | 81461 | 103659
6 | 23:02.10 | 4:46.45 | 103660 | 125154
7 | 27:48.55 | 3:57.56 | 125155 | 142985
8 | 31:46.36 | 5:51.24 | 142986 | 169334
9 | 37:37.60 | 4:47.33 | 169335 | 190892
10 | 42:25.18 | 5:18.25 | 190893 | 214767
11 | 47:43.43 | 4:21.35 | 214768 | 234377
12 | 52:05.03 | 6:43.02 | 234378 | 264604
13 | 58:48.05 | 4:29.73 | 264605 | 284852
14 | 63:18.03 | 5:25.64 | 284853 | 309291


Track 1

Filename C:\01 - The Kids Are On High Street.wav

Pre-gap length 0:00:02.00

Peak level 97.7 %
Extraction speed 5.5 X
Track quality 100.0 %
Test CRC 3A1CCC33
Copy CRC 3A1CCC33
Track not present in AccurateRip database
Copy OK

Track 2

Filename C:\02 - 7 Seconds.wav

Pre-gap length 0:00:01.06

Peak level 100.0 %
Extraction speed 5.9 X
Track quality 100.0 %
Test CRC 036841C1
Copy CRC 036841C1
Track not present in AccurateRip database
Copy OK

Track 3

Filename C:\03 - Look Away Lucifer.wav

Peak level 97.5 %
Extraction speed 5.8 X
Track quality 99.9 %
Test CRC EA7858A4
Copy CRC EA7858A4
Track not present in AccurateRip database
Copy OK

Track 4

Filename C:\04 - Belladonna.wav

Peak level 99.8 %
Extraction speed 7.1 X
Track quality 100.0 %
Test CRC 537F0ECE
Copy CRC 537F0ECE
Track not present in AccurateRip database
Copy OK

Track 5

Filename C:\05 - Blood Shot Adult Commitment.wav

Peak level 98.8 %
Extraction speed 7.7 X
Track quality 100.0 %
Test CRC 8D578C87
Copy CRC 8D578C87
Track not present in AccurateRip database
Copy OK

Track 6

Filename C:\06 - Higher (2010 Digital Remaster).wav

Peak level 100.0 %
Extraction speed 8.1 X
Track quality 100.0 %
Test CRC 1BBE7AE9
Copy CRC 1BBE7AE9
Track not present in AccurateRip database
Copy OK

Track 7

Filename C:\07 - Beautyproof (2010 Digital Remaster).wav

Peak level 99.8 %
Extraction speed 6.8 X
Track quality 99.9 %
Test CRC 58471137
Copy CRC 58471137
Track not present in AccurateRip database
Copy OK

Track 8

Filename C:\08 - Black Mambo.wav

Peak level 99.8 %
Extraction speed 8.0 X
Track quality 99.9 %
Test CRC FAD4522E
Copy CRC FAD4522E
Track not present in AccurateRip database
Copy OK

Track 9

Filename C:\09 - Salt (2010 Digital Remaster).wav

Peak level 99.8 %
Extraction speed 9.4 X
Track quality 100.0 %
Test CRC 4342F832
Copy CRC 4342F832
Track not present in AccurateRip database
Copy OK

Track 10

Filename C:\10 - Stories From The Streets.wav

Peak level 98.8 %
Extraction speed 9.9 X
Track quality 100.0 %
Test CRC 026FA44F
Copy CRC 026FA44F
Track not present in AccurateRip database
Copy OK

Track 11

Filename C:\11 - I Don't Fit.wav

Peak level 100.0 %
Extraction speed 10.0 X
Track quality 100.0 %
Test CRC E69AA915
Copy CRC E69AA915
Track not present in AccurateRip database
Copy OK

Track 12

Filename C:\12 - Majesty (Live).wav

Peak level 99.8 %
Extraction speed 11.0 X
Track quality 100.0 %
Test CRC 76A4C7D8
Copy CRC 76A4C7D8
Track not present in AccurateRip database
Copy OK

Track 13

Filename C:\13 - You Better Leave (Live).wav

Peak level 99.8 %
Extraction speed 9.0 X
Track quality 99.9 %
Test CRC C4760234
Copy CRC C4760234
Track not present in AccurateRip database
Copy OK

Track 14

Filename C:\14 - All This Wanting To Be Free.wav

Peak level 97.3 %
Extraction speed 11.4 X
Track quality 100.0 %
Test CRC 2C92992C
Copy CRC 2C92992C
Track not present in AccurateRip database
Copy OK


None of the tracks are present in the AccurateRip database

No errors occurred

End of status report

==== Log checksum BE913028D61739916B41E42E43C7EF77A50A46805A0BBAEB56003E853F64BC52 ====

foobar2000 1.2 / Dynamic Range Meter 1.1.1
log date: 2013-03-16 00:09:12

––––––––––––––––––––––––––––––––––––––––
Analyzed: Madrugada / The Best Of Madrugada (CD1)
––––––––––––––––––––––––––––––––––––––––

DR Peak RMS Duration Track
––––––––––––––––––––––––––––––––––––––––
DR6 -0.20 dB -7.34 dB 4:59 01-The Kids Are On High Street
DR7 0.00 dB -8.01 dB 3:36 02-7 Seconds
DR7 -0.22 dB -9.66 dB 5:12 03-Look Away Lucifer
DR6 -0.01 dB -7.50 dB 4:19 04-Belladonna
DR8 -0.10 dB -9.21 dB 4:56 05-Blood Shot Adult Commitment
DR6 0.00 dB -8.46 dB 4:47 06-Higher (2010 Digital Remaster)
DR6 -0.01 dB -9.65 dB 3:58 07-Beautyproof (2010 Digital Remaster)
DR7 -0.01 dB -10.38 dB 5:51 08-Black Mambo
DR5 -0.01 dB -7.06 dB 4:47 09-Salt (2010 Digital Remaster)
DR7 -0.10 dB -7.69 dB 5:18 10-Stories From The Streets
DR8 0.00 dB -9.10 dB 4:21 11-I Don't Fit
DR6 -0.01 dB -8.36 dB 6:43 12-Majesty (Live)
DR5 -0.01 dB -6.05 dB 4:30 13-You Better Leave (Live)
DR6 -0.24 dB -7.46 dB 5:26 14-All This Wanting To Be Free
––––––––––––––––––––––––––––––––––––––––

Number of tracks: 14
Official DR value: DR6

Samplerate: 44100 Hz
Channels: 2
Bits per sample: 16
Bitrate: 978 kbps
Codec: FLAC
================================================================================


Exact Audio Copy V1.0 beta 1 from 15. November 2010

EAC extraction logfile from 29. November 2010, 18:45

Madrugada / The Best Of Madrugada (CD2)

Used drive : ATAPI iHBS112 2 Adapter: 1 ID: 1

Read mode : Secure
Utilize accurate stream : Yes
Defeat audio cache : Yes
Make use of C2 pointers : No

Read offset correction : 6
Overread into Lead-In and Lead-Out : No
Fill up missing offset samples with silence : Yes
Delete leading and trailing silent blocks : No
Null samples used in CRC calculations : Yes
Used interface : Native Win32 interface for Win NT & 2000
Gap handling : Appended to previous track

Used output format : User Defined Encoder
Selected bitrate : 768 kBit/s
Quality : High
Add ID3 tag : No
Command line compressor : C:\Program Files (x86)\Exact Audio Copy\Flac\flac.exe
Additional command line options : -8 -V -T "ARTIST=%a" -T "TITLE=%t" -T "ALBUM=%g" -T "DATE=%y" -T "TRACKNUMBER=%n" -T "TOTALTRACKS=%x" -T "GENRE=%m" -T "ALBUMARTIST=%v" -T "ALBUM ARTIST=%v" -T "COMMENT=EAC Secure Mode, Test & Copy, AccurateRip, FLAC -8" %s


TOC of the extracted CD

Track | Start | Length | Start sector | End sector
––––––––––––––––––––––––––––-
1 | 0:00.00 | 4:01.56 | 0 | 18130
2 | 4:01.56 | 6:14.32 | 18131 | 46212
3 | 10:16.13 | 5:05.42 | 46213 | 69129
4 | 15:21.55 | 6:27.09 | 69130 | 98163
5 | 21:48.64 | 5:37.36 | 98164 | 123474
6 | 27:26.25 | 4:23.11 | 123475 | 143210
7 | 31:49.36 | 5:07.53 | 143211 | 166288
8 | 36:57.14 | 4:05.56 | 166289 | 184719
9 | 41:02.70 | 5:33.07 | 184720 | 209701
10 | 46:36.02 | 4:52.71 | 209702 | 231672
11 | 51:28.73 | 4:18.46 | 231673 | 251068
12 | 55:47.44 | 5:13.72 | 251069 | 274615
13 | 61:01.41 | 4:52.63 | 274616 | 296578
14 | 65:54.29 | 6:09.28 | 296579 | 324281


Track 1

Filename C:\01 - What's On Your Mind.wav

Pre-gap length 0:00:02.00

Peak level 98.5 %
Extraction speed 1.6 X
Track quality 99.9 %
Test CRC 60BF21C9
Copy CRC 60BF21C9
Track not present in AccurateRip database
Copy OK

Track 2

Filename C:\02 - Hold On To You.wav

Peak level 98.8 %
Extraction speed 2.5 X
Track quality 100.0 %
Test CRC 606D2837
Copy CRC 606D2837
Track not present in AccurateRip database
Copy OK

Track 3

Filename C:\03 - Strange Colour Blue (2010 Digital Remaster).wav

Peak level 99.8 %
Extraction speed 2.7 X
Track quality 100.0 %
Test CRC C2641619
Copy CRC C2641619
Track not present in AccurateRip database
Copy OK

Track 4

Filename C:\04 - Vocal (2010 Digital Remaster).wav

Peak level 99.8 %
Extraction speed 3.0 X
Track quality 100.0 %
Test CRC C21015E4
Copy CRC C21015E4
Track not present in AccurateRip database
Copy OK

Track 5

Filename C:\05 - Hands Up I Love You.wav

Peak level 99.8 %
Extraction speed 3.2 X
Track quality 100.0 %
Test CRC 2E4EA197
Copy CRC 2E4EA197
Track not present in AccurateRip database
Copy OK

Track 6

Filename C:\06 - Majesty.wav

Peak level 100.0 %
Extraction speed 3.3 X
Track quality 100.0 %
Test CRC 86A33FD8
Copy CRC 86A33FD8
Track not present in AccurateRip database
Copy OK

Track 7

Filename C:\07 - This Old House (2010 Digital Remaster).wav

Peak level 99.8 %
Extraction speed 3.5 X
Track quality 100.0 %
Test CRC 5AB0D412
Copy CRC 5AB0D412
Track not present in AccurateRip database
Copy OK

Track 8

Filename C:\08 - Lift Me.wav

Peak level 98.8 %
Extraction speed 3.6 X
Track quality 100.0 %
Test CRC 55B7FBF9
Copy CRC 55B7FBF9
Track not present in AccurateRip database
Copy OK

Track 9

Filename C:\09 - Honey Bee.wav

Peak level 99.3 %
Extraction speed 3.9 X
Track quality 100.0 %
Test CRC 65BB49F5
Copy CRC 65BB49F5
Track not present in AccurateRip database
Copy OK

Track 10

Filename C:\10 - Electric (2010 Digital Remaster).wav

Peak level 99.8 %
Extraction speed 4.0 X
Track quality 100.0 %
Test CRC 9B10D755
Copy CRC 9B10D755
Track not present in AccurateRip database
Copy OK

Track 11

Filename C:\11 - Quite Emotional.wav

Pre-gap length 0:00:01.38

Peak level 99.4 %
Extraction speed 4.0 X
Track quality 100.0 %
Test CRC 37A265E3
Copy CRC 37A265E3
Track not present in AccurateRip database
Copy OK

Track 12

Filename C:\12 - Step Into This Room And Dance for Me.wav

Peak level 99.8 %
Extraction speed 4.3 X
Track quality 100.0 %
Test CRC FA351300
Copy CRC FA351300
Track not present in AccurateRip database
Copy OK

Track 13

Filename C:\13 - A Deadend Mind.wav

Peak level 99.8 %
Extraction speed 4.4 X
Track quality 100.0 %
Test CRC 8050BD1E
Copy CRC 8050BD1E
Track not present in AccurateRip database
Copy OK

Track 14

Filename C:\14 - Sail Away.wav

Pre-gap length 0:00:01.42

Peak level 98.8 %
Extraction speed 4.6 X
Track quality 100.0 %
Test CRC 71B14E09
Copy CRC 71B14E09
Track not present in AccurateRip database
Copy OK


None of the tracks are present in the AccurateRip database

No errors occurred

End of status report

==== Log checksum 102B759D915B26BB7ED31409D00A1BE1D99B8B9CDB3428E8801F8AD7B6A1F9DA ====

foobar2000 1.2 / Dynamic Range Meter 1.1.1
log date: 2013-03-16 00:09:37

––––––––––––––––––––––––––––––––––––––––
Analyzed: Madrugada / The Best Of Madrugada (CD2)
––––––––––––––––––––––––––––––––––––––––

DR Peak RMS Duration Track
––––––––––––––––––––––––––––––––––––––––
DR5 -0.12 dB -8.69 dB 4:02 01-What's On Your Mind
DR7 -0.10 dB -8.28 dB 6:14 02-Hold On To You
DR7 -0.01 dB -10.67 dB 5:06 03-Strange Colour Blue (2010 Digital Remaster)
DR6 -0.01 dB -7.86 dB 6:27 04-Vocal (2010 Digital Remaster)
DR8 -0.01 dB -9.76 dB 5:37 05-Hands Up I Love You
DR9 0.00 dB -10.86 dB 4:23 06-Majesty
DR7 -0.01 dB -8.29 dB 5:08 07-This Old House (2010 Digital Remaster)
DR7 -0.10 dB -8.68 dB 4:06 08-Lift Me
DR8 -0.06 dB -10.00 dB 5:33 09-Honey Bee
DR7 -0.01 dB -8.42 dB 4:53 10-Electric (2010 Digital Remaster)
DR7 -0.04 dB -8.82 dB 4:19 11-Quite Emotional
DR9 -0.01 dB -11.66 dB 5:14 12-Step Into This Room And Dance for Me
DR9 -0.01 dB -10.05 dB 4:53 13-A Deadend Mind
DR6 -0.10 dB -8.21 dB 6:09 14-Sail Away
––––––––––––––––––––––––––––––––––––––––

Number of tracks: 14
Official DR value: DR7

Samplerate: 44100 Hz
Channels: 2
Bits per sample: 16
Bitrate: 835 kbps
Codec: FLAC
================================================================================

Madrugada - The Best Of Madrugada (2010) 2CD

Madrugada - The Best Of Madrugada (2010) 2CD

All thanks to original releaser

More interesting music in My Blog