Subcategories

Manu Dibango - Mboa' Su - Kamer Feelin' (2000)

Posted By: aasana
Manu Dibango - Mboa' Su - Kamer Feelin' (2000)

Manu Dibango - Mboa' Su - Kamer Feelin' (2000)
EAC Rip | FLAC (tracks+.cue) | 00:42:02 | 290,73 MB
soul, reggae, jazz, spirituals, blues, electro | Label: JPS Production

Saxophonist from Cameroon. Originally trained in classical piano, his musical career began in Brussels and Paris in the 1950s. 1960 finds him in Congo as a member of African Jazz led by Joseph Kabasele (Le Grand Kalle)! He formed his own band in Cameroon in 1963, moving to Paris in 1965. His international breakthrough came in 1972 with Soul Makossa.
Manu Dibango is extraordinarily versatile, having played almost every style of music you care to mention - soul, reggae, jazz, spirituals, blues, electro.

01. Manu Dibango - Mboa' Su (4:28)
02. Manu Dibango - Ayé Africa (Le Butcheron) (4:24)
03. Manu Dibango - Oh! Koh! (6:38)
04. Manu Dibango - Wéya Mouna (5:47)
05. Manu Dibango - Big Blow / Abélé Mood (7:36)
06. Manu Dibango - Maya Ma Bobé (7:58)
07. Manu Dibango - Sango Yésu Cristo (5:12)

Exact Audio Copy V1.3 from 2. September 2016

EAC extraction logfile from 14. November 2017, 21:05

Manu Dibango / Mboa' Su - Kamer Feelin'

Used drive : TSSTcorpCDDVDW SH-222AB Adapter: 1 ID: 0

Read mode : Secure
Utilize accurate stream : Yes
Defeat audio cache : Yes
Make use of C2 pointers : No

Read offset correction : 6
Overread into Lead-In and Lead-Out : No
Fill up missing offset samples with silence : Yes
Delete leading and trailing silent blocks : No
Null samples used in CRC calculations : Yes
Used interface : Native Win32 interface for Win NT & 2000
Gap handling : Appended to previous track

Used output format : User Defined Encoder
Selected bitrate : 1024 kBit/s
Quality : High
Add ID3 tag : No
Command line compressor : C:\Program Files (x86)\Exact Audio Copy\Flac\flac.exe
Additional command line options : -8 -e -p -V -T "ARTIST=%artist%" -T "TITLE=%title%" -T "ALBUM=%albumtitle%" -T "DATE=%year%" -T "TRACKNUMBER=%tracknr%" -T "GENRE=%genre%" -T "PERFORMER=%albuminterpret%" -T "COMPOSER=%composer%" %haslyrics%–tag-from-file=LYRICS="%lyricsfile%"%haslyrics% -T "ALBUMARTIST=%albumartist%" -T "DISCNUMBER=%cdnumber%" -T "TOTALDISCS=%totalcds%" -T "TOTALTRACKS=%numtracks%" -T "COMMENT=%comment%" %source% -o %dest%


TOC of the extracted CD

Track | Start | Length | Start sector | End sector
––––––––––––––––––––––––––––-
1 | 0:00.00 | 4:27.60 | 0 | 20084
2 | 4:27.60 | 4:24.16 | 20085 | 39900
3 | 8:52.01 | 6:37.43 | 39901 | 69718
4 | 15:29.44 | 5:46.39 | 69719 | 95707
5 | 21:16.08 | 7:35.49 | 95708 | 129881
6 | 28:51.57 | 7:58.35 | 129882 | 165766
7 | 36:50.17 | 5:11.74 | 165767 | 189165


Track 1

Filename E:\Music\Manu Dibango\Mboa' Su - Kamer Feelin' (2000) [CD FLAC] {JPS, CD JPS 64}\01 - Mboa' Su.wav

Pre-gap length 0:00:02.00

Peak level 100.0 %
Extraction speed 0.6 X
Track quality 100.0 %
Test CRC 661E0C5D
Copy CRC 661E0C5D
Accurately ripped (confidence 11) [EFF4A746] (AR v2)
Copy OK

Track 2

Filename E:\Music\Manu Dibango\Mboa' Su - Kamer Feelin' (2000) [CD FLAC] {JPS, CD JPS 64}\02 - Ayé Africa (Le Butcheron).wav

Pre-gap length 0:00:01.76

Peak level 100.0 %
Extraction speed 0.6 X
Track quality 100.0 %
Test CRC 7A7F149E
Copy CRC 7A7F149E
Accurately ripped (confidence 11) [0B62EFA9] (AR v2)
Copy OK

Track 3

Filename E:\Music\Manu Dibango\Mboa' Su - Kamer Feelin' (2000) [CD FLAC] {JPS, CD JPS 64}\03 - Oh! Koh!.wav

Pre-gap length 0:00:01.76

Peak level 100.0 %
Extraction speed 0.6 X
Track quality 100.0 %
Test CRC A871C8E0
Copy CRC A871C8E0
Accurately ripped (confidence 11) [8C752E8A] (AR v2)
Copy OK

Track 4

Filename E:\Music\Manu Dibango\Mboa' Su - Kamer Feelin' (2000) [CD FLAC] {JPS, CD JPS 64}\04 - Wéya Mouna.wav

Pre-gap length 0:00:01.76

Peak level 100.0 %
Extraction speed 0.5 X
Track quality 100.0 %
Test CRC 3032CDC6
Copy CRC 3032CDC6
Accurately ripped (confidence 11) [92C4EBD4] (AR v2)
Copy OK

Track 5

Filename E:\Music\Manu Dibango\Mboa' Su - Kamer Feelin' (2000) [CD FLAC] {JPS, CD JPS 64}\05 - Big Blow , Abélé Mood.wav

Pre-gap length 0:00:01.76

Peak level 100.0 %
Extraction speed 0.5 X
Track quality 100.0 %
Test CRC 24DD03E4
Copy CRC 24DD03E4
Accurately ripped (confidence 11) [3EBECB52] (AR v2)
Copy OK

Track 6

Filename E:\Music\Manu Dibango\Mboa' Su - Kamer Feelin' (2000) [CD FLAC] {JPS, CD JPS 64}\06 - Maya Ma Bobé.wav

Pre-gap length 0:00:01.76

Peak level 100.0 %
Extraction speed 0.5 X
Track quality 100.0 %
Test CRC 6F399F73
Copy CRC 6F399F73
Accurately ripped (confidence 11) [82E2D761] (AR v2)
Copy OK

Track 7

Filename E:\Music\Manu Dibango\Mboa' Su - Kamer Feelin' (2000) [CD FLAC] {JPS, CD JPS 64}\07 - Sango Yésu Cristo.wav

Pre-gap length 0:00:01.74

Peak level 98.8 %
Extraction speed 0.5 X
Track quality 100.0 %
Test CRC A24AEF4B
Copy CRC A24AEF4B
Accurately ripped (confidence 11) [96B86805] (AR v2)
Copy OK


All tracks accurately ripped

No errors occurred

End of status report

–– CUETools DB Plugin V2.1.6

[CTDB TOCID: 50vKQasPc_IWt2Vt7uLw.M.5NHY-] found
Submit result: 50vKQasPc_IWt2Vt7uLw.M.5NHY- has been confirmed
Track | CTDB Status
1 | (13/13) Accurately ripped
2 | (13/13) Accurately ripped
3 | (13/13) Accurately ripped
4 | (13/13) Accurately ripped
5 | (12/13) Accurately ripped
6 | (12/13) Accurately ripped
7 | (12/13) Accurately ripped


==== Log checksum F297929400F4FA41A4E29BD778E77895AF3B67828457B286A6339F37FBD85534 ====