Subcategories

Margie Joseph - Albums Collection 1973-1984 (6CD) Reissue 2007

Posted By: Designol
Margie Joseph - Albums Collection 1973-1984 (6CD) Reissue 2007

Margie Joseph - Albums Collection 1973-1984 (6CD) Reissue 2007
EAC | FLAC | Image (Cue&Log) ~ 1.47 Gb | Mp3 (CBR320) ~ 621 Mb | Scans included
Soul, Urban Soul, Funk | Label: Collectors' Choice Music | Time: 04:02:33

Collection includes: Margie Joseph (1973); Sweet Surrender (1974); Margie (1975); Hear the Words, Feel the Feeling (1976); Feeling My Way (1978); Ready For The Night (1984).

Frequently compared to Aretha Franklin, singer Margie Joseph earned neither the fame nor the critical success lavished upon the Queen of Soul, but a series of excellent records for Atlantic during the 1970s nevertheless won her a spot in the pantheon of soul cult favorites. Margaret Marie Joseph was born in Pascagoula, MS, in 1950 – she got her start in the church choir, and began pursuing a professional singing career while a student at New Orleans' Dillard University. In 1967, Joseph made her first demo recordings at the famed Muscle Shoals Sound Studios, soon after signing to the Okeh label – her debut, "Why Does a Man Have to Lie?," had the misfortune of seeing release around the same time parent label Columbia decided to close Okeh's doors, and promptly sank without a trace. Two years later Joseph signed with the Stax subsidiary Volt, and with New Orleans soul legend Willie Tee assuming production duties, she released the underground favorite "One More Chance."

Producer Freddy Briggs took the helm for Joseph's next effort, "Your Sweet Loving"; released in the summer of 1970, the single proved a minor R&B chart hit. The following year, she cracked the R&B Top 40 with a cover of the Supremes' classic "Stop! In the Name of Love," boosting sales of her fine debut LP, Margie Joseph Makes a New Impression, in the process. Another Supremes cover, "My World Is Empty Without You," formed the centerpiece of her 1972 follow-up, Phase II, but neither the single nor the album attracted much attention, and she soon signed to Atlantic to begin work with famed producer Arif Mardin, perhaps best-known for his earlier work with Aretha; indeed, Joseph's self-titled Atlantic debut was often criticized for its similarities to Franklin's classic work, although her sweetly plaintive vocals and more supple delivery were actually far more distinctive than detractors gave credit for. Joseph nevertheless scored an R&B hit in the spring of 1973 with her reading of the Al Green classic "Let's Stay Together," reaching her commercial zenith later that year when her second Atlantic album, Sweet Surrender, launched two more hit covers: "Come Lay Some Lovin' on Me" (more successful for Joseph than for the song's author, Paul Kelly) and "My Love" (a reading of the Paul McCartney & Wings smash that became her lone Top Ten R&B hit and pop Top 75 entry).

The 1975 album Margie is generally regarded by fans as the creative peak of Joseph's recording career – the singles "Words (Are Impossible)" and "I Can't Move No Mountains" are both superb, and with the lovely hit "Stay Still," she earned a rare co-writing credit. A March 1976 live date in Jamaica introduced Joseph to the vocal group Blue Magic, and they agreed to record a duet – included on the 13 Blue Magic Lane album, "What's Come Over Me" would prove her second-biggest R&B chart hit. She moved to the Atlantic subsidiary Cotillion for 1976's Hear the Words, Feel the Feeling, produced by Motown legend Lamont Dozier – the title cut reached the R&B Top 20, and the sessions also yielded the wonderful disco-era seasonal cut "Christmas Gift," included on the Funky Christmas compilation. Joseph returned to the Atlantic mothership for the Johnny Bristol-produced Feeling My Way, but when the singles "Come on Back to Me, Lover" and "I Feel His Love Getting Stronger" failed to generate much airplay, the label released her from her contract.

Joseph landed at the Philadelphia-based WMOT Records, recording an entire LP under the auspices of producer Dexter Wansel that was shelved after the company went belly-up; at this point, a frustrated Joseph quit the music business, turning to a teaching career. She returned to performing in 1982, cutting "Knockout" for the tiny HCRC label; the single was a surprise R&B hit, but HCRC went out of business as well, although the setback did allow Joseph to re-sign with Cotillion, where Narada Michael Walden agreed to produce her 1984 comeback album, Ready for the Night; the title cut was a minor hit, but again the label terminated her contract. Four years later, she signed with Ichiban to release Stay, her last new material to date, although much of her vintage Stax and Atlantic work has since been reissued on CD.

Biography by Jason Ankeny, Allmusic.com





Margie Joseph - Albums Collection 1973-1984 (6CD) Reissue 2007

Margie Joseph - Margie Joseph (1973) Reissue 2007
EAC | FLAC | Image (Cue&Log) ~ 273 Mb | Mp3 (CBR320) ~ 112 Mb | Scans included
Label: Collectors' Choice Music | # CMM-889 | Time: 00:46:02

Margie Joseph was never a huge name in soul – she never became as famous as Aretha Franklin, Gladys Knight, Chaka Khan, or Tina Turner. But she is a talented, charming singer with a recognizable delivery; although greatly influenced by Franklin, Joseph has a softer, more girlish delivery. Unfortunately, she has rarely enjoyed the sort of promotion she deserves – not at Stax, not at Atlantic. Joseph moved from Stax to Atlantic in 1972, recording this self-titled LP the following year. Produced by Arif Mardin, Margie Joseph offers an enjoyable mix of Northern and Southern soul styles. Much of the album is devoted to covers, and the songs that Joseph embraces range from Ellington Jordan's "I'd Rather Go Blind" and Al Green's "Let's Stay Together" to Brook Benton's "I'll Take Care of You." Joseph also picks a Dolly Parton song, putting a soul spin on "Touch Your Woman." Some people might be surprised to learn that Joseph recorded a tune by a country star, but then, a lot of country was very pop-minded in the early '70s. And besides, Parton is very much a crossover artist, not a hardcore honky-tonker a la Kitty Wells. This decent, if imperfect, LP has been out of print since the 1970s, but it's worth obtaining if you can track down a copy.

Review by Alex Henderson, Allmusic.com

Tracklist:

01. I Been Down (03:14)
02. Make Me Believe You'll Stay (04:27)
03. Let's Stay Together (03:27)
04. Turn Around And Love You (03:34)
05. I'm Only A Woman (04:36)
06. Let's Go Somewhere And Love (02:58)
07. You Better Know It (03:14)
08. Touch Your Woman (03:13)
09. I'll Take Care Of You (03:39)
10. I'm So Glad I'm Your Woman (03:53)
11. How Do You Spell Love (03:52)
12. I'd Rather Go Blind (05:49)


Exact Audio Copy V0.99 prebeta 4 from 23. January 2008

Отчёт EAC об извлечении, выполненном 17. декабря 2011, 14:03

Margie Joseph / Margie Joseph

Дисковод: ATAPI iHES108 2 Adapter: 1 ID: 1

Режим чтения : Достоверность
Использование точного потока : Да
Отключение кэша аудио : Да
Использование указателей C2 : Нет

Коррекция смещения при чтении : 6
Способность читать области Lead-in и Lead-out : Нет
Заполнение пропущенных сэмплов тишиной : Да
Удаление блоков с тишиной в начале и конце : Нет
При вычислениях CRC использовались нулевые сэмплы : Да
Интерфейс : Встроенный Win32-интерфейс для Win NT/2000

Выходной формат : Пользовательский кодировщик
Выбранный битрейт : 1024 kBit/s
Качество : Высокий
Добавление ID3-тэга : Нет
Утилита сжатия : C:\Program Files\Exact Audio Copy\Flac\flac.exe
Дополнительные параметры : -V -8 -T "artist=%a" -T "title=%t" -T "album=%g" -T "date=%y" -T "tracknumber=%n" -T "genre=%m" %s


TOC извлечённого CD

Трек | Старт | Длительность | Начальный сектор | Конечный сектор
––––––––––––––––––––––––––––––––––-
1 | 0:00.00 | 3:14.47 | 0 | 14596
2 | 3:14.47 | 4:27.16 | 14597 | 34637
3 | 7:41.63 | 3:27.22 | 34638 | 50184
4 | 11:09.10 | 3:34.64 | 50185 | 66298
5 | 14:43.74 | 4:36.48 | 66299 | 87046
6 | 19:20.47 | 2:58.30 | 87047 | 100426
7 | 22:19.02 | 3:14.57 | 100427 | 115033
8 | 25:33.59 | 3:13.68 | 115034 | 129576
9 | 28:47.52 | 3:39.73 | 129577 | 146074
10 | 32:27.50 | 3:53.18 | 146075 | 163567
11 | 36:20.68 | 3:52.19 | 163568 | 180986
12 | 40:13.12 | 5:49.28 | 180987 | 207189


Характеристики диапазона извлечения и сообщения об ошибках

Выбранный диапазон

Имя файла D:\EAC-FOLDER\1973-Margie Joseph - Margie Joseph\1973-Margie Joseph - Margie Joseph\Margie Joseph - Margie Joseph.wav

Пиковый уровень 100.0 %
Качество диапазона 100.0 %
CRC теста 469618D8
CRC копии 469618D8
Копирование… OK

Ошибок не произошло


AccurateRip: сводка

Трек 1 точность не определена (достоверность 2) [E1DD4AFF], AccurateRip вернул [0DE80F8A]
Трек 2 точность не определена (достоверность 2) [18C55760], AccurateRip вернул [72EC23A7]
Трек 3 точность не определена (достоверность 2) [D1F44EDE], AccurateRip вернул [E12BE347]
Трек 4 точность не определена (достоверность 2) [4E187C84], AccurateRip вернул [66A78EEF]
Трек 5 точность не определена (достоверность 2) [489B93D0], AccurateRip вернул [AD293475]
Трек 6 точность не определена (достоверность 2) [1489DDC4], AccurateRip вернул [6AF72520]
Трек 7 точность не определена (достоверность 2) [C416EE62], AccurateRip вернул [EEE50D45]
Трек 8 точность не определена (достоверность 2) [F38CD9BC], AccurateRip вернул [AF4CA734]
Трек 9 точность не определена (достоверность 2) [A2A1099B], AccurateRip вернул [B2CDA53A]
Трек 10 точность не определена (достоверность 2) [291798FD], AccurateRip вернул [148B169F]
Трек 11 точность не определена (достоверность 2) [BE83CD95], AccurateRip вернул [06D0AF77]
Трек 12 точность не определена (достоверность 2) [4A4A9760], AccurateRip вернул [61E5A8E5]

Ни один трек не прошёл проверки на точность
В вашей базе может быть иной вариант штамповки диска

Конец отчёта

foobar2000 1.2.1 / Dynamic Range Meter 1.1.1
log date: 2013-01-19 12:46:39

––––––––––––––––––––––––––––––––––––––––
Analyzed: Margie Joseph / Margie Joseph
––––––––––––––––––––––––––––––––––––––––

DR Peak RMS Duration Track
––––––––––––––––––––––––––––––––––––––––
DR13 -3.39 dB -19.51 dB 3:15 01-I Been Down
DR12 0.00 dB -15.93 dB 4:27 02-Make Me Believe You'll Stay
DR11 -0.48 dB -15.44 dB 3:27 03-Let's Stay Together
DR12 0.00 dB -17.57 dB 3:35 04-Turn Around And Love You
DR14 -2.23 dB -20.17 dB 4:37 05-I'm Only A Woman
DR12 -3.29 dB -17.48 dB 2:58 06-Let's Go Somewhere And Love
DR12 -2.26 dB -16.76 dB 3:15 07-You Better Know It
DR12 -2.39 dB -16.70 dB 3:14 08-Touch Your Woman
DR12 -1.36 dB -16.15 dB 3:40 09-I'll Take Care Of You
DR12 -2.55 dB -17.31 dB 3:53 10-I'm So Glad I'm Your Woman
DR13 -0.54 dB -15.87 dB 3:52 11-How Do You Spell Love
DR13 -4.44 dB -20.61 dB 5:49 12-I'd Rather Go Blind
––––––––––––––––––––––––––––––––––––––––

Number of tracks: 12
Official DR value: DR12

Samplerate: 44100 Hz
Channels: 2
Bits per sample: 16
Bitrate: 806 kbps
Codec: FLAC
================================================================================




Margie Joseph - Albums Collection 1973-1984 (6CD) Reissue 2007

Margie Joseph - Sweet Surrender (1974) Reissue 2007
EAC | FLAC | Image (Cue&Log) ~ 233 Mb | Mp3 (CBR320) ~ 95 Mb | Scans included
Label: Collectors' Choice Music | # CMM-890 | Time: 00:34:43

After a three year hiatus Margie Joseph surfaced on Atlantic Records smoother and more homogenized than she was at Stax. Her vocal style is similar to ex-labelmate Carla Thomas' without the nasal sound. "Come Lay Some Lovin' on Me" is a sweet soul strutter song in Joseph's most enticing voice. What man could resist her request? Remakes of Wings' "My Love," and Breads' "Baby I'm-A-Want You" are stunners. Joseph never oversings, or become hysterical. "Sweet Surrender" rivals the starkness of her Stax sides vocally but the trappings are fancier. The songs are good, but as with Stax, the promotion for Margie's product wasn't the best. Quality songs like "(Strange) I Still Love You," written by Jerry Butler, Norman Harris, and Mikki Farrow had flava but Atlantic failed to deliver.

Review by Andrew Hamilton, Allmusic.com

Tracklist:

01. Come Lay Some Lovin' On Me (03:55)
02. [Strange] I Still Love You (03:36)
03. Come With Me (03:16)
04. Baby I'm-A Want You (03:03)
05. To Know You Is To Love You (03:34)
06. If I'm Still Around Tommorrow (03:08)
07. My Love (04:00)
08. Ridin' High (03:22)
09. He's Got A Way (03:50)
10. Sweet Surrender (02:53)


Exact Audio Copy V0.99 prebeta 4 from 23. January 2008

Отчёт EAC об извлечении, выполненном 17. декабря 2011, 15:24

Margie Joseph / Sweet Surrender

Дисковод: ATAPI iHES108 2 Adapter: 1 ID: 1

Режим чтения : Достоверность
Использование точного потока : Да
Отключение кэша аудио : Да
Использование указателей C2 : Нет

Коррекция смещения при чтении : 6
Способность читать области Lead-in и Lead-out : Нет
Заполнение пропущенных сэмплов тишиной : Да
Удаление блоков с тишиной в начале и конце : Нет
При вычислениях CRC использовались нулевые сэмплы : Да
Интерфейс : Встроенный Win32-интерфейс для Win NT/2000

Выходной формат : Пользовательский кодировщик
Выбранный битрейт : 1024 kBit/s
Качество : Высокий
Добавление ID3-тэга : Нет
Утилита сжатия : C:\Program Files\Exact Audio Copy\Flac\flac.exe
Дополнительные параметры : -V -8 -T "artist=%a" -T "title=%t" -T "album=%g" -T "date=%y" -T "tracknumber=%n" -T "genre=%m" %s


TOC извлечённого CD

Трек | Старт | Длительность | Начальный сектор | Конечный сектор
––––––––––––––––––––––––––––––––––-
1 | 0:00.00 | 3:55.68 | 0 | 17692
2 | 3:55.68 | 3:36.58 | 17693 | 33950
3 | 7:32.51 | 3:16.58 | 33951 | 48708
4 | 10:49.34 | 3:03.37 | 48709 | 62470
5 | 13:52.71 | 3:34.02 | 62471 | 78522
6 | 17:26.73 | 3:08.60 | 78523 | 92682
7 | 20:35.58 | 4:00.69 | 92683 | 110751
8 | 24:36.52 | 3:22.36 | 110752 | 125937
9 | 27:59.13 | 3:50.42 | 125938 | 143229
10 | 31:49.55 | 2:53.10 | 143230 | 156214


Характеристики диапазона извлечения и сообщения об ошибках

Выбранный диапазон

Имя файла D:\EAC-FOLDER\1974-Margie Joseph - Sweet Surrender\1974-Margie Joseph - Sweet Surrender\Margie Joseph - Sweet Surrender.wav

Пиковый уровень 100.0 %
Качество диапазона 100.0 %
CRC теста 2ED67486
CRC копии 2ED67486
Копирование… OK

Ошибок не произошло


AccurateRip: сводка

Трек 1 точность не определена (достоверность 2) [1F1E74D2], AccurateRip вернул [AB69D53F]
Трек 2 точность не определена (достоверность 2) [771C2294], AccurateRip вернул [DBFCC800]
Трек 3 точность не определена (достоверность 2) [01B8C704], AccurateRip вернул [9826DE08]
Трек 4 точность не определена (достоверность 2) [3C9505CE], AccurateRip вернул [286435B7]
Трек 5 точность не определена (достоверность 2) [B2B7B7B5], AccurateRip вернул [BB0479CF]
Трек 6 точность не определена (достоверность 2) [CD9C7971], AccurateRip вернул [CDA7E6EE]
Трек 7 точность не определена (достоверность 2) [5B1C9A96], AccurateRip вернул [D99B9A20]
Трек 8 точность не определена (достоверность 2) [4FE06AE7], AccurateRip вернул [AEA0BEAF]
Трек 9 точность не определена (достоверность 2) [B3CDD671], AccurateRip вернул [6AD650AA]
Трек 10 точность не определена (достоверность 2) [E6BE7526], AccurateRip вернул [10141611]

Ни один трек не прошёл проверки на точность
В вашей базе может быть иной вариант штамповки диска

Конец отчёта

foobar2000 1.2.1 / Dynamic Range Meter 1.1.1
log date: 2013-01-19 12:47:07

––––––––––––––––––––––––––––––––––––––––
Analyzed: Margie Joseph / Sweet Surrender
––––––––––––––––––––––––––––––––––––––––

DR Peak RMS Duration Track
––––––––––––––––––––––––––––––––––––––––
DR12 -0.17 dB -15.72 dB 3:56 01-Come Lay Some Lovin' On Me
DR12 0.00 dB -14.81 dB 3:37 02-[Strange] I Still Love You
DR10 -1.53 dB -14.05 dB 3:17 03-Come With Me
DR10 0.00 dB -12.57 dB 3:03 04-Baby I'm-A Want You
DR10 0.00 dB -12.42 dB 3:34 05-To Know You Is To Love You
DR10 -3.41 dB -16.56 dB 3:09 06-If I'm Still Around Tommorrow
DR11 -0.24 dB -16.35 dB 4:01 07-My Love
DR12 -1.27 dB -15.92 dB 3:22 08-Ridin' High
DR12 -2.06 dB -17.01 dB 3:51 09-He's Got A Way
DR11 -1.04 dB -15.24 dB 2:53 10-Sweet Surrender
––––––––––––––––––––––––––––––––––––––––

Number of tracks: 10
Official DR value: DR11

Samplerate: 44100 Hz
Channels: 2
Bits per sample: 16
Bitrate: 876 kbps
Codec: FLAC
================================================================================




Margie Joseph - Albums Collection 1973-1984 (6CD) Reissue 2007

Margie Joseph - Margie (1975) Reissue 2007
EAC | FLAC | Image (Cue&Log) ~ 254 Mb | Mp3 (CBR320) ~ 102 Mb | Scans included
Label: Collectors' Choice Music | # CMM-885 | Time: 00:41:37

In 1975, Margie Joseph enjoyed one of her greatest triumphs when she teamed up with Blue Magic for a spectacular remake of the Philadelphia soul ballad "What's Come Over Me." That hit, which Blue Magic originally recorded in 1974, was included on the group's third LP, 13 Blue Magic Lane, but it wasn't included on Joseph's own 1975 LP, Margie. Unfortunately for Joseph, the success of the "What's Come Over Me" remake did little to help this modest-selling album – some R&B experts felt that Atlantic really blew it by not including that gem on Margie. But while Margie didn't do nearly as well as it should have, it's solid and pleasing. With Arif Mardin serving as producer/arranger, Joseph generally has strong material to work with – and that includes a few Carole King tunes ("Believe in Humanity" and "After All This Time"), as well as Bill Withers' bluesy "The Same Love That Made Me Laugh." Equally respectable are two songs that Joseph co-wrote with Mardin: the funky "Sign of the Times" and the lush "Stay Still" (which has so much quiet storm appeal that it was an obvious choice when saxman Ronnie Laws recorded his Fever album in 1976). Although Margie falls short of perfect, it is one of the singer's more consistent Atlantic dates and deserved a lot more attention than it received.

Review by Alex Henderson, Allmusic.com

Tracklist:

01. Sign Of The Times (03:04)
02. Believe In Humanity (02:41)
03. The Same Love That Made Me Laugh (04:43)
04. Who Gets Your Love (03:12)
05. Promise Me Your Love (04:26)
06. If You Walked Away (03:56)
07. Stay Still (05:01)
08. After All This Time (03:56)
09. Words (Are Impossible) (03:39)
10. Just As Soon As The Feeling's Over (04:08)
11. I Can't Move No Mountains (02:46)


Exact Audio Copy V0.99 prebeta 4 from 23. January 2008

Отчёт EAC об извлечении, выполненном 17. декабря 2011, 15:59

Margie Joseph / Margie

Дисковод: ATAPI iHES108 2 Adapter: 1 ID: 1

Режим чтения : Достоверность
Использование точного потока : Да
Отключение кэша аудио : Да
Использование указателей C2 : Нет

Коррекция смещения при чтении : 6
Способность читать области Lead-in и Lead-out : Нет
Заполнение пропущенных сэмплов тишиной : Да
Удаление блоков с тишиной в начале и конце : Нет
При вычислениях CRC использовались нулевые сэмплы : Да
Интерфейс : Встроенный Win32-интерфейс для Win NT/2000

Выходной формат : Пользовательский кодировщик
Выбранный битрейт : 1024 kBit/s
Качество : Высокий
Добавление ID3-тэга : Нет
Утилита сжатия : C:\Program Files\Exact Audio Copy\Flac\flac.exe
Дополнительные параметры : -V -8 -T "artist=%a" -T "title=%t" -T "album=%g" -T "date=%y" -T "tracknumber=%n" -T "genre=%m" %s


TOC извлечённого CD

Трек | Старт | Длительность | Начальный сектор | Конечный сектор
––––––––––––––––––––––––––––––––––-
1 | 0:00.00 | 3:04.13 | 0 | 13812
2 | 3:04.13 | 2:41.00 | 13813 | 25887
3 | 5:45.13 | 4:43.39 | 25888 | 47151
4 | 10:28.52 | 3:12.62 | 47152 | 61613
5 | 13:41.39 | 4:26.53 | 61614 | 81616
6 | 18:08.17 | 3:56.14 | 81617 | 99330
7 | 22:04.31 | 5:01.10 | 99331 | 121915
8 | 27:05.41 | 3:56.33 | 121916 | 139648
9 | 31:01.74 | 3:39.61 | 139649 | 156134
10 | 34:41.60 | 4:08.26 | 156135 | 174760
11 | 38:50.11 | 2:46.59 | 174761 | 187269


Характеристики диапазона извлечения и сообщения об ошибках

Выбранный диапазон

Имя файла D:\EAC-FOLDER\1975-Margie Joseph - Margie\1975-Margie Joseph - Margie\Margie Joseph - Margie.wav

Пиковый уровень 100.0 %
Качество диапазона 100.0 %
CRC теста 1DCB66EC
CRC копии 1DCB66EC
Копирование… OK

Ошибок не произошло


AccurateRip: сводка

Трек 1 точность не определена (достоверность 2) [EB65D6C0], AccurateRip вернул [456EDC7B]
Трек 2 точность не определена (достоверность 2) [F6D9E403], AccurateRip вернул [899C7065]
Трек 3 точность не определена (достоверность 2) [79A9E8F1], AccurateRip вернул [D0C93012]
Трек 4 точность не определена (достоверность 2) [642F1B44], AccurateRip вернул [C246D9F8]
Трек 5 точность не определена (достоверность 2) [4E064B56], AccurateRip вернул [99FE6ADC]
Трек 6 точность не определена (достоверность 2) [1557960A], AccurateRip вернул [13B0719B]
Трек 7 точность не определена (достоверность 2) [75D96B0B], AccurateRip вернул [4B02B6EF]
Трек 8 точность не определена (достоверность 2) [E75BE224], AccurateRip вернул [E34AAC48]
Трек 9 точность не определена (достоверность 2) [16B62CD6], AccurateRip вернул [C2E8C595]
Трек 10 точность не определена (достоверность 2) [862D698B], AccurateRip вернул [2B48148E]
Трек 11 точность не определена (достоверность 2) [0D2281C8], AccurateRip вернул [B75F54D7]

Ни один трек не прошёл проверки на точность
В вашей базе может быть иной вариант штамповки диска

Конец отчёта

foobar2000 1.2.1 / Dynamic Range Meter 1.1.1
log date: 2013-01-19 13:19:37

––––––––––––––––––––––––––––––––––––––––
Analyzed: Margie Joseph / Margie
––––––––––––––––––––––––––––––––––––––––

DR Peak RMS Duration Track
––––––––––––––––––––––––––––––––––––––––
DR13 0.00 dB -15.65 dB 3:04 01-Sign Of The Times
DR12 -0.34 dB -14.62 dB 2:41 02-Believe In Humanity
DR15 -1.03 dB -18.20 dB 4:44 03-The Same Love That Made Me Laugh
DR12 -2.11 dB -17.97 dB 3:13 04-Who Gets Your Love
DR11 -2.91 dB -15.96 dB 4:27 05-Promise Me Your Love
DR10 -5.81 dB -18.95 dB 3:56 06-If You Walked Away
DR13 0.00 dB -14.39 dB 5:01 07-Stay Still
DR13 -0.78 dB -16.64 dB 3:56 08-After All This Time
DR11 -1.43 dB -15.28 dB 3:40 09-Words (Are Impossible)
DR13 -1.18 dB -17.37 dB 4:08 10-Just As Soon As The Feeling's Over
DR10 -2.83 dB -15.23 dB 2:47 11-I Can't Move No Mountains
––––––––––––––––––––––––––––––––––––––––

Number of tracks: 11
Official DR value: DR12

Samplerate: 44100 Hz
Channels: 2
Bits per sample: 16
Bitrate: 831 kbps
Codec: FLAC
================================================================================




Margie Joseph - Albums Collection 1973-1984 (6CD) Reissue 2007

Margie Joseph - Hear the Words, Feel the Feeling (1976) Reissue 2007
EAC | FLAC | Image (Cue&Log) ~ 268 Mb | Mp3 (CBR320) ~ 112 Mb | Scans included
Label: Collectors' Choice Music | # CMM-882 | Time: 00:43:03

Joseph, an often-underrated singer, first reached success on Volt Records. At the time of this release she was best known for her time with Atlantic Records. Her early- to mid-'70s efforts were produced by Arif Mardin in a style identified with Aretha Franklin's productions of the time. Hear the Words, Feel the Feeling represents a label switch and a more definitive direction, courtesy of famed producer/writer Lamont Dozier. Those expecting a Motown-styled update of the girl group blithe attitude won't find it here. What is here is Joseph asserting her own pragmatic personality, doing rawer vocals and having great chemistry with producer Dozier. Hear the Words, Feel the Feeling often takes an almost too realistic look at relationships and the lack thereof. All of this is made better by Dozier's strong and confident production. The taunting "Didn't I Tell You" and "Why'd You Lie" mine the same problematic love terrain, with the production polish only matched by Joseph's emotive and pointed vocals. The album's best track, "Prophecy," has Joseph and Dozier again examining bleak interiors. The brilliantly arranged track has great subtle horn arrangement and impeccable rhythm guitar. Hear the Words, Feel the Feeling also has a fair amount of ballads. "All Cried Out" and "Feeling My Way" are hooky and idiosyncratic, as Joseph gives emotive and cogent performances. This album is prime and classy R&B/pop and features such esteemed players as Ray Parker, Jr. and Lee Ritenour, as well as arrangers McKinley Jackson and David Blumberg. But the star is Joseph, and she does great work here.

Review by Jason Elias, Allmusic.com

Tracklist:

01. Hear The Words, Feel The Feeling (04:31)
02. Didn't I Tell You (03:04)
03. Why'd You Lie (05:36)
04. Prophecy (05:26)
05. All Cried Out (05:41)
06. Something To Fall Back On (04:00)
07. Don't Turn The Lights Off (04:37)
08. Feeling My Way (06:23)
09. I Get Carried Away (03:40)


Exact Audio Copy V0.99 prebeta 4 from 23. January 2008

Отчёт EAC об извлечении, выполненном 17. декабря 2011, 14:50

Margie Joseph / Hear The Words, Feel The Feeling [Original Album Series 5-Pk]

Дисковод: ATAPI iHES108 2 Adapter: 1 ID: 1

Режим чтения : Достоверность
Использование точного потока : Да
Отключение кэша аудио : Да
Использование указателей C2 : Нет

Коррекция смещения при чтении : 6
Способность читать области Lead-in и Lead-out : Нет
Заполнение пропущенных сэмплов тишиной : Да
Удаление блоков с тишиной в начале и конце : Нет
При вычислениях CRC использовались нулевые сэмплы : Да
Интерфейс : Встроенный Win32-интерфейс для Win NT/2000

Выходной формат : Пользовательский кодировщик
Выбранный битрейт : 1024 kBit/s
Качество : Высокий
Добавление ID3-тэга : Нет
Утилита сжатия : C:\Program Files\Exact Audio Copy\Flac\flac.exe
Дополнительные параметры : -V -8 -T "artist=%a" -T "title=%t" -T "album=%g" -T "date=%y" -T "tracknumber=%n" -T "genre=%m" %s


TOC извлечённого CD

Трек | Старт | Длительность | Начальный сектор | Конечный сектор
––––––––––––––––––––––––––––––––––-
1 | 0:00.00 | 4:31.11 | 0 | 20335
2 | 4:31.11 | 3:04.15 | 20336 | 34150
3 | 7:35.26 | 5:36.68 | 34151 | 59418
4 | 13:12.19 | 5:26.16 | 59419 | 83884
5 | 18:38.35 | 5:41.70 | 83885 | 109529
6 | 24:20.30 | 4:00.41 | 109530 | 127570
7 | 28:20.71 | 4:37.30 | 127571 | 148375
8 | 32:58.26 | 6:23.31 | 148376 | 177131
9 | 39:21.57 | 3:40.50 | 177132 | 193681


Характеристики диапазона извлечения и сообщения об ошибках

Выбранный диапазон

Имя файла D:\EAC-FOLDER\1976-Margie Joseph\1976-Margie Joseph\Margie Joseph - Hear The Words, Feel The Feeling [Original Album Series 5-Pk].wav

Пиковый уровень 83.6 %
Качество диапазона 100.0 %
CRC теста B6344566
CRC копии B6344566
Копирование… OK

Ошибок не произошло


AccurateRip: сводка

Трек 1 точность не определена (достоверность 2) [E4075561], AccurateRip вернул [F9D9FE60]
Трек 2 точность не определена (достоверность 2) [02080968], AccurateRip вернул [BACE24BD]
Трек 3 точность не определена (достоверность 2) [B2C52E6C], AccurateRip вернул [66D1DFEA]
Трек 4 точность не определена (достоверность 2) [D4DE5F50], AccurateRip вернул [B7407BD7]
Трек 5 точность не определена (достоверность 2) [CBA4DB8A], AccurateRip вернул [37C856F0]
Трек 6 точность не определена (достоверность 2) [2E878839], AccurateRip вернул [65B44476]
Трек 7 точность не определена (достоверность 2) [224511D1], AccurateRip вернул [0A268643]
Трек 8 точность не определена (достоверность 2) [447992D8], AccurateRip вернул [6861F042]
Трек 9 точность не определена (достоверность 2) [E5FBE815], AccurateRip вернул [902AB943]

Ни один трек не прошёл проверки на точность
В вашей базе может быть иной вариант штамповки диска

Конец отчёта

foobar2000 1.2.1 / Dynamic Range Meter 1.1.1
log date: 2013-01-19 12:47:42

––––––––––––––––––––––––––––––––––––––––
Analyzed: Margie Joseph / Hear The Words, Feel The Feeling [Original Album Series 5-Pk]
––––––––––––––––––––––––––––––––––––––––

DR Peak RMS Duration Track
––––––––––––––––––––––––––––––––––––––––
DR12 -3.18 dB -17.97 dB 4:31 01-Hear The Words, Feel The Feeling
DR11 -2.70 dB -17.14 dB 3:04 02-Didn't I Tell You
DR12 -2.38 dB -17.63 dB 5:37 03-Why'd You Lie
DR13 -1.55 dB -18.08 dB 5:26 04-Prophecy
DR12 -4.23 dB -20.30 dB 5:42 05-All Cried Out
DR12 -3.75 dB -19.10 dB 4:01 06-Something To Fall Back On
DR11 -3.58 dB -17.98 dB 4:37 07-Don't Turn The Lights Off
DR13 -5.41 dB -21.71 dB 6:23 08-Feeling My Way
DR12 -5.45 dB -21.45 dB 3:41 09-I Get Carried Away
––––––––––––––––––––––––––––––––––––––––

Number of tracks: 9
Official DR value: DR12

Samplerate: 44100 Hz
Channels: 2
Bits per sample: 16
Bitrate: 759 kbps
Codec: FLAC
================================================================================




Margie Joseph - Albums Collection 1973-1984 (6CD) Reissue 2007

Margie Joseph - Feeling My Way (1978) Reissue 2007
EAC | FLAC | Image (Cue&Log) ~ 214 Mb | Mp3 (CBR320) ~ 90 Mb | Scans included
Label: Collectors' Choice Music | # CMM-883 | Time: 00:35:32


Tracklist:

01. I Feel His Love Getting Stronger (03:42)
02. Come On Back To Me Lover (03:32)
03. You Turned Me On To Love (03:58)
04. Love Talking 'Bout Baby (03:51)
05. He Came Into My Life (03:41)
06. Picture Of A Clown (03:06)
07. How Will I Know (04:01)
08. Love Takes Tears (03:25)
09. All Good Byes Aren't Gone (03:04)
10. Discover Me (And You Will Discover Love) (03:08)


Exact Audio Copy V1.0 beta 3 from 29. August 2011

Отчёт EAC об извлечении, выполненном 15. января 2012, 19:39

Margie Joseph / Feeling My Way

Дисковод: ATAPI iHES108 2 Adapter: 1 ID: 1

Режим чтения : Достоверность
Использование точного потока : Да
Отключение кэша аудио : Да
Использование указателей C2 : Нет

Коррекция смещения при чтении : 6
Способность читать области Lead-in и Lead-out : Нет
Заполнение пропущенных сэмплов тишиной : Да
Удаление блоков с тишиной в начале и конце : Нет
При вычислениях CRC использовались нулевые сэмплы : Да
Интерфейс : Встроенный Win32-интерфейс для Win NT/2000

Выходной формат : Пользовательский кодировщик
Выбранный битрейт : 1024 kBit/s
Качество : Высокий
Добавление ID3-тега : Нет
Утилита сжатия : C:\Program Files\Exact Audio Copy\Flac\flac.exe
Дополнительные параметры : -V -8 -T "Date=%year%" -T "Genre=%genre%" %source%


TOC извлечённого CD

Трек | Старт | Длительность | Начальный сектор | Конечный сектор
––––––––––––––––––––––––––––––––––-
1 | 0:00.00 | 3:42.26 | 0 | 16675
2 | 3:42.26 | 3:32.08 | 16676 | 32583
3 | 7:14.34 | 3:58.38 | 32584 | 50471
4 | 11:12.72 | 3:51.51 | 50472 | 67847
5 | 15:04.48 | 3:41.05 | 67848 | 84427
6 | 18:45.53 | 3:06.10 | 84428 | 98387
7 | 21:51.63 | 4:01.27 | 98388 | 116489
8 | 25:53.15 | 3:25.50 | 116490 | 131914
9 | 29:18.65 | 3:04.74 | 131915 | 145788
10 | 32:23.64 | 3:08.19 | 145789 | 159907


Характеристики диапазона извлечения и сообщения об ошибках

Выбранный диапазон

Имя файла D:\EAC-FOLDER\1978-Margie Joseph - Feeling My Way\1978-Margie Joseph - Feeling My Way\Margie Joseph - Feeling My Way.wav

Пиковый уровень 99.9 %
Скорость извлечения 8.0 X
Качество диапазона 99.9 %
CRC теста 120A9D19
CRC копии 120A9D19
Копирование… OK

Ошибок не произошло


AccurateRip: сводка

Трек 1 точность не определена (достоверность 2) [80B48D72], AccurateRip вернул [28BF6604] (AR v2)
Трек 2 точность не определена (достоверность 2) [B93D1A58], AccurateRip вернул [3BD86158] (AR v2)
Трек 3 точность не определена (достоверность 2) [314D5906], AccurateRip вернул [7968AD20] (AR v2)
Трек 4 точность не определена (достоверность 2) [B80306FD], AccurateRip вернул [410D7DCA] (AR v2)
Трек 5 точность не определена (достоверность 2) [6A555403], AccurateRip вернул [819EAFB8] (AR v2)
Трек 6 точность не определена (достоверность 2) [FEE8337D], AccurateRip вернул [30111F21] (AR v2)
Трек 7 точность не определена (достоверность 2) [4EF938C5], AccurateRip вернул [7CD63D92] (AR v2)
Трек 8 точность не определена (достоверность 2) [88FF8EDD], AccurateRip вернул [2365EDC8] (AR v2)
Трек 9 точность не определена (достоверность 2) [BE7D9D2D], AccurateRip вернул [F1D1E840] (AR v2)
Трек 10 точность не определена (достоверность 2) [ED13E1DE], AccurateRip вернул [8DC47BC5] (AR v2)

Ни один трек не прошёл проверки на точность
В вашей базе может быть иной вариант штамповки диска

Конец отчёта

==== Контрольная сумма отчёта 18F9C4B11630DCC740A5630F8D049C2377D3A82F412672D97CD43C7B298BDD1D ====

foobar2000 1.2.1 / Dynamic Range Meter 1.1.1
log date: 2013-01-19 12:48:12

––––––––––––––––––––––––––––––––––––––––
Analyzed: Margie Joseph / Feeling My Way
––––––––––––––––––––––––––––––––––––––––

DR Peak RMS Duration Track
––––––––––––––––––––––––––––––––––––––––
DR14 0.00 dB -17.33 dB 3:42 01-I Feel His Love Getting Stronger
DR12 -0.36 dB -15.94 dB 3:32 02-Come On Back To Me Lover
DR13 -3.12 dB -19.73 dB 3:59 03-You Turned Me On To Love
DR14 -1.46 dB -17.77 dB 3:52 04-Love Talking 'Bout Baby
DR14 -0.41 dB -16.49 dB 3:41 05-He Came Into My Life
DR12 -0.71 dB -15.94 dB 3:06 06-Picture Of A Clown
DR17 -0.94 dB -19.94 dB 4:01 07-How Will I Know
DR13 0.00 dB -16.36 dB 3:26 08-Love Takes Tears
DR14 -2.80 dB -19.78 dB 3:05 09-All Good Byes Aren't Gone
DR15 -0.25 dB -17.19 dB 3:08 10-Discover Me (And You Will Discover Love)
––––––––––––––––––––––––––––––––––––––––

Number of tracks: 10
Official DR value: DR14

Samplerate: 44100 Hz
Channels: 2
Bits per sample: 16
Bitrate: 807 kbps
Codec: FLAC
================================================================================




Margie Joseph - Albums Collection 1973-1984 (6CD) Reissue 2007

Margie Joseph - Ready For The Night (1984) Reissue 2007
EAC | FLAC | Image (Cue&Log) ~ 291 Mb | Mp3 (CBR320) ~ 113 Mb | Scans included
Label: Collectors' Choice Music | # CMM-884 | Time: 00:41:37


Tracklist:

01. Ready For The Night (05:17)
02. Midnight Lover (04:42)
03. Take Me Away Tonight (04:43)
04. Big Strong Man (06:11)
05. Tell Me (04:49)
06. Is It Gonna Be Me & You (04:57)
07. I Wants Mo' Stuff (05:29)
08. Adonai (05:25)


Exact Audio Copy V1.0 beta 3 from 29. August 2011

Отчёт EAC об извлечении, выполненном 15. января 2012, 20:02

Margie Joseph / Ready For The Night

Дисковод: ATAPI iHES108 2 Adapter: 1 ID: 1

Режим чтения : Достоверность
Использование точного потока : Да
Отключение кэша аудио : Да
Использование указателей C2 : Нет

Коррекция смещения при чтении : 6
Способность читать области Lead-in и Lead-out : Нет
Заполнение пропущенных сэмплов тишиной : Да
Удаление блоков с тишиной в начале и конце : Нет
При вычислениях CRC использовались нулевые сэмплы : Да
Интерфейс : Встроенный Win32-интерфейс для Win NT/2000

Выходной формат : Пользовательский кодировщик
Выбранный битрейт : 1024 kBit/s
Качество : Высокий
Добавление ID3-тега : Нет
Утилита сжатия : C:\Program Files\Exact Audio Copy\Flac\flac.exe
Дополнительные параметры : -V -8 -T "Date=%year%" -T "Genre=%genre%" %source%


TOC извлечённого CD

Трек | Старт | Длительность | Начальный сектор | Конечный сектор
––––––––––––––––––––––––––––––––––-
1 | 0:00.00 | 5:17.48 | 0 | 23822
2 | 5:17.48 | 4:42.49 | 23823 | 45021
3 | 10:00.22 | 4:43.34 | 45022 | 66280
4 | 14:43.56 | 6:11.36 | 66281 | 94141
5 | 20:55.17 | 4:49.49 | 94142 | 115865
6 | 25:44.66 | 4:57.01 | 115866 | 138141
7 | 30:41.67 | 5:29.49 | 138142 | 162865
8 | 36:11.41 | 5:25.20 | 162866 | 187260


Характеристики диапазона извлечения и сообщения об ошибках

Выбранный диапазон

Имя файла D:\EAC-FOLDER\1984-Margie Joseph - Ready For The Night\1984-Margie Joseph - Ready For The Night\Margie Joseph - Ready For The Night.wav

Пиковый уровень 99.9 %
Скорость извлечения 8.4 X
Качество диапазона 100.0 %
CRC теста C6455064
CRC копии C6455064
Копирование… OK

Ошибок не произошло


AccurateRip: сводка

Трек 1 : извлечено точно (доверие 1) [547166AA] (AR v1)
Трек 2 : извлечено точно (доверие 1) [A7A6E36B] (AR v1)
Трек 3 : извлечено точно (доверие 1) [073F4CB8] (AR v1)
Трек 4 : извлечено точно (доверие 1) [D1CAC853] (AR v1)
Трек 5 : извлечено точно (доверие 1) [CD152F4B] (AR v1)
Трек 6 : извлечено точно (доверие 1) [14E7B4AA] (AR v1)
Трек 7 : извлечено точно (доверие 1) [9F751E51] (AR v1)
Трек 8 : извлечено точно (доверие 1) [17B05EE0] (AR v1)

Все треки извлечены точно

Конец отчёта

==== Контрольная сумма отчёта 26F7CAAA623F47E9A70AA61A852767C9A3523F89C83D08E6141B7372507DCA17 ====

foobar2000 1.2.1 / Dynamic Range Meter 1.1.1
log date: 2013-01-19 12:48:47

––––––––––––––––––––––––––––––––––––––––
Analyzed: Margie Joseph / Ready For The Night
––––––––––––––––––––––––––––––––––––––––

DR Peak RMS Duration Track
––––––––––––––––––––––––––––––––––––––––
DR10 0.00 dB -12.27 dB 5:18 01-Ready For The Night
DR12 -0.52 dB -13.69 dB 4:43 02-Midnight Lover
DR8 -3.09 dB -15.52 dB 4:43 03-Take Me Away Tonight
DR10 -1.65 dB -12.52 dB 6:11 04-Big Strong Man
DR12 0.00 dB -13.62 dB 4:50 05-Tell Me
DR11 -0.36 dB -14.07 dB 4:57 06-Is It Gonna Be Me & You
DR10 -3.33 dB -14.91 dB 5:30 07-I Wants Mo' Stuff
DR12 -0.01 dB -13.66 dB 5:25 08-Adonai
––––––––––––––––––––––––––––––––––––––––

Number of tracks: 8
Official DR value: DR11

Samplerate: 44100 Hz
Channels: 2
Bits per sample: 16
Bitrate: 920 kbps
Codec: FLAC
================================================================================




All thanks to original releaser - Од'Родр (jlhjlh)

More interesting music in My Blog