Tags
Language
Tags

Maria Yudina - Anniversary Edition [10 CDs] (2019)

Posted By: ArlegZ
Maria Yudina - Anniversary Edition [10 CDs] (2019)

Maria Yudina - Anniversary Edition [10 CDs] (2019)
EAC | FLAC | Image (Cue & Log) ~ 2.76 Gb | Total time: 11:59:05 | Scans included
Classical | Label: Мелодия | # MEL CD 10 02590 | Recorded: 1948-1969

“This is not at all what I wrote, but play it like this. Do play it this way!” exclaimed Dmitri Shostakovich after Yudina performed the freshly written 24 Preludes and Fugues. This exclamation contains the key to understanding of Maria Yudina’s performing art – a controversial and disputable one that left a profound imprint on the cultural environment of the twentieth century. The 10-album set is the biggest part of Maria Yudina’s surviving studio and concert recordings from the Melodiya archive made between 1948 and 1969. Her best-known interpretations (Bach’s Well-Tempered Clavier, Beethoven’s early and last sonatas, Schubert’s impromptus, Mozart’s pieces) are found here side by side with twentieth-century pianistic rarities (Glazunov’s Prelude and Fugue, Prokofiev’s Things in Themselves, Lutoslawski’s Variations on a Theme of Paganini). Her recordings of Andrei Volkonsky’s Musica Stricta, the work from which the history of Russian avant-garde music began (the composer dedicated it to Yudina), Webern’s Variations and Scriabin’s Preludes, Op. 11, are released for the first time. The live (not studio!) recordings of Bach's preludes and fugues made at the concerts in 1950 and dedicated to the memory of the great cantor will be a real gift for the listeners. The major “bonus” of the set is Tchaikovsky’s First Concerto recorded by Yudina on a tour in Kiev in 1954 with the State Orchestra of the Ukrainian SSR conducted by Nathan Rachlin. “The thinker musician”, “preacher”, “medium” are the epithets that accompanied Yudina in her lifetime. As for her, she disliked being called a pianist. Playing and teaching, enlightenment, poetry, philosophy, religious devotion – all aspects of Maria Yudina’s personality constituted an inseparable synthesis. Whatever she played – her beloved Bach, Mozart, Schubert or “serialist” Webern, or Stravinsky, Beethoven, Debussy or the composers who lived in Leningrad during the siege – everything sounded unexpected, paradoxical, but extremely convincing.

Performer:
Maria Yudina, piano


CD1:
Johann Sebastian Bach
The Well-Tempered Clavier, Book I
01. Prelude and Fugue No.1 in C major, BWV 846
02. Prelude and Fugue No.2 in C minor, BWV 847
03. Prelude and Fugue No.3 in C sharp major, BWV 848
04. Prelude and Fugue No.4 in C sharp minor, BWV 849
05. Prelude and Fugue No.5 in D major, BWV 850
06. Prelude and Fugue No.6 in D minor, BWV 851
07. Prelude and Fugue No.8 in D sharp minor, BWV 853
08. Prelude and Fugue No.9 in E major, BWV 854
09. Prelude and Fugue No.10 in E minor, BWV 855
10. Prelude and Fugue No.11 in F major, BWV 856
11. Prelude and Fugue No.12 in F minor, BWV 857
12. Fugue No.17 in A flat major, BWV 862
13. Prelude and Fugue No.18 in G sharp minor, BWV 863
14. Prelude and Fugue (fragment) No.19 in A major, BWV 864
15. Prelude and Fugue No.21 in B flat major, BWV 866
16. Prelude and Fugue No.22 in B flat minor, BWV 867
17. Prelude and Fugue (fragment) No.24 in B minor, BWV 869
CD2:
Johann Sebastian Bach
The Well-Tempered Clavier, Book II
01. Prelude and Fugue No.1 in C major, BWV 870
02. Prelude and Fugue No.2 in C minor, BWV 871
03. Prelude and Fugue No.3 in C sharp major, BWV 872
04. Prelude and Fugue No.4 in C sharp minor, BWV 873
05. Prelude and Fugue No.5 in D major, BWV 874
06. Prelude and Fugue No.6 in D minor, BWV 875
07. Prelude and Fugue No.7 in E flat major, BWV 876
08. Prelude and Fugue No.8 in E flat minor, BWV 877
09. Prelude and Fugue No.9 in E major, BWV 878
10. Prelude and Fugue No.10 in E minor, BWV 879
11. Prelude and Fugue No.12 in F minor, BWV 881
12. Prelude and Fugue No.13 in F sharp major, BWV 882
13. Prelude and Fugue No.14 in F sharp minor, BWV 883
14. Prelude and Fugue No.15 in G major, BWV 884
15. Prelude and Fugue No.16 in G minor, BWV 885
16. Prelude and Fugue (fragment) No.18 in G sharp minor, BWV 887
CD3:
Johann Sebastian Bach
The Well-Tempered Clavier, Book II
01. Prelude and Fugue No.20 in A minor, BWV 889
02. Prelude and Fugue No.23 in B major, BWV 892
03. Prelude and Fugue No.24 in B minor, BWV 893
04. Chromatic Fantasia and Fugue, BWV 903
Johann Sebastian Bach – Franz Liszt
05. Prelude and Fugue in A minor (BWV 543), S. 462/1
Franz Liszt
06. Variations on a Theme of J. S. Bach, S. 180
Alexander Glazunov
07. Prelude and Fugue, Op.62
Bonus
Johann Sebastian Bach
08] Prelude and Fugue No.18 in G sharp minor, BWV 887
CD4:
Wolfgang Amadeus Mozart
01-03. Piano Sonata No. 6 in D major, K. 284
04-06. Piano Sonata No. 11 in A major, К. 331
07. 9 Variations on a Minuet by Duport in D major, K. 573
Ludwig van Beethoven
08. 12 Variations on the Russian Dance from Das Waldmädchen by Paul Wranitzky in A major, WoO 71
09. 32 Variations in C minor, WoO 80
CD5:
Ludwig van Beethoven
01-03. Piano Sonata No. 5 in C minor, Op. 10 No. 1
04-07. Piano Sonata No. 12 in A flat major, Op. 26
08-09. Piano Sonata No. 27 in E minor, Op. 90
10-13. Piano Sonata No. 28 in A major, Op. 101
CD6:
Ludwig van Beethoven
01-04. Piano Sonata No. 29 in B flat major, Hammerklavier, Op. 106
05-06. Piano Sonata No. 32 in C minor, Op. 111
CD7:
Franz Schubert
01-04. Four Impromptus, Op. 90
05-08 Four Impromptus, Op. 142
Franz Schubert – Franz Liszt
09. Am Meer, S. 560 No. 4
CD8:
Modest Mussorgsky
01. Meditation (Album leaf)
02. A Tear
03. Rêverie
04. Scherzo in C sharp minor
Nikolay Myaskovsky
From Yellowed Leaves (7 Bagatelles for Piano), Op. 31
05. 1. Andante
06. 2. Un poco sostenuto malinconico e abbandonamente
07. 3. Andante cantabile
08. 6. Vivo - Largo
09. 7. Moderato
Karol Szymanowski
10. Variations in B flat minor, Op. 3
11-19. 9 Preludes, Op. 1
Anton Webern
20-22. Variations, Op. 27
Andrei Volkonsky
23. Musica stricta. Fantasia ricercata, Op. 11
Sergei Prokofiev
24. Things in Themselves, Op. 45 No. 1
CD9:
Claude Debussy
01-03. Cello Sonata in D minor, CD 144; L. 135
Sergei Prokofiev
04-07. Flute Sonata, Op. 94
08-10. Cello Sonata in C major, Op. 119
Kazimierz Serocki
11-13. Sonatina for trombone and piano (1954)
Igor Stravinsky
14. Circus Polka (1942)
Witold Lutosławski
15. Variations for two pianos on a Theme by Paganini (1941)
Maria Yudina, piano
Natalia Shakhovskaya, cello (1–3)
Nahum Saidel, flute (4–7)
Lev Evgrafov, cello (8–10)
Grigory Khersonsky, trombone (11–13)
Maria Drozdova, piano (14)
Yuri Ponizovkin, piano (15)

CD10:
Alexander Scriabin
01. Prelude in A minor, Op.11 No.2
02. Prelude in E minor, Op.11 No.4
03. Prelude in D major, Op.11 No.5
04. Prelude in E major, Op.11 No.9
05. Prelude in C sharp minor, Op.11 No.10
06. Prelude in G flat major, Op.11 No.13
07. Prelude in D flat major, Op.11 No.15
08. Prelude in B flat minor, Op.11 No.16
09. Prelude in A flat major, Op.11 No.17
10. Prelude in G minor, Op.11 No.22
André Jolivet
Mana (1935)
11. II. L'Oiseau
12. III. La Princesse de Bali
13. IV. La Chèvre
14. V. La Vache
Igor Stravinsky
15-17. Septet for clarinet, horn, bassoon, piano, violin, viola and cello (1953)
Bonus
Pyotr Tchaikovsky
18-20. Piano Concerto No. 1 in B flat minor, Op. 23
Maria Yudina, piano
Liya Melik-Muradian, violin (15–17)
Igor Malkin, viola (15–17)
Alexey Esipov, cello (15–17)
Valery Bezruchenko, clarinet (15–17)
Vitaly Buianovsky, horn (15–17)
Sergei Krasavin, bassoon (15–17)
Ukrainian State Symphony Orchestra
Natan Rakhlin, conductor (18–20)




Exact Audio Copy V1.5 from 20. February 2020

EAC extraction logfile from 11. March 2021, 23:00

Maria Yudina / Maria Yudina - Anniversary Edition - CD01 - Bach

Used drive : ASUS SDRW-08U7M-U Adapter: 1 ID: 0

Read mode : Secure
Utilize accurate stream : Yes
Defeat audio cache : Yes
Make use of C2 pointers : No

Read offset correction : 6
Overread into Lead-In and Lead-Out : No
Fill up missing offset samples with silence : Yes
Delete leading and trailing silent blocks : No
Null samples used in CRC calculations : Yes
Used interface : Native Win32 interface for Win NT & 2000

Used output format : User Defined Encoder
Selected bitrate : 128 kBit/s
Quality : High
Add ID3 tag : No
Command line compressor : C:\Program Files (x86)\Exact Audio Copy\Flac\flac.exe
Additional command line options : -V -8 -T "Date=%year%" -T "Genre=%genre%" %source%


TOC of the extracted CD

Track | Start | Length | Start sector | End sector
––––––––––––––––––––––––––––-
1 | 0:00.00 | 4:08.27 | 0 | 18626
2 | 4:08.27 | 3:23.71 | 18627 | 33922
3 | 7:32.23 | 3:31.71 | 33923 | 49818
4 | 11:04.19 | 8:06.43 | 49819 | 86311
5 | 19:10.62 | 3:04.40 | 86312 | 100151
6 | 22:15.27 | 3:29.24 | 100152 | 115850
7 | 25:44.51 | 9:34.21 | 115851 | 158921
8 | 35:18.72 | 2:56.51 | 158922 | 172172
9 | 38:15.48 | 3:41.16 | 172173 | 188763
10 | 41:56.64 | 2:07.58 | 188764 | 198346
11 | 44:04.47 | 7:07.66 | 198347 | 230437
12 | 51:12.38 | 2:31.56 | 230438 | 241818
13 | 53:44.19 | 5:04.48 | 241819 | 264666
14 | 58:48.67 | 2:29.13 | 264667 | 275854
15 | 61:18.05 | 3:09.74 | 275855 | 290103
16 | 64:28.04 | 6:34.43 | 290104 | 319696
17 | 71:02.47 | 7:05.21 | 319697 | 351592


Range status and errors

Selected range

Filename C:\temp\Maria Yudina - Anniversary Edition - 2019\CD01\Maria Yudina - Anniversary Edition - CD01.wav

Peak level 85.3 %
Extraction speed 5.3 X
Range quality 100.0 %
Test CRC 5FFD57EE
Copy CRC 5FFD57EE
Copy OK

No errors occurred


AccurateRip summary

Track 1 accurately ripped (confidence 2) [C6513C9E] (AR v2)
Track 2 accurately ripped (confidence 2) [36403082] (AR v2)
Track 3 accurately ripped (confidence 2) [4AB21B76] (AR v2)
Track 4 accurately ripped (confidence 2) [67273CAA] (AR v2)
Track 5 accurately ripped (confidence 2) [708722E0] (AR v2)
Track 6 accurately ripped (confidence 2) [3A82F73F] (AR v2)
Track 7 accurately ripped (confidence 2) [0FEDCB3F] (AR v2)
Track 8 accurately ripped (confidence 2) [44322E0A] (AR v2)
Track 9 accurately ripped (confidence 2) [6CA93F19] (AR v2)
Track 10 accurately ripped (confidence 2) [96C54588] (AR v2)
Track 11 accurately ripped (confidence 2) [AE3D7B5E] (AR v2)
Track 12 accurately ripped (confidence 2) [AD998622] (AR v2)
Track 13 accurately ripped (confidence 2) [92E7A6BB] (AR v2)
Track 14 accurately ripped (confidence 2) [26790F7F] (AR v2)
Track 15 accurately ripped (confidence 2) [4216DE0B] (AR v2)
Track 16 accurately ripped (confidence 2) [F6E556FF] (AR v2)
Track 17 accurately ripped (confidence 2) [FF16E9FA] (AR v2)

All tracks accurately ripped

End of status report

==== Log checksum 21E13620E55D2CD719C1217503545616725D4AB57CA05729142FB53368C84885 ====


Exact Audio Copy V1.5 from 20. February 2020

EAC extraction logfile from 11. March 2021, 23:55

Maria Yudina / Maria Yudina - Anniversary Edition - CD02 - Bach

Used drive : ASUS SDRW-08U7M-U Adapter: 1 ID: 0

Read mode : Secure
Utilize accurate stream : Yes
Defeat audio cache : Yes
Make use of C2 pointers : No

Read offset correction : 6
Overread into Lead-In and Lead-Out : No
Fill up missing offset samples with silence : Yes
Delete leading and trailing silent blocks : No
Null samples used in CRC calculations : Yes
Used interface : Native Win32 interface for Win NT & 2000

Used output format : User Defined Encoder
Selected bitrate : 128 kBit/s
Quality : High
Add ID3 tag : No
Command line compressor : C:\Program Files (x86)\Exact Audio Copy\Flac\flac.exe
Additional command line options : -V -8 -T "Date=%year%" -T "Genre=%genre%" %source%


TOC of the extracted CD

Track | Start | Length | Start sector | End sector
––––––––––––––––––––––––––––-
1 | 0:00.00 | 3:51.25 | 0 | 17349
2 | 3:51.25 | 3:42.01 | 17350 | 34000
3 | 7:33.26 | 2:48.21 | 34001 | 46621
4 | 10:21.47 | 5:28.41 | 46622 | 71262
5 | 15:50.13 | 5:54.02 | 71263 | 97814
6 | 21:44.15 | 2:59.60 | 97815 | 111299
7 | 24:44.00 | 3:46.65 | 111300 | 128314
8 | 28:30.65 | 7:24.35 | 128315 | 161649
9 | 35:55.25 | 4:39.15 | 161650 | 182589
10 | 40:34.40 | 4:22.33 | 182590 | 202272
11 | 44:56.73 | 4:03.65 | 202273 | 220562
12 | 49:00.63 | 5:27.29 | 220563 | 245116
13 | 54:28.17 | 5:54.15 | 245117 | 271681
14 | 60:22.32 | 3:18.61 | 271682 | 286592
15 | 63:41.18 | 4:27.64 | 286593 | 306681
16 | 68:09.07 | 6:18.40 | 306682 | 335071


Range status and errors

Selected range

Filename C:\temp\Maria Yudina - Anniversary Edition - 2019\CD02\Maria Yudina - Anniversary Edition - CD02.wav

Peak level 88.0 %
Extraction speed 5.1 X
Range quality 100.0 %
Test CRC 5E24DE6F
Copy CRC 5E24DE6F
Copy OK

No errors occurred


AccurateRip summary

Track 1 accurately ripped (confidence 2) [80F7D5A9] (AR v2)
Track 2 accurately ripped (confidence 2) [FEFD171F] (AR v2)
Track 3 accurately ripped (confidence 2) [DD85D4D6] (AR v2)
Track 4 accurately ripped (confidence 2) [8DBB2851] (AR v2)
Track 5 accurately ripped (confidence 2) [D738D1A7] (AR v2)
Track 6 accurately ripped (confidence 2) [C40DEEFB] (AR v2)
Track 7 accurately ripped (confidence 2) [0FD7AAA5] (AR v2)
Track 8 accurately ripped (confidence 2) [76D87F93] (AR v2)
Track 9 accurately ripped (confidence 2) [D181A3E4] (AR v2)
Track 10 accurately ripped (confidence 2) [65631EFE] (AR v2)
Track 11 accurately ripped (confidence 2) [3B848911] (AR v2)
Track 12 accurately ripped (confidence 2) [B6B8E299] (AR v2)
Track 13 accurately ripped (confidence 2) [FD114494] (AR v2)
Track 14 accurately ripped (confidence 1) [B3710D35] (AR v2)
Track 15 accurately ripped (confidence 2) [8A08BE54] (AR v2)
Track 16 accurately ripped (confidence 2) [EA313B0F] (AR v2)

All tracks accurately ripped

End of status report

==== Log checksum 6C25B5D998470E2E4155D560EB49331CBD5DC8BC5276C7003FAF1A864D9DFA7A ====


Exact Audio Copy V1.5 from 20. February 2020

EAC extraction logfile from 12. March 2021, 20:42

Maria Yudina / Maria Yudina - Anniversary Edition - CD03

Used drive : ASUS SDRW-08U7M-U Adapter: 1 ID: 0

Read mode : Secure
Utilize accurate stream : Yes
Defeat audio cache : Yes
Make use of C2 pointers : No

Read offset correction : 6
Overread into Lead-In and Lead-Out : No
Fill up missing offset samples with silence : Yes
Delete leading and trailing silent blocks : No
Null samples used in CRC calculations : Yes
Used interface : Native Win32 interface for Win NT & 2000

Used output format : User Defined Encoder
Selected bitrate : 128 kBit/s
Quality : High
Add ID3 tag : No
Command line compressor : C:\Program Files (x86)\Exact Audio Copy\Flac\flac.exe
Additional command line options : -V -8 -T "Date=%year%" -T "Genre=%genre%" %source%


TOC of the extracted CD

Track | Start | Length | Start sector | End sector
––––––––––––––––––––––––––––-
1 | 0:00.00 | 6:46.32 | 0 | 30481
2 | 6:46.32 | 4:39.39 | 30482 | 51445
3 | 11:25.71 | 3:21.18 | 51446 | 66538
4 | 14:47.14 | 11:19.22 | 66539 | 117485
5 | 26:06.36 | 9:53.19 | 117486 | 161979
6 | 35:59.55 | 16:20.50 | 161980 | 235529
7 | 52:20.30 | 11:50.03 | 235530 | 288782
8 | 64:10.33 | 7:05.10 | 288783 | 320667


Range status and errors

Selected range

Filename C:\temp\Maria Yudina - Anniversary Edition - 2019\CD03\Maria Yudina - Anniversary Edition - CD03.wav

Peak level 85.7 %
Extraction speed 5.0 X
Range quality 100.0 %
Test CRC 0F83081A
Copy CRC 0F83081A
Copy OK

No errors occurred


AccurateRip summary

Track 1 accurately ripped (confidence 2) [8C703A9C] (AR v2)
Track 2 accurately ripped (confidence 2) [37FC9470] (AR v2)
Track 3 accurately ripped (confidence 2) [434DABA4] (AR v2)
Track 4 accurately ripped (confidence 2) [290F7CD3] (AR v2)
Track 5 accurately ripped (confidence 2) [BED88162] (AR v2)
Track 6 accurately ripped (confidence 2) [2057F291] (AR v2)
Track 7 accurately ripped (confidence 1) [B289C586] (AR v2)
Track 8 accurately ripped (confidence 2) [F8296FB4] (AR v2)

All tracks accurately ripped

End of status report

==== Log checksum 5D0294B96B131328CA519C983AC177258692A942ACAC0814566C571105FF36CB ====


Maria Yudina - Anniversary Edition [10 CDs] (2019)

Thanks to the original releaser