Tags
Language
Tags

Marillion - Script For A Jester's Tear (1983) [2020, 5-Disc Deluxe Limited Edition Book Set]

Posted By: v3122
Marillion - Script For A Jester's Tear (1983) [2020, 5-Disc Deluxe Limited Edition Book Set]

Marillion - Script For A Jester's Tear (1983)
EAC | Flac(Image) + Cue + Log & MP3 CBR 320Kbps
4CD | Parlophone, 0190295316679 | ~ 1216 or 528 Mb | Artwork(png) -> 604 Mb
Blu-ray: MPEG-4 AVC 1080p, 23.976 fps, 16:9, High Profile 4.1
LPCM 2.0 & 5.1, 48 kHz, 16-bit & 24-bit, 96 kHz / DTS-HD MA 5.1, 96 kHz, 24-bit
Progressive Rock

Originally released in March 1983, Script for a Jester’s Tear was certified platinum in the band’s native U.K. where it reached number seven on the Albums Chart and spawned two Top 40 singles: “He Knows You Know” (#35) and “Garden Party” (#16).

-
This Deluxe, 4CD/1 Blu-ray Edition opens with a newly remixed stereo version of Script for a Jester’s Tear by Andy Bradfield and Avril Mackintosh. In addition, the collection also features new stereo remixes for the b-side “Charting The Single” that was released in January 1982, as well as the Market Square Heroes EP that followed in October that same year.
-
The Blu-ray features 96k/24-bit versions of the new stereo remixes for Script for a Jester’s Tear and the Market Square Heroes EP, as well as the Live at the Marquee Club concert. The disc also includes a 5.1 Surround Remix of Script for a Jester’s Tear. Rounding out the collection is a new documentary with band interviews that covers the 1979 formation of Marillion in Aylesbury through the release of Script for a Jester’s Tear in 1983…

~ amazon
Marillion - Script For A Jester's Tear (1983) [2020, 5-Disc Deluxe Limited Edition Book Set]

Marillion - Script For A Jester's Tear (1983) [2020, 5-Disc Deluxe Limited Edition Book Set]

Marillion - Script For A Jester's Tear (1983):

Marillion - Script For A Jester's Tear (1983) [2020, 5-Disc Deluxe Limited Edition Book Set]

Tracklist CD1 - Album / Remaster 2020:

01 Script For A Jester’s Tear
02 He Knows You Know
03 The Web
04 Garden Party
05 Chelsea Monday
06 Forgotten Sons

Exact Audio Copy V1.3 from 2. September 2016

EAC extraction logfile from 2. May 2020, 19:01

Marillion / Script For A Jester's Tear

Used drive : PLEXTOR BD-R PX-B950SA Adapter: 1 ID: 1

Read mode : Secure
Utilize accurate stream : Yes
Defeat audio cache : Yes
Make use of C2 pointers : No

Read offset correction : 6
Overread into Lead-In and Lead-Out : No
Fill up missing offset samples with silence : Yes
Delete leading and trailing silent blocks : No
Null samples used in CRC calculations : Yes
Used interface : Native Win32 interface for Win NT & 2000

Used output format : Internal WAV Routines
Sample format : 44.100 Hz; 16 Bit; Stereo


TOC of the extracted CD

Track | Start | Length | Start sector | End sector
––––––––––––––––––––––––––––-
1 | 0:00.00 | 8:43.03 | 0 | 39227
2 | 8:43.03 | 5:23.55 | 39228 | 63507
3 | 14:06.58 | 8:50.65 | 63508 | 103322
4 | 22:57.48 | 7:20.05 | 103323 | 136327
5 | 30:17.53 | 8:17.62 | 136328 | 173664
6 | 38:35.40 | 8:25.37 | 173665 | 211576


Range status and errors

Selected range

Filename C:\Users\Alex\Desktop\ALLexxess\Marillion\1983 Script For A Jester's Tear (5-Disc Book Set Parlophone Records 2020)\CD1 Album\Marillion - Script For A Jester's Tear.wav

Peak level 98.8 %
Extraction speed 7.0 X
Range quality 99.9 %
Test CRC 304238D4
Copy CRC 304238D4
Copy OK

No errors occurred


AccurateRip summary

Track 1 accurately ripped (confidence 2) [DDDE5592] (AR v2)
Track 2 accurately ripped (confidence 2) [4966546D] (AR v2)
Track 3 accurately ripped (confidence 2) [182C0859] (AR v2)
Track 4 accurately ripped (confidence 2) [3714BCF1] (AR v2)
Track 5 accurately ripped (confidence 2) [C3492BBF] (AR v2)
Track 6 accurately ripped (confidence 2) [D3D8FD3D] (AR v2)

All tracks accurately ripped

End of status report

–– CUETools DB Plugin V2.1.6

[CTDB TOCID: znJG1V3Z3n33P.XvYVINlLIg.nQ-] found
Submit result: znJG1V3Z3n33P.XvYVINlLIg.nQ- has been confirmed
Track | CTDB Status
1 | (130/130) Accurately ripped
2 | (130/130) Accurately ripped
3 | (130/130) Accurately ripped
4 | (130/130) Accurately ripped
5 | (130/130) Accurately ripped
6 | (130/130) Accurately ripped


==== Log checksum B0D77A31DB453349835F8978DC603DD523DFCC922A857BB86D5CE4AB5ED2E99B ====


[CUETools log; Date: 03.05.2020 17:33:00; Version: 2.1.4]
[AccurateRip ID: 000b1a4d-003b4f5e-560b0506] found.
Track [ CRC | V2 ] Status
01 [4eec983c|ddde5592] (0+2/2) Accurately ripped
02 [f337cf39|4966546d] (0+2/2) Accurately ripped
03 [5821758b|182c0859] (0+2/2) Accurately ripped
04 [8cef9bff|3714bcf1] (0+2/2) Accurately ripped
05 [9017206b|c3492bbf] (0+2/2) Accurately ripped
06 [b0733c39|d3d8fd3d] (0+2/2) Accurately ripped

Track Peak [ CRC32 ] [W/O NULL] [ LOG ]
– 98,8 [304238D4] [C53BE466] CRC32
01 98,8 [33D5AC70] [CF9396ED]
02 98,8 [7BFAAA6F] [E41C9308]
03 98,8 [3DD77570] [9B0D3471]
04 98,8 [69F8C3B2] [E10089B4]
05 98,8 [4D32DE16] [75640981]
06 98,8 [94595EA5] [D9D74CD8]



Tracklist CD2 - Market Square Heroes EP / 2020 Stereo Remix:

01 Market Square Heroes
02 Three Boats Down From The Candy
03 Grendel
Bonus Track
04 Charting The Single / 2020 Remaster

Exact Audio Copy V1.3 from 2. September 2016

EAC extraction logfile from 2. May 2020, 18:36

Marillion / Market Square Heroes EP

Used drive : PLEXTOR BD-R PX-B950SA Adapter: 1 ID: 1

Read mode : Secure
Utilize accurate stream : Yes
Defeat audio cache : Yes
Make use of C2 pointers : No

Read offset correction : 6
Overread into Lead-In and Lead-Out : No
Fill up missing offset samples with silence : Yes
Delete leading and trailing silent blocks : No
Null samples used in CRC calculations : Yes
Used interface : Native Win32 interface for Win NT & 2000

Used output format : Internal WAV Routines
Sample format : 44.100 Hz; 16 Bit; Stereo


TOC of the extracted CD

Track | Start | Length | Start sector | End sector
––––––––––––––––––––––––––––-
1 | 0:00.00 | 4:18.27 | 0 | 19376
2 | 4:18.27 | 4:30.19 | 19377 | 39645
3 | 8:48.46 | 17:17.28 | 39646 | 117448
4 | 26:05.74 | 4:47.61 | 117449 | 139034


Range status and errors

Selected range

Filename C:\Users\Alex\Desktop\ALLexxess\Marillion\1983 Script For A Jester's Tear (5-Disc Book Set Parlophone Records 2020)\CD2 Market Square Heroes EP\Marillion - Market Square Heroes EP.wav

Peak level 98.8 %
Extraction speed 6.4 X
Range quality 100.0 %
Test CRC 8F03CF1B
Copy CRC 8F03CF1B
Copy OK

No errors occurred


AccurateRip summary

Track 1 accurately ripped (confidence 1) [C8C85B5A] (AR v2)
Track 2 accurately ripped (confidence 1) [2E3D09BA] (AR v2)
Track 3 accurately ripped (confidence 1) [48D5C739] (AR v2)
Track 4 accurately ripped (confidence 1) [6F1B8DC3] (AR v2)

All tracks accurately ripped

End of status report

–– CUETools DB Plugin V2.1.6

[CTDB TOCID: UmJ4u2F1sS8WBlgpxFzFfRDZq6s-] found
Submit result: UmJ4u2F1sS8WBlgpxFzFfRDZq6s- has been confirmed
Track | CTDB Status
1 | (128/128) Accurately ripped
2 | (128/128) Accurately ripped
3 | (127/128) Accurately ripped
4 | (128/128) Accurately ripped


==== Log checksum 83B5F1FA68B9B7AA117BD94ED9AB56230797CC0BEC685E8E08747E6F43A96F1D ====


[CUETools log; Date: 03.05.2020 17:34:27; Version: 2.1.4]
[AccurateRip ID: 0004d073-00142ea8-25073d04] found.
Track [ CRC | V2 ] Status
01 [6c95501b|c8c85b5a] (0+1/1) Accurately ripped
02 [4b524683|2e3d09ba] (0+1/1) Accurately ripped
03 [56cf0ea4|48d5c739] (0+1/1) Accurately ripped
04 [d334847f|6f1b8dc3] (0+1/1) Accurately ripped

Track Peak [ CRC32 ] [W/O NULL] [ LOG ]
– 98,8 [8F03CF1B] [6F06A1CC] CRC32
01 98,8 [5111D3F0] [F377E358]
02 98,8 [BBDEC6E8] [5DB4A214]
03 98,8 [C027F5E8] [CF4B0759]
04 98,8 [446CCECD] [78958443]


Marillion - Script For A Jester's Tear (1983) [2020, 5-Disc Deluxe Limited Edition Book Set]

Tracklist CD3 - Live At The Marquee Club, London (12/29/82):

Part 1
01 Garden Party
02 Three Boats Down From The Candy
03 Grendel
04 Chelsea Monday
05 He Knows You Know

Exact Audio Copy V1.3 from 2. September 2016

EAC extraction logfile from 2. May 2020, 18:09

Marillion / Live At The Marquee Club 1982 Part 1

Used drive : PLEXTOR BD-R PX-B950SA Adapter: 1 ID: 1

Read mode : Secure
Utilize accurate stream : Yes
Defeat audio cache : Yes
Make use of C2 pointers : No

Read offset correction : 6
Overread into Lead-In and Lead-Out : No
Fill up missing offset samples with silence : Yes
Delete leading and trailing silent blocks : No
Null samples used in CRC calculations : Yes
Used interface : Native Win32 interface for Win NT & 2000

Used output format : Internal WAV Routines
Sample format : 44.100 Hz; 16 Bit; Stereo


TOC of the extracted CD

Track | Start | Length | Start sector | End sector
––––––––––––––––––––––––––––-
1 | 0:00.00 | 8:47.42 | 0 | 39566
2 | 8:47.42 | 5:24.61 | 39567 | 63927
3 | 14:12.28 | 19:24.47 | 63928 | 151274
4 | 33:37.00 | 9:14.60 | 151275 | 192884
5 | 42:51.60 | 5:33.36 | 192885 | 217895


Range status and errors

Selected range

Filename C:\Users\Alex\Desktop\ALLexxess\Marillion\1983 Script For A Jester's Tear (5-Disc Book Set Parlophone Records 2020)\CD3-CD4 Live At The Marquee Club, London ’82\Marillion - Live At The Marquee Club 1982 Part 1.wav

Peak level 98.8 %
Extraction speed 7.1 X
Range quality 100.0 %
Test CRC 4854A294
Copy CRC 4854A294
Copy OK

No errors occurred


AccurateRip summary

Track 1 accurately ripped (confidence 1) [B87D2554] (AR v2)
Track 2 accurately ripped (confidence 1) [D34E13AC] (AR v2)
Track 3 accurately ripped (confidence 1) [B4F5CEE5] (AR v2)
Track 4 accurately ripped (confidence 1) [FEEB8281] (AR v2)
Track 5 accurately ripped (confidence 1) [79630EE9] (AR v2)

All tracks accurately ripped

End of status report

–– CUETools DB Plugin V2.1.6

[CTDB TOCID: cnv3dMeSYVhFNVjcJ3cizJszCq8-] found
Submit result: cnv3dMeSYVhFNVjcJ3cizJszCq8- has been confirmed
Track | CTDB Status
1 | (110/110) Accurately ripped
2 | (110/110) Accurately ripped
3 | (110/110) Accurately ripped
4 | (110/110) Accurately ripped
5 | (110/110) Accurately ripped


==== Log checksum A31ACA486CB29675CFA9A540C61AE0B90712951A3BD353754428B4336B409706 ====


[CUETools log; Date: 03.05.2020 17:36:53; Version: 2.1.4]
[AccurateRip ID: 000a27cf-0030082c-400b5905] found.
Track [ CRC | V2 ] Status
01 [2ecb2e11|b87d2554] (0+1/1) Accurately ripped
02 [0de6ca66|d34e13ac] (0+1/1) Accurately ripped
03 [f5b70d20|b4f5cee5] (0+1/1) Accurately ripped
04 [30be7227|feeb8281] (0+1/1) Accurately ripped
05 [b228e5ab|79630ee9] (0+1/1) Accurately ripped

Track Peak [ CRC32 ] [W/O NULL] [ LOG ]
– 98,8 [4854A294] [EDC467CC] CRC32
01 98,8 [8B24B4A1] [869D4BF6]
02 98,8 [037FF34F] [8AC4D9CD]
03 98,8 [B19C5168] [9F1C2A22]
04 98,8 [AED5A76F] [8EFE68F2]
05 98,8 [C4B2A626] [256B3302]


Marillion - Script For A Jester's Tear (1983) [2020, 5-Disc Deluxe Limited Edition Book Set]

Tracklist CD4 - Live At The Marquee Club, London (12/29/82):

Part 2
01 The Web
02 Script For A Jesters Tear
03 Forgotten Sons
04 Market Square Heroes
05 Margaret

Exact Audio Copy V1.3 from 2. September 2016

EAC extraction logfile from 2. May 2020, 17:42

Marillion / Live At The Marquee Club 1982 Part 2

Used drive : PLEXTOR BD-R PX-B950SA Adapter: 1 ID: 1

Read mode : Secure
Utilize accurate stream : Yes
Defeat audio cache : Yes
Make use of C2 pointers : No

Read offset correction : 6
Overread into Lead-In and Lead-Out : No
Fill up missing offset samples with silence : Yes
Delete leading and trailing silent blocks : No
Null samples used in CRC calculations : Yes
Used interface : Native Win32 interface for Win NT & 2000

Used output format : Internal WAV Routines
Sample format : 44.100 Hz; 16 Bit; Stereo


TOC of the extracted CD

Track | Start | Length | Start sector | End sector
––––––––––––––––––––––––––––-
1 | 0:00.00 | 11:24.61 | 0 | 51360
2 | 11:24.61 | 9:35.01 | 51361 | 94486
3 | 20:59.62 | 11:25.17 | 94487 | 145878
4 | 32:25.04 | 5:27.48 | 145879 | 170451
5 | 37:52.52 | 6:45.07 | 170452 | 200833


Range status and errors

Selected range

Filename C:\Users\Alex\Desktop\ALLexxess\Marillion\1983 Script For A Jester's Tear (5-Disc Book Set Parlophone Records 2020)\CD3-CD4 Live At The Marquee Club, London ’82\Marillion - Live At The Marquee Club 1982 Part 2.wav

Peak level 98.8 %
Extraction speed 7.0 X
Range quality 100.0 %
Test CRC 7F4250AB
Copy CRC 7F4250AB
Copy OK

No errors occurred


AccurateRip summary

Track 1 accurately ripped (confidence 1) [37E1B07D] (AR v2)
Track 2 accurately ripped (confidence 1) [3F45F50D] (AR v2)
Track 3 accurately ripped (confidence 1) [E1B7C8A3] (AR v2)
Track 4 accurately ripped (confidence 1) [12FC3121] (AR v2)
Track 5 accurately ripped (confidence 1) [AB5956E6] (AR v2)

All tracks accurately ripped

End of status report

–– CUETools DB Plugin V2.1.6

[CTDB TOCID: f40FoZsBOVHKG7fZc8EFBAw__D0-] found
Submit result: f40FoZsBOVHKG7fZc8EFBAw__D0- has been confirmed
Track | CTDB Status
1 | (113/113) Accurately ripped
2 | (113/113) Accurately ripped
3 | (113/113) Accurately ripped
4 | (113/113) Accurately ripped
5 | (113/113) Accurately ripped


==== Log checksum 5EB5EF8EB0FA5C637CE85F30AB7755A0F28102ADF74B46C48DE21F2F8495CE73 ====


[CUETools log; Date: 03.05.2020 17:39:10; Version: 2.1.4]
[AccurateRip ID: 000a1de5-002e3014-440a7505] found.
Track [ CRC | V2 ] Status
01 [eb903b4f|37e1b07d] (0+1/1) Accurately ripped
02 [ca9445cf|3f45f50d] (0+1/1) Accurately ripped
03 [71011e5a|e1b7c8a3] (0+1/1) Accurately ripped
04 [76b8a4ee|12fc3121] (0+1/1) Accurately ripped
05 [c5bde108|ab5956e6] (0+1/1) Accurately ripped

Track Peak [ CRC32 ] [W/O NULL] [ LOG ]
– 98,8 [7F4250AB] [E118D047] CRC32
01 98,8 [524BA15D] [D7904792]
02 98,8 [151E725B] [41A4906A]
03 98,8 [897CAAD2] [0CD20202]
04 98,8 [661C4BB0] [3F6653FE]
05 98,8 [AAE0E22D] [3FA5530B]


Marillion - Script For A Jester's Tear (1983) [2020, 5-Disc Deluxe Limited Edition Book Set]

Tracklist BD:

Audio:
- Script For A Jester’s Tear (96/24 Stereo LPCM + DTS-HD Master Audio 5.1 96/24 5.1 LPCM)
- Market Square Heroes EP (96/24 Stereo LPCM)
- Live At The Marquee Club, London 29th, December 1982 (96/24 Stereo LPCM)
Videos:
- ’Sackcloth And Greasepaint - The Story Of Script For A Jester’s Tear’ (48/16 Stereo LPCM)
- Recital Of The Script - Live At Hammersmith Odeon (48/16 Stereo LPCM)
Extras:
- Promo Videos: Market Square Heroes / He Knows You Know / Garden Party
- Live At The Marquee Club, London 29th, December 1982 (48/16 Stereo LPCM)
He Knows You Know / Backstage / Market Square Heroes (Excerpt) / Fish Interview

Disc Title: MARILLION
Disc Size: 42 053 245 088 bytes
Protection: AACS
BD-Java: No
BDInfo: 0.7.3.3

Notes:

BDINFO HOME:
Cinema Squid
http://www.cinemasquid.com/blu-ray/tools/bdinfo

INCLUDES FORUMS REPORT FOR:
AVS Forum Blu-ray Audio and Video Specifications Thread
http://www.avsforum.com/avs-vb/showthread.php?t=1155731

WARNING: Report is incomplete because: Scan has not been run.

********************
PLAYLIST: 00002.MPLS
********************

<–- BEGIN FORUMS PASTE –->
                                                                                                                Total   Video                                             
Title                                                           Codec   Length  Movie Size      Disc Size       Bitrate Bitrate Main Audio Track                          Secondary Audio Track
-----                                                           ------  ------- --------------  --------------  ------- ------- ------------------                        ---------------------
00002.MPLS                                                      AVC     1:33:29 0               42 053 245 088  0,00    0,00    LPCM 2.0 1536Kbps (48kHz/16-bit)          


DISC INFO:

Disc Title:     MARILLION
Disc Size:      42 053 245 088 bytes
Protection:     AACS
BD-Java:        No
BDInfo:         0.7.3.3

PLAYLIST REPORT:

Name:                   00002.MPLS
Length:                 1:33:29.083 (h:m:s.ms)
Size:                   0 bytes
Total Bitrate:          0,00 Mbps

VIDEO:

Codec                   Bitrate             Description     
-----                   -------             -----------     
MPEG-4 AVC Video        0 kbps              1080p / 24 fps / 16:9 / High Profile 4.1

AUDIO:

Codec                           Language        Bitrate         Description     
-----                           --------        -------         -----------     
LPCM Audio                      English         1536 kbps       2.0 / 48 kHz / 1536 kbps / 16-bit

SUBTITLES:

Codec                           Language        Bitrate         Description     
-----                           --------        -------         -----------     
Presentation Graphics           English         0,000 kbps                      

FILES:

Name            Time In         Length          Size            Total Bitrate   
----            -------         ------          ----            -------------   
00002.M2TS      0:00:00.000     1:33:29.083     0               0               

CHAPTERS:

Number          Time In         Length          Avg Video Rate  Max 1-Sec Rate  Max 1-Sec Time  Max 5-Sec Rate  Max 5-Sec Time  Max 10Sec Rate  Max 10Sec Time  Avg Frame Size  Max Frame Size  Max Frame Time  
------          -------         ------          --------------  --------------  --------------  --------------  --------------  --------------  --------------  --------------  --------------  --------------  
1               0:00:00.000     0:01:56.166     0 kbps          0 kbps          00:00:00.000    0 kbps          00:00:00.000    0 kbps          00:00:00.000    0 bytes         0 bytes         00:00:00.000    
2               0:01:56.166     0:03:22.833     0 kbps          0 kbps          00:00:00.000    0 kbps          00:00:00.000    0 kbps          00:00:00.000    0 bytes         0 bytes         00:00:00.000    
3               0:05:19.000     0:02:55.125     0 kbps          0 kbps          00:00:00.000    0 kbps          00:00:00.000    0 kbps          00:00:00.000    0 bytes         0 bytes         00:00:00.000    
4               0:08:14.125     0:04:19.875     0 kbps          0 kbps          00:00:00.000    0 kbps          00:00:00.000    0 kbps          00:00:00.000    0 bytes         0 bytes         00:00:00.000    
5               0:12:34.000     0:09:05.000     0 kbps          0 kbps          00:00:00.000    0 kbps          00:00:00.000    0 kbps          00:00:00.000    0 bytes         0 bytes         00:00:00.000    
6               0:21:39.000     0:04:02.000     0 kbps          0 kbps          00:00:00.000    0 kbps          00:00:00.000    0 kbps          00:00:00.000    0 bytes         0 bytes         00:00:00.000    
7               0:25:41.000     0:08:35.416     0 kbps          0 kbps          00:00:00.000    0 kbps          00:00:00.000    0 kbps          00:00:00.000    0 bytes         0 bytes         00:00:00.000    
8               0:34:16.416     0:04:54.750     0 kbps          0 kbps          00:00:00.000    0 kbps          00:00:00.000    0 kbps          00:00:00.000    0 bytes         0 bytes         00:00:00.000    
9               0:39:11.166     0:07:13.833     0 kbps          0 kbps          00:00:00.000    0 kbps          00:00:00.000    0 kbps          00:00:00.000    0 bytes         0 bytes         00:00:00.000    
10              0:46:25.000     0:05:39.833     0 kbps          0 kbps          00:00:00.000    0 kbps          00:00:00.000    0 kbps          00:00:00.000    0 bytes         0 bytes         00:00:00.000    
11              0:52:04.833     0:04:49.166     0 kbps          0 kbps          00:00:00.000    0 kbps          00:00:00.000    0 kbps          00:00:00.000    0 bytes         0 bytes         00:00:00.000    
12              0:56:54.000     0:03:56.000     0 kbps          0 kbps          00:00:00.000    0 kbps          00:00:00.000    0 kbps          00:00:00.000    0 bytes         0 bytes         00:00:00.000    
13              1:00:50.000     0:12:45.041     0 kbps          0 kbps          00:00:00.000    0 kbps          00:00:00.000    0 kbps          00:00:00.000    0 bytes         0 bytes         00:00:00.000    
14              1:13:35.041     0:02:54.958     0 kbps          0 kbps          00:00:00.000    0 kbps          00:00:00.000    0 kbps          00:00:00.000    0 bytes         0 bytes         00:00:00.000    
15              1:16:30.000     0:03:52.583     0 kbps          0 kbps          00:00:00.000    0 kbps          00:00:00.000    0 kbps          00:00:00.000    0 bytes         0 bytes         00:00:00.000    
16              1:20:22.583     0:02:08.500     0 kbps          0 kbps          00:00:00.000    0 kbps          00:00:00.000    0 kbps          00:00:00.000    0 bytes         0 bytes         00:00:00.000    
17              1:22:31.083     0:04:53.916     0 kbps          0 kbps          00:00:00.000    0 kbps          00:00:00.000    0 kbps          00:00:00.000    0 bytes         0 bytes         00:00:00.000    
18              1:27:25.000     0:06:04.083     0 kbps          0 kbps          00:00:00.000    0 kbps          00:00:00.000    0 kbps          00:00:00.000    0 bytes         0 bytes         00:00:00.000    

STREAM DIAGNOSTICS:

File            PID             Type            Codec           Language                Seconds                 Bitrate                 Bytes           Packets         
----            ---             ----            -----           --------                --------------          --------------          -------------   -----           
00002.M2TS      4113 (0x1011)   0x1B            AVC                                     0,042                   0                       0               0               
00002.M2TS      4352 (0x1100)   0x80            LPCM            eng (English)           0,042                   0                       0               0               
00002.M2TS      4608 (0x1200)   0x90            PGS             eng (English)           0,042                   0                       0               0               

<–– END FORUMS PASTE ––>

QUICK SUMMARY:

Disc Title: MARILLION
Disc Size: 42 053 245 088 bytes
Protection: AACS
BD-Java: No
Playlist: 00002.MPLS
Size: 0 bytes
Length: 1:33:29.083
Total Bitrate: 0,00 Mbps
Video: MPEG-4 AVC Video / 0 kbps / 1080p / 24 fps / 16:9 / High Profile 4.1
Audio: English / LPCM Audio / 2.0 / 48 kHz / 1536 kbps / 16-bit
Subtitle: English / 0,000 kbps


********************
PLAYLIST: 00001.MPLS
********************

<–- BEGIN FORUMS PASTE –->
                                                                                                                Total   Video                                             
Title                                                           Codec   Length  Movie Size      Disc Size       Bitrate Bitrate Main Audio Track                          Secondary Audio Track
-----                                                           ------  ------- --------------  --------------  ------- ------- ------------------                        ---------------------
00001.MPLS                                                      AVC     1:32:49 0               42 053 245 088  0,00    0,00    LPCM 2.0 4608Kbps (96kHz/24-bit)          


DISC INFO:

Disc Title:     MARILLION
Disc Size:      42 053 245 088 bytes
Protection:     AACS
BD-Java:        No
BDInfo:         0.7.3.3

PLAYLIST REPORT:

Name:                   00001.MPLS
Length:                 1:32:49.522 (h:m:s.ms)
Size:                   0 bytes
Total Bitrate:          0,00 Mbps

VIDEO:

Codec                   Bitrate             Description     
-----                   -------             -----------     
MPEG-4 AVC Video        0 kbps              1080p / 23,976 fps / 16:9 / High Profile 4.1

AUDIO:

Codec                           Language        Bitrate         Description     
-----                           --------        -------         -----------     
LPCM Audio                      English         4608 kbps       2.0 / 96 kHz / 4608 kbps / 24-bit

FILES:

Name            Time In         Length          Size            Total Bitrate   
----            -------         ------          ----            -------------   
00001.M2TS      0:00:00.000     1:32:49.522     0               0               

CHAPTERS:

Number          Time In         Length          Avg Video Rate  Max 1-Sec Rate  Max 1-Sec Time  Max 5-Sec Rate  Max 5-Sec Time  Max 10Sec Rate  Max 10Sec Time  Avg Frame Size  Max Frame Size  Max Frame Time  
------          -------         ------          --------------  --------------  --------------  --------------  --------------  --------------  --------------  --------------  --------------  --------------  
1               0:00:00.000     0:08:47.360     0 kbps          0 kbps          00:00:00.000    0 kbps          00:00:00.000    0 kbps          00:00:00.000    0 bytes         0 bytes         00:00:00.000    
2               0:08:47.360     0:05:24.949     0 kbps          0 kbps          00:00:00.000    0 kbps          00:00:00.000    0 kbps          00:00:00.000    0 bytes         0 bytes         00:00:00.000    
3               0:14:12.309     0:19:24.663     0 kbps          0 kbps          00:00:00.000    0 kbps          00:00:00.000    0 kbps          00:00:00.000    0 bytes         0 bytes         00:00:00.000    
4               0:33:36.973     0:09:14.720     0 kbps          0 kbps          00:00:00.000    0 kbps          00:00:00.000    0 kbps          00:00:00.000    0 bytes         0 bytes         00:00:00.000    
5               0:42:51.694     0:05:47.263     0 kbps          0 kbps          00:00:00.000    0 kbps          00:00:00.000    0 kbps          00:00:00.000    0 bytes         0 bytes         00:00:00.000    
6               0:48:38.957     0:10:58.449     0 kbps          0 kbps          00:00:00.000    0 kbps          00:00:00.000    0 kbps          00:00:00.000    0 bytes         0 bytes         00:00:00.000    
7               0:59:37.407     0:09:35.032     0 kbps          0 kbps          00:00:00.000    0 kbps          00:00:00.000    0 kbps          00:00:00.000    0 bytes         0 bytes         00:00:00.000    
8               1:09:12.439     0:11:25.101     0 kbps          0 kbps          00:00:00.000    0 kbps          00:00:00.000    0 kbps          00:00:00.000    0 bytes         0 bytes         00:00:00.000    
9               1:20:37.541     0:05:27.535     0 kbps          0 kbps          00:00:00.000    0 kbps          00:00:00.000    0 kbps          00:00:00.000    0 bytes         0 bytes         00:00:00.000    
10              1:26:05.076     0:06:44.445     0 kbps          0 kbps          00:00:00.000    0 kbps          00:00:00.000    0 kbps          00:00:00.000    0 bytes         0 bytes         00:00:00.000    

STREAM DIAGNOSTICS:

File            PID             Type            Codec           Language                Seconds                 Bitrate                 Bytes           Packets         
----            ---             ----            -----           --------                --------------          --------------          -------------   -----           
00001.M2TS      4113 (0x1011)   0x1B            AVC                                     0,042                   0                       0               0               
00001.M2TS      4352 (0x1100)   0x80            LPCM            eng (English)           0,042                   0                       0               0               

<–– END FORUMS PASTE ––>

QUICK SUMMARY:

Disc Title: MARILLION
Disc Size: 42 053 245 088 bytes
Protection: AACS
BD-Java: No
Playlist: 00001.MPLS
Size: 0 bytes
Length: 1:32:49.522
Total Bitrate: 0,00 Mbps
Video: MPEG-4 AVC Video / 0 kbps / 1080p / 23,976 fps / 16:9 / High Profile 4.1
Audio: English / LPCM Audio / 2.0 / 96 kHz / 4608 kbps / 24-bit


********************
PLAYLIST: 00003.MPLS
********************

<–- BEGIN FORUMS PASTE –->
                                                                                                                Total   Video                                             
Title                                                           Codec   Length  Movie Size      Disc Size       Bitrate Bitrate Main Audio Track                          Secondary Audio Track
-----                                                           ------  ------- --------------  --------------  ------- ------- ------------------                        ---------------------
00003.MPLS                                                      AVC     1:21:39 0               42 053 245 088  0,00    0,00    LPCM 2.0 1536Kbps (48kHz/16-bit)          


DISC INFO:

Disc Title:     MARILLION
Disc Size:      42 053 245 088 bytes
Protection:     AACS
BD-Java:        No
BDInfo:         0.7.3.3

PLAYLIST REPORT:

Name:                   00003.MPLS
Length:                 1:21:39.895 (h:m:s.ms)
Size:                   0 bytes
Total Bitrate:          0,00 Mbps

VIDEO:

Codec                   Bitrate             Description     
-----                   -------             -----------     
MPEG-4 AVC Video        0 kbps              1080i / 29,970 fps / 16:9 / High Profile 4.1

AUDIO:

Codec                           Language        Bitrate         Description     
-----                           --------        -------         -----------     
LPCM Audio                      English         1536 kbps       2.0 / 48 kHz / 1536 kbps / 16-bit

FILES:

Name            Time In         Length          Size            Total Bitrate   
----            -------         ------          ----            -------------   
00003.M2TS      0:00:00.000     1:21:39.895     0               0               

CHAPTERS:

Number          Time In         Length          Avg Video Rate  Max 1-Sec Rate  Max 1-Sec Time  Max 5-Sec Rate  Max 5-Sec Time  Max 10Sec Rate  Max 10Sec Time  Avg Frame Size  Max Frame Size  Max Frame Time  
------          -------         ------          --------------  --------------  --------------  --------------  --------------  --------------  --------------  --------------  --------------  --------------  
1               0:00:00.000     0:08:48.561     0 kbps          0 kbps          00:00:00.000    0 kbps          00:00:00.000    0 kbps          00:00:00.000    0 bytes         0 bytes         00:00:00.000    
2               0:08:48.561     0:06:59.986     0 kbps          0 kbps          00:00:00.000    0 kbps          00:00:00.000    0 kbps          00:00:00.000    0 bytes         0 bytes         00:00:00.000    
3               0:15:48.547     0:10:11.978     0 kbps          0 kbps          00:00:00.000    0 kbps          00:00:00.000    0 kbps          00:00:00.000    0 bytes         0 bytes         00:00:00.000    
4               0:26:00.525     0:08:31.344     0 kbps          0 kbps          00:00:00.000    0 kbps          00:00:00.000    0 kbps          00:00:00.000    0 bytes         0 bytes         00:00:00.000    
5               0:34:31.869     0:06:56.883     0 kbps          0 kbps          00:00:00.000    0 kbps          00:00:00.000    0 kbps          00:00:00.000    0 bytes         0 bytes         00:00:00.000    
6               0:41:28.752     0:12:56.809     0 kbps          0 kbps          00:00:00.000    0 kbps          00:00:00.000    0 kbps          00:00:00.000    0 bytes         0 bytes         00:00:00.000    
7               0:54:25.562     0:08:02.415     0 kbps          0 kbps          00:00:00.000    0 kbps          00:00:00.000    0 kbps          00:00:00.000    0 bytes         0 bytes         00:00:00.000    
8               1:02:27.977     0:19:11.917     0 kbps          0 kbps          00:00:00.000    0 kbps          00:00:00.000    0 kbps          00:00:00.000    0 bytes         0 bytes         00:00:00.000    

STREAM DIAGNOSTICS:

File            PID             Type            Codec           Language                Seconds                 Bitrate                 Bytes           Packets         
----            ---             ----            -----           --------                --------------          --------------          -------------   -----           
00003.M2TS      4113 (0x1011)   0x1B            AVC                                     0,033                   0                       0               0               
00003.M2TS      4352 (0x1100)   0x80            LPCM            eng (English)           0,033                   0                       0               0               

<–– END FORUMS PASTE ––>

QUICK SUMMARY:

Disc Title: MARILLION
Disc Size: 42 053 245 088 bytes
Protection: AACS
BD-Java: No
Playlist: 00003.MPLS
Size: 0 bytes
Length: 1:21:39.895
Total Bitrate: 0,00 Mbps
Video: MPEG-4 AVC Video / 0 kbps / 1080i / 29,970 fps / 16:9 / High Profile 4.1
Audio: English / LPCM Audio / 2.0 / 48 kHz / 1536 kbps / 16-bit


********************
PLAYLIST: 00000.MPLS
********************

<–- BEGIN FORUMS PASTE –->
                                                                                                                Total   Video                                             
Title                                                           Codec   Length  Movie Size      Disc Size       Bitrate Bitrate Main Audio Track                          Secondary Audio Track
-----                                                           ------  ------- --------------  --------------  ------- ------- ------------------                        ---------------------
00000.MPLS                                                      AVC     0:47:00 0               42 053 245 088  0,00    0,00    LPCM 2.0 4608Kbps (96kHz/24-bit)          DTS-HD Master 5.1 (96kHz/24-bit)


DISC INFO:

Disc Title:     MARILLION
Disc Size:      42 053 245 088 bytes
Protection:     AACS
BD-Java:        No
BDInfo:         0.7.3.3

PLAYLIST REPORT:

Name:                   00000.MPLS
Length:                 0:47:00.067 (h:m:s.ms)
Size:                   0 bytes
Total Bitrate:          0,00 Mbps

VIDEO:

Codec                   Bitrate             Description     
-----                   -------             -----------     
MPEG-4 AVC Video        0 kbps              1080p / 23,976 fps / 16:9 / High Profile 4.1

AUDIO:

Codec                           Language        Bitrate         Description     
-----                           --------        -------         -----------     
LPCM Audio                      English         4608 kbps       2.0 / 96 kHz / 4608 kbps / 24-bit
DTS-HD Master Audio             English         0 kbps          5.1 / 96 kHz / 24-bit (DTS Core: 6.1 / 48 kHz / 1509 kbps / 24-bit)
LPCM Audio                      English         13824 kbps      5.1 / 96 kHz / 13824 kbps / 24-bit

FILES:

Name            Time In         Length          Size            Total Bitrate   
----            -------         ------          			  		   	  		      		 			  	 			   		  	   		   	  	 			   			     		 	 	  	 			   		  	   		 	 	  		    			 ----            -------------   
00000.M2TS      0:00:00.000     0:47:00.067     0               0               

CHAPTERS:

Number          Time In         Length          Avg Video Rate  Max 1-Sec Rate  Max 1-Sec Time  Max 5-Sec Rate  Max 5-Sec Time  Max 10Sec Rate  Max 10Sec Time  Avg Frame Size  Max Frame Size  Max Frame Time  
------          -------         ------          --------------  --------------  --------------  --------------  --------------  --------------  --------------  --------------  --------------  --------------  
1               0:00:00.000     0:08:42.855     0 kbps          0 kbps          00:00:00.000    0 kbps          00:00:00.000    0 kbps          00:00:00.000    0 bytes         0 bytes         00:00:00.000    
2               0:08:42.855     0:05:23.531     0 kbps          0 kbps          00:00:00.000    0 kbps          00:00:00.000    0 kbps          00:00:00.000    0 bytes         0 bytes         00:00:00.000    
3               0:14:06.387     0:08:50.530     0 kbps          0 kbps          00:00:00.000    0 kbps          00:00:00.000    0 kbps          00:00:00.000    0 bytes         0 bytes         00:00:00.000    
4               0:22:56.917     0:07:20.314     0 kbps          0 kbps          00:00:00.000    0 kbps          00:00:00.000    0 kbps          00:00:00.000    0 bytes         0 bytes         00:00:00.000    
5               0:30:17.232     0:08:17.955     0 kbps          0 kbps          00:00:00.000    0 kbps          00:00:00.000    0 kbps          00:00:00.000    0 bytes         0 bytes         00:00:00.000    
6               0:38:35.187     0:08:24.879     0 kbps          0 kbps          00:00:00.000    0 kbps          00:00:00.000    0 kbps          00:00:00.000    0 bytes         0 bytes         00:00:00.000    

STREAM DIAGNOSTICS:

File            PID             Type            Codec           Language                Seconds                 Bitrate                 Bytes           Packets         
----            ---             ----            -----           --------                --------------          --------------          -------------   -----           
00000.M2TS      4113 (0x1011)   0x1B            AVC                                     0,042                   0                       0               0               
00000.M2TS      4352 (0x1100)   0x80            LPCM            eng (English)           0,042                   0                       0               0               
00000.M2TS      4353 (0x1101)   0x86            DTS-HD MA       eng (English)           0,042                   0                       0               0               
00000.M2TS      4354 (0x1102)   0x80            LPCM            eng (English)           0,042                   0                       0               0               

<–– END FORUMS PASTE ––>

QUICK SUMMARY:

Disc Title: MARILLION
Disc Size: 42 053 245 088 bytes
Protection: AACS
BD-Java: No
Playlist: 00000.MPLS
Size: 0 bytes
Length: 0:47:00.067
Total Bitrate: 0,00 Mbps
Video: MPEG-4 AVC Video / 0 kbps / 1080p / 23,976 fps / 16:9 / High Profile 4.1
Audio: English / LPCM Audio / 2.0 / 96 kHz / 4608 kbps / 24-bit
Audio: English / DTS-HD Master Audio / 5.1 / 96 kHz / 24-bit (DTS Core: 6.1 / 48 kHz / 1509 kbps / 24-bit)
Audio: English / LPCM Audio / 5.1 / 96 kHz / 13824 kbps / 24-bit


********************
PLAYLIST: 00008.MPLS
********************

<–- BEGIN FORUMS PASTE –->
                                                                                                                Total   Video                                             
Title                                                           Codec   Length  Movie Size      Disc Size       Bitrate Bitrate Main Audio Track                          Secondary Audio Track
-----                                                           ------  ------- --------------  --------------  ------- ------- ------------------                        ---------------------
00008.MPLS                                                      AVC     0:30:52 0               42 053 245 088  0,00    0,00    LPCM 2.0 4608Kbps (96kHz/24-bit)          


DISC INFO:

Disc Title:     MARILLION
Disc Size:      42 053 245 088 bytes
Protection:     AACS
BD-Java:        No
BDInfo:         0.7.3.3

PLAYLIST REPORT:

Name:                   00008.MPLS
Length:                 0:30:52.851 (h:m:s.ms)
Size:                   0 bytes
Total Bitrate:          0,00 Mbps

VIDEO:

Codec                   Bitrate             Description     
-----                   -------             -----------     
MPEG-4 AVC Video        0 kbps              1080p / 23,976 fps / 16:9 / High Profile 4.1

AUDIO:

Codec                           Language        Bitrate         Description     
-----                           --------        -------         -----------     
LPCM Audio                      English         4608 kbps       2.0 / 96 kHz / 4608 kbps / 24-bit

FILES:

Name            Time In         Length          Size            Total Bitrate   
----            -------         ------          ----            -------------   
00008.M2TS      0:00:00.000     0:30:52.851     0               0               

CHAPTERS:

Number          Time In         Length          Avg Video Rate  Max 1-Sec Rate  Max 1-Sec Time  Max 5-Sec Rate  Max 5-Sec Time  Max 10Sec Rate  Max 10Sec Time  Avg Frame Size  Max Frame Size  Max Frame Time  
------          -------         ------          --------------  --------------  --------------  --------------  --------------  --------------  --------------  --------------  --------------  --------------  
1               0:00:00.000     0:04:17.465     0 kbps          0 kbps          00:00:00.000    0 kbps          00:00:00.000    0 kbps          00:00:00.000    0 bytes         0 bytes         00:00:00.000    
2               0:04:17.465     0:04:30.520     0 kbps          0 kbps          00:00:00.000    0 kbps          00:00:00.000    0 kbps          00:00:00.000    0 bytes         0 bytes         00:00:00.000    
3               0:08:47.985     0:17:16.994     0 kbps          0 kbps          00:00:00.000    0 kbps          00:00:00.000    0 kbps          00:00:00.000    0 bytes         0 bytes         00:00:00.000    
4               0:26:04.980     0:04:47.870     0 kbps          0 kbps          00:00:00.000    0 kbps          00:00:00.000    0 kbps          00:00:00.000    0 bytes         0 bytes         00:00:00.000    

STREAM DIAGNOSTICS:

File            PID             Type            Codec           Language                Seconds                 Bitrate                 Bytes           Packets         
----            ---             ----            -----           --------                --------------          --------------          -------------   -----           
00008.M2TS      4113 (0x1011)   0x1B            AVC                                     0,042                   0                       0               0               
00008.M2TS      4352 (0x1100)   0x80            LPCM            eng (English)           0,042                   0                       0               0               

<–– END FORUMS PASTE ––>

QUICK SUMMARY:

Disc Title: MARILLION
Disc Size: 42 053 245 088 bytes
Protection: AACS
BD-Java: No
Playlist: 00008.MPLS
Size: 0 bytes
Length: 0:30:52.851
Total Bitrate: 0,00 Mbps
Video: MPEG-4 AVC Video / 0 kbps / 1080p / 23,976 fps / 16:9 / High Profile 4.1
Audio: English / LPCM Audio / 2.0 / 96 kHz / 4608 kbps / 24-bit


********************
PLAYLIST: 00005.MPLS
********************

<–- BEGIN FORUMS PASTE –->
                                                                                                                Total   Video                                             
Title                                                           Codec   Length  Movie Size      Disc Size       Bitrate Bitrate Main Audio Track                          Secondary Audio Track
-----                                                           ------  ------- --------------  --------------  ------- ------- ------------------                        ---------------------
00005.MPLS                                                      AVC     0:22:59 0               42 053 245 088  0,00    0,00    LPCM 2.0 1536Kbps (48kHz/16-bit)          


DISC INFO:

Disc Title:     MARILLION
Disc Size:      42 053 245 088 bytes
Protection:     AACS
BD-Java:        No
BDInfo:         0.7.3.3

PLAYLIST REPORT:

Name:                   00005.MPLS
Length:                 0:22:59.778 (h:m:s.ms)
Size:                   0 bytes
Total Bitrate:          0,00 Mbps

VIDEO:

Codec                   Bitrate             Description     
-----                   -------             -----------     
MPEG-4 AVC Video        0 kbps              1080i / 29,970 fps / 16:9 / High Profile 4.1

AUDIO:

Codec                           Language        Bitrate         Description     
-----                           --------        -------         -----------     
LPCM Audio                      English         1536 kbps       2.0 / 48 kHz / 1536 kbps / 16-bit

FILES:

Name            Time In         Length          Size            Total Bitrate   
----            -------         ------          ----            -------------   
00005.M2TS      0:00:00.000     0:03:53.399     0               0               
00006.M2TS      0:03:53.399     0:03:32.045     0               0               
00007.M2TS      0:07:25.444     0:04:28.635     0               0               
00004.M2TS      0:11:54.080     0:11:05.698     0               0               

CHAPTERS:

Number          Time In         Length          Avg Video Rate  Max 1-Sec Rate  Max 1-Sec Time  Max 5-Sec Rate  Max 5-Sec Time  Max 10Sec Rate  Max 10Sec Time  Avg Frame Size  Max Frame Size  Max Frame Time  
------          -------         ------          --------------  --------------  --------------  --------------  --------------  --------------  --------------  --------------  --------------  --------------  
1               0:00:00.000     0:03:53.399     0 kbps          0 kbps          00:00:00.000    0 kbps          00:00:00.000    0 kbps          00:00:00.000    0 bytes         0 bytes         00:00:00.000    
2               0:03:53.399     0:03:32.045     0 kbps          0 kbps          00:00:00.000    0 kbps          00:00:00.000    0 kbps          00:00:00.000    0 bytes         0 bytes         00:00:00.000    
3               0:07:25.444     0:04:28.635     0 kbps          0 kbps          00:00:00.000    0 kbps          00:00:00.000    0 kbps          00:00:00.000    0 bytes         0 bytes         00:00:00.000    
4               0:11:54.080     0:05:22.488     0 kbps          0 kbps          00:00:00.000    0 kbps          00:00:00.000    0 kbps          00:00:00.000    0 bytes         0 bytes         00:00:00.000    
5               0:17:16.568     0:01:03.830     0 kbps          0 kbps          00:00:00.000    0 kbps          00:00:00.000    0 kbps          00:00:00.000    0 bytes         0 bytes         00:00:00.000    
6               0:18:20.399     0:01:32.692     0 kbps          0 kbps          00:00:00.000    0 kbps          00:00:00.000    0 kbps          00:00:00.000    0 bytes         0 bytes         00:00:00.000    
7               0:19:53.091     0:03:06.686     0 kbps          0 kbps          00:00:00.000    0 kbps          00:00:00.000    0 kbps          00:00:00.000    0 bytes         0 bytes         00:00:00.000    

STREAM DIAGNOSTICS:

File            PID             Type            Codec           Language                Seconds                 Bitrate                 Bytes           Packets         
----            ---             ----            -----           --------                --------------          --------------          -------------   -----           
00005.M2TS      4113 (0x1011)   0x1B            AVC                                     0,033                   0                       0               0               
00005.M2TS      4352 (0x1100)   0x80            LPCM            eng (English)           0,033                   0                       0               0               
00006.M2TS      4113 (0x1011)   0x1B            AVC                                     0,033                   0                       0               0               
00006.M2TS      4352 (0x1100)   0x80            LPCM            eng (English)           0,033                   0                       0               0               
00007.M2TS      4113 (0x1011)   0x1B            AVC                                     0,033                   0                       0               0               
00007.M2TS      4352 (0x1100)   0x80            LPCM            eng (English)           0,033                   0                       0               0               
00004.M2TS      4113 (0x1011)   0x1B            AVC                                     0,033                   0                       0               0               
00004.M2TS      4352 (0x1100)   0x80            LPCM            eng (English)           0,033                   0                       0               0               

<–– END FORUMS PASTE ––>

QUICK SUMMARY:

Disc Title: MARILLION
Disc Size: 42 053 245 088 bytes
Protection: AACS
BD-Java: No
Playlist: 00005.MPLS
Size: 0 bytes
Length: 0:22:59.778
Total Bitrate: 0,00 Mbps
Video: MPEG-4 AVC Video / 0 kbps / 1080i / 29,970 fps / 16:9 / High Profile 4.1
Audio: English / LPCM Audio / 2.0 / 48 kHz / 1536 kbps / 16-bit



Marillion - Script For A Jester's Tear (1983) [2020, 5-Disc Deluxe Limited Edition Book Set]

All thanks go to ALLexxess

Marillion in my Blog

Download Marillion - Script For A Jester's Tear (1983):