Tags
Language
Tags

Marlena Shaw - Acting Up (1978) [2011, Remastered & Expanded Edition]

Posted By: BlondStyle
Marlena Shaw - Acting Up (1978) [2011, Remastered & Expanded Edition]

Marlena Shaw - Acting Up (1978) [2011, Remastered & Expanded Edition]
R&B, Vocal-Jazz, Soul/Funk, Disco | EAC Rip | FLAC, Tracks+CUE+LOG+Scans (PNG) | 48:29 | 375,84 Mb
Label: Big Break Records (UK) | Cat.# CDBBR 0046 | Released: 2011-04-25 (1978)
Marlena Shaw - Acting Up (1978) [2011, Remastered & Expanded Edition]

In 1978 Marlena Shaw released her second album on Columbia Records, "Acting Up", the follow up to "Sweet Beginnings". "Acting Up" once again featured the production genius of the legendary Bert De Coteaux with musical contributions from Abraham Laboriel whose talent made him one of the most in demand bass players of recent years, travelling and working with artists such as Lionel Ritchie, Quincy Jones and Chaka Khan to name a few and on drums, ex-Motown session drummer, Quentin Dennard, all of which helped the album reach an impressive #60 on the Cash Box R&B Charts and #171 on the Billboard 200. Rhis newly re-mastered and lovingly re-packed edition of Marlena Shaw's, "Acting Up", complete with extensive liner notes featuring an interview with Marlena Shaw especially for this release and 2 bonus tracks including the original soundtrack version of Theme from "Looking For Mr. Goodbar" (Don't Ask To Stay Until Tomorrow)
~Review by Cherry Red Records

Marlena Shaw - Acting Up (1978) [2011, Remastered & Expanded Edition]

Marlena Shaw - Acting Up (1978) [2011, Remastered & Expanded Edition]




Release of the album: 1978, March [LP Columbia Records, Cat.# JC 35073, USA]
Release of this CD: 2011, April, 25 [CD Big Break Records (UK), Cat.# CDBBR 0046 / UPC: 5013929034624]
Originally released on Columbia Records ℗ 1978, 1977.
Issued under licence from Sony Music Entertainment UK Ltd.
This compilation ℗&© 2011 Big Break Records.
Marketed and Distributed by Cherry Red Records.
Made in EU/MCPS


Credits:

Arranged By, Conductor, Producer – Bert DeCoteaux
Backing Vocals – Dee Ervin, Julia Tillman Waters, Luther Waters, Marlena Shaw, Maxine Willard Waters, Orin Waters
Bass – Abraham Laboriel, Greg Middleton
Copyist, Contractor – Ernie Fields, Jr., Phil Medley
Design – Nancy Donald
Design [CD Booklet] – Paul Bevoir
Drums – Quintin Dennard
Engineer – Godfrey Diamond, Wayne Neuendorf
Engineer [Assistant] – Earl Williams, Phil Shrago
Guitar – Craig McMullen, Greg Poree
Harp, Harp [Synthesized] – Jene Bianco (tracks: 2)
Keyboards – Jerry Peters, Larry Nash
Liner Notes, Research – Christian John Wikane
Percussion – Robert Zimmitti, Paulinho DaCosta, Tommy Vig
Photography – Suzanne Nyerges
Piano – Marlena Shaw (tracks: 9)
Reissue Producer – Wayne A. Dickson
Reissue Producer [Associate] – Christian John Wikane
Remastered By – Wayne A. Dickson
Research [Audio And Vault] – Andrew Pirie, Andrew Skurow, Anthony Munderville, Marcus Spehr, Stuart West
Research [Repertoire] – Leon Fort
Saxophone [Alto], Flute – Seldon Powell (tracks: 2)
Saxophone [Soprano] – Seldon Powell (tracks: 6)
Technician [Additional Transfers] – Andrew Pirie


Tracklist:

01. More (03:49)
02. Moonrise (04:24)
03. Rhythm Of Love (03:49)
04. Places (04:06)
05. I Wonder (04:26)
06. You Bring Out The Best In Me (04:42)
07. Dreamin' (04:26)
08. I'm Back For More (04:11)
09. Mamma Tried (03:26)
10. Don't Ask To Stay Until Tomorrow (Theme from "Looking For Mr. Goodbar") (03:32)
Bonus Tracks
11. Places (Single Version) (03:28)
12. Don't Ask To Stay Until Tomorrow (Theme from "Looking For Mr. Goodbar") (Soundtrack LP Version) (04:11)

Exact Audio Copy V1.0 beta 1 from 15. November 2010

EAC extraction logfile from 21. November 2011, 2:36

Marlena Shaw / Acting Up

Used drive : PHILIPS DVDR1628P1 Adapter: 4 ID: 0

Read mode : Secure
Utilize accurate stream : Yes
Defeat audio cache : Yes
Make use of C2 pointers : No

Read offset correction : 618
Overread into Lead-In and Lead-Out : No
Fill up missing offset samples with silence : Yes
Delete leading and trailing silent blocks : No
Null samples used in CRC calculations : Yes
Used interface : Native Win32 interface for Win NT & 2000
Gap handling : Appended to previous track

Used output format : User Defined Encoder
Selected bitrate : 256 kBit/s
Quality : High
Add ID3 tag : No
Command line compressor : C:\Program Files\FLAC\flac.exe
Additional command line options : -8 -V -T "ARTIST=%a" -T "TITLE=%t" -T "ALBUM=%g" -T "DATE=%y" -T "TRACKNUMBER=%n" -T "TOTALTRACKS=%x" -T "GENRE=%m" -T "ALBUMARTIST=%v" -T "ALBUM ARTIST=%v" -T "COMMENT=EAC Secure Mode, Test & Copy, AccurateRip, FLAC -8" %s


TOC of the extracted CD

Track | Start | Length | Start sector | End sector
––––––––––––––––––––––––––––-
1 | 0:00.00 | 3:48.62 | 0 | 17161
2 | 3:48.62 | 4:23.71 | 17162 | 36957
3 | 8:12.58 | 3:48.71 | 36958 | 54128
4 | 12:01.54 | 4:05.67 | 54129 | 72570
5 | 16:07.46 | 4:25.46 | 72571 | 92491
6 | 20:33.17 | 4:41.62 | 92492 | 113628
7 | 25:15.04 | 4:26.22 | 113629 | 133600
8 | 29:41.26 | 4:10.64 | 133601 | 152414
9 | 33:52.15 | 3:25.59 | 152415 | 167848
10 | 37:17.74 | 3:31.61 | 167849 | 183734
11 | 40:49.60 | 3:28.01 | 183735 | 199335
12 | 44:17.61 | 4:11.00 | 199336 | 218160


Track 1

Filename C:\addis gugsa killed my hdd\01 - More.wav

Pre-gap length 0:00:02.00

Peak level 100.0 %
Extraction speed 1.3 X
Track quality 100.0 %
Test CRC F7BEE9B8
Copy CRC F7BEE9B8
Accurately ripped (confidence 1) [7ABD2CEC]
Copy OK

Track 2

Filename C:\addis gugsa killed my hdd\02 - Moonrise.wav

Pre-gap length 0:00:01.56

Peak level 100.0 %
Extraction speed 1.5 X
Track quality 100.0 %
Test CRC 11380661
Copy CRC 11380661
Accurately ripped (confidence 1) [D6199385]
Copy OK

Track 3

Filename C:\addis gugsa killed my hdd\03 - Rhythm Of Love.wav

Pre-gap length 0:00:01.56

Peak level 100.0 %
Extraction speed 1.6 X
Track quality 100.0 %
Test CRC 1CAEBC44
Copy CRC 1CAEBC44
Accurately ripped (confidence 1) [6CA09A19]
Copy OK

Track 4

Filename C:\addis gugsa killed my hdd\04 - Places.wav

Pre-gap length 0:00:01.56

Peak level 100.0 %
Extraction speed 1.7 X
Track quality 100.0 %
Test CRC 7C876A43
Copy CRC 7C876A43
Accurately ripped (confidence 1) [A0728FFB]
Copy OK

Track 5

Filename C:\addis gugsa killed my hdd\05 - I Wonder.wav

Pre-gap length 0:00:01.56

Peak level 100.0 %
Extraction speed 1.6 X
Track quality 99.9 %
Test CRC E2317CF7
Copy CRC E2317CF7
Accurately ripped (confidence 1) [C89ABFE1]
Copy OK

Track 6

Filename C:\addis gugsa killed my hdd\06 - You Bring Out The Best In Me.wav

Pre-gap length 0:00:01.56

Peak level 100.0 %
Extraction speed 2.0 X
Track quality 100.0 %
Test CRC 5CAF052E
Copy CRC 5CAF052E
Accurately ripped (confidence 1) [FA5FB905]
Copy OK

Track 7

Filename C:\addis gugsa killed my hdd\07 - Dreamin'.wav

Pre-gap length 0:00:01.56

Peak level 100.0 %
Extraction speed 1.9 X
Track quality 99.9 %
Test CRC 89CBF64F
Copy CRC 89CBF64F
Accurately ripped (confidence 1) [4A116B00]
Copy OK

Track 8

Filename C:\addis gugsa killed my hdd\08 - I'm Back For More.wav

Pre-gap length 0:00:01.56

Peak level 100.0 %
Extraction speed 2.2 X
Track quality 100.0 %
Test CRC 3577F596
Copy CRC 3577F596
Accurately ripped (confidence 1) [94D08AF1]
Copy OK

Track 9

Filename C:\addis gugsa killed my hdd\09 - Mamma Tried.wav

Pre-gap length 0:00:01.56

Peak level 100.0 %
Extraction speed 2.2 X
Track quality 100.0 %
Test CRC 20D6977B
Copy CRC 20D6977B
Accurately ripped (confidence 1) [9FA18717]
Copy OK

Track 10

Filename C:\addis gugsa killed my hdd\10 - Theme From Looking For Mr Goodbar.wav

Pre-gap length 0:00:01.56

Peak level 100.0 %
Extraction speed 2.3 X
Track quality 100.0 %
Test CRC 38192CDD
Copy CRC 38192CDD
Accurately ripped (confidence 1) [1F7E7CD3]
Copy OK

Track 11

Filename C:\addis gugsa killed my hdd\11 - Places (Single).wav

Pre-gap length 0:00:02.74

Peak level 97.7 %
Extraction speed 2.4 X
Track quality 100.0 %
Test CRC D5A040B7
Copy CRC D5A040B7
Accurately ripped (confidence 1) [CE8E551A]
Copy OK

Track 12

Filename C:\addis gugsa killed my hdd\12 - Theme From Looking For Mr Goodbar.wav

Pre-gap length 0:00:02.00

Peak level 100.0 %
Extraction speed 2.5 X
Track quality 100.0 %
Test CRC 72923E54
Copy CRC 72923E54
Accurately ripped (confidence 1) [C7375113]
Copy OK


All tracks accurately ripped

No errors occurred

End of status report

==== Log checksum B8FBA6476FA405F8495698F087C1053395C4F9F7AE3ACED02DEAB0C33AEEB4E9 ====

––––––––––––––––––––––––––––––––––––––––
Analyzed: Marlena Shaw / Acting Up
––––––––––––––––––––––––––––––––––––––––

DR Peak RMS Duration Track
––––––––––––––––––––––––––––––––––––––––
DR9 0.00 dB -10.39 dB 3:49 01-More
DR11 0.00 dB -14.33 dB 4:24 02-Moonrise
DR9 0.00 dB -10.50 dB 3:49 03-Rhythm Of Love
DR9 0.00 dB -10.38 dB 4:06 04-Places
DR10 0.00 dB -11.92 dB 4:26 05-I Wonder
DR9 0.00 dB -11.12 dB 4:42 06-You Bring Out The Best In Me
DR11 0.00 dB -12.15 dB 4:26 07-Dreamin'
DR9 0.00 dB -10.14 dB 4:11 08-I'm Back For More
DR10 0.00 dB -13.20 dB 3:26 09-Mamma Tried
DR10 0.00 dB -11.39 dB 3:32 10-Theme From Looking For Mr Goodbar
DR9 -0.20 dB -11.70 dB 3:28 11-Places (Single)
DR9 0.00 dB -10.84 dB 4:11 12-Theme From Looking For Mr Goodbar
––––––––––––––––––––––––––––––––––––––––

Number of tracks: 12
Official DR value: DR10

Samplerate: 44100 Hz
Channels: 2
Bits per sample: 16
Bitrate: 953 kbps
Codec: FLAC
================================================================================

Thanks to Addis

See also:
Just A Matter Of Time (1976) [2013, Expanded Edition]
Sweet Beginnings (1977) [2001, Japan]
Take A Bite (1979) [2004, Reissue]

♫~Welcome To My Blog~♫

password: BlondStyle