Subcategories

Marvin Hamlisch - Sophie's Choice: Original Motion Picture Soundtrack (1982)

Posted By: Efgrapha
Marvin Hamlisch - Sophie's Choice: Original Motion Picture Soundtrack (1982)

Marvin Hamlisch - Sophie's Choice: Original Motion Picture Soundtrack (1982)
EAC | FLAC (Tracks) + cue.+log ~ 144 Mb | Mp3, CBR320 kbps ~ 100 Mb | Scans included
Soundtrack, Score | Label: Southern Cross | # SCCD 902 | 00:31:38

Sophie's Choice is a 1982 American drama film directed by Alan J. Pakula, who adapted William Styron's novel Sophie's Choice. Meryl Streep stars as Sophie, a Polish immigrant who shares a boarding house in Brooklyn with her tempestuous lover, Nathan (Kevin Kline in his feature film debut), and a young writer, Stingo (Peter MacNicol). Streep's performance was acclaimed, and she received the Academy Award for Best Actress. The film was nominated for Best Cinematography, Costume Design, Best Music (Marvin Hamlisch), and Best Adapted Screenplay.

Yes, indeed, this is music to tug at the heart strings. A wallow for unashamed romantics - and you may count me among those! Hamlisch is a multi-faceted talent composer, songwriter and conductor and multi-Oscar and Grammy Award winner. His hit shows include A Chorus Line and They're Playing Our Song. His film scores include: Ordinary People, The Way We Were, The Sting, and Three Men and a Baby. His hit songs include: 'The Way We Were', 'Nobody Does It Better' and 'What I did For Love'

Hamlisch's parents had fled from pre-war Vienna to New York. Their apartment became the meeting place for the city's finest classical musicians and Marvin studied at the Juilliard School of Music. His classical training is evident in the polish and depth of this score. There is a Handelian influence at work in 'Coney Island Fun' and a subtle influence of Dvorak in 'Nathan Returns.' There is also purity of classical line in a number of the cues such as 'Returning the Tray' a short elegy scored for just piano and cello. This pairing of piano and cello (an instrument that is particularly effective in suggesting autumnal, nostalgic moods and feelings of regret) is most affectingly used in the halting, almost prayer-like 'I'll never leave you'

The score for Sophie's Choice is beautifully crafted. The love theme which threads its way through this score and sets the prevailing mood is a gentle, lovely, warmly-glowing creation. I would mention just two cues. In the sumptuous 'Rite on the Brooklyn Bridge', the theme is given to the strings and Hamlisch fashions rich intricate textures. In 'Aren't Women All Like You' the music is almost ethereal with the flute floating over rapt string chords.

Highly recommended.

Ian Lace, MusicWeb-International.com

Marvin Hamlisch - Sophie's Choice: Original Motion Picture Soundtrack (1982)


~ Marvin Hamlisch at Allmusic
~ Marvin Hamlisch Website
~ Marvin Hamlisch at Wiki

~ Film at IMDB
~ Film at Wiki

Tracklist:

01. Love Theme (1:57)
02. Train Ride To Brooklyn (2:47)
03. Returning The Tray (2:35)
04. Coney Island Fun (1:03)
05. Songs Without Words (1:46)
06. Emily Dickinson (2:02)
07. Aren't All Women Like You? (1:56)
08. Rite On The Brooklyn Bridge (2:48)
09. Stingo; Polish Lullaby (1:44)
10. Nathan Returns (1:25)
11. Southern Plantation (1:57)
12. I'll Never Leave You (1:26)
13. Stingo & Sophie Together (3:07)
14. Ample Make This Bed (2:14)
15. End Credits (2:51)


Exact Audio Copy V1.0 beta 3 from 29. August 2011

EAC extraction logfile from 24. August 2012, 7:59

Marvin Hamlisch / Sophie's Choice

Used drive : PLEXTOR CD-R PX-230A Adapter: 1 ID: 0

Read mode : Secure
Utilize accurate stream : Yes
Defeat audio cache : Yes
Make use of C2 pointers : No

Read offset correction : 738
Overread into Lead-In and Lead-Out : No
Fill up missing offset samples with silence : Yes
Delete leading and trailing silent blocks : No
Null samples used in CRC calculations : Yes
Used interface : Native Win32 interface for Win NT & 2000
Gap handling : Appended to previous track

Used output format : User Defined Encoder
Selected bitrate : 896 kBit/s
Quality : High
Add ID3 tag : No
Command line compressor : C:\Program Files\Exact Audio Copy\FLAC\FLAC.EXE
Additional command line options : -6 -V -T "ARTIST=%artist%" -T "TITLE=%title%" -T "ALBUM=%albumtitle%" -T "DATE=%year%" -T "TRACKNUMBER=%tracknr%" -T "GENRE=%genre%" -T "COMMENT=%comment%" -T "ALBUMARTIST=%albuminterpret%" -T "COMPOSER=%composer%" -T "DISCNUMBER=%cdnumber%" -T "TOTALDISCS=%totalcds%" -T "TOTALTRACKS=%numtracks%" %source% -o %dest%


TOC of the extracted CD

Track | Start | Length | Start sector | End sector
––––––––––––––––––––––––––––-
1 | 0:00.00 | 1:57.17 | 0 | 8791
2 | 1:57.17 | 2:47.08 | 8792 | 21324
3 | 4:44.25 | 2:35.20 | 21325 | 32969
4 | 7:19.45 | 1:02.57 | 32970 | 37676
5 | 8:22.27 | 1:45.48 | 37677 | 45599
6 | 10:08.00 | 2:01.50 | 45600 | 54724
7 | 12:09.50 | 1:56.00 | 54725 | 63424
8 | 14:05.50 | 2:48.25 | 63425 | 76049
9 | 16:54.00 | 1:43.67 | 76050 | 83841
10 | 18:37.67 | 1:25.33 | 83842 | 90249
11 | 20:03.25 | 1:57.12 | 90250 | 99036
12 | 22:00.37 | 1:25.38 | 99037 | 105449
13 | 23:26.00 | 3:06.42 | 105450 | 119441
14 | 26:32.42 | 2:14.10 | 119442 | 129501
15 | 28:46.52 | 2:51.10 | 129502 | 142336


Track 1

Filename C:\Music\01 - Marvin Hamlisch - Love Theme.wav

Pre-gap length 0:00:02.00

Peak level 35.9 %
Extraction speed 4.0 X
Track quality 100.0 %
Test CRC 558227F6
Copy CRC 558227F6
Cannot be verified as accurate (confidence 2) [C8325FE8], AccurateRip returned [7B0129DA] (AR v2)
Copy OK

Track 2

Filename C:\Music\02 - Marvin Hamlisch - Train Ride To Brooklyn.wav

Pre-gap length 0:00:03.05

Peak level 62.7 %
Extraction speed 4.3 X
Track quality 100.0 %
Test CRC 550FDF66
Copy CRC 550FDF66
Cannot be verified as accurate (confidence 2) [F4CB7AF8], AccurateRip returned [45050D9B] (AR v2)
Copy OK

Track 3

Filename C:\Music\03 - Marvin Hamlisch - Returning The Tray.wav

Pre-gap length 0:00:02.38

Peak level 54.1 %
Extraction speed 4.0 X
Track quality 100.0 %
Test CRC 2F5E9800
Copy CRC 2F5E9800
Cannot be verified as accurate (confidence 2) [4F1E8C78], AccurateRip returned [B7579340] (AR v2)
Copy OK

Track 4

Filename C:\Music\04 - Marvin Hamlisch - Coney Island Fun.wav

Pre-gap length 0:00:02.33

Peak level 97.5 %
Extraction speed 3.0 X
Track quality 99.8 %
Test CRC 41904D87
Copy CRC 41904D87
Cannot be verified as accurate (confidence 2) [B4F76256], AccurateRip returned [2EA72BE8] (AR v2)
Copy OK

Track 5

Filename C:\Music\05 - Marvin Hamlisch - Songs Without Words.wav

Pre-gap length 0:00:01.70

Peak level 23.9 %
Extraction speed 4.7 X
Track quality 100.0 %
Test CRC 55C27375
Copy CRC 55C27375
Cannot be verified as accurate (confidence 2) [BA7976DF], AccurateRip returned [E3DA1E18] (AR v2)
Copy OK

Track 6

Filename C:\Music\06 - Marvin Hamlisch - Emily Dickinson.wav

Pre-gap length 0:00:03.63

Peak level 53.7 %
Extraction speed 3.9 X
Track quality 100.0 %
Test CRC 23958BAC
Copy CRC 23958BAC
Cannot be verified as accurate (confidence 2) [5ACD6A7A], AccurateRip returned [8F20EC39] (AR v2)
Copy OK

Track 7

Filename C:\Music\07 - Marvin Hamlisch - Aren't All Women Like You.wav

Pre-gap length 0:00:03.25

Peak level 41.5 %
Extraction speed 3.5 X
Track quality 100.0 %
Test CRC C745F763
Copy CRC C745F763
Cannot be verified as accurate (confidence 2) [87A1F83A], AccurateRip returned [105A7E6A] (AR v2)
Copy OK

Track 8

Filename C:\Music\08 - Marvin Hamlisch - Rite On The Brooklyn Bridge.wav

Pre-gap length 0:00:01.38

Peak level 95.8 %
Extraction speed 4.6 X
Track quality 99.9 %
Test CRC C09CD9F4
Copy CRC C09CD9F4
Cannot be verified as accurate (confidence 2) [C80764D1], AccurateRip returned [E55848C9] (AR v2)
Copy OK

Track 9

Filename C:\Music\09 - Marvin Hamlisch - Stingo; Polish Lullaby.wav

Pre-gap length 0:00:02.33

Peak level 50.3 %
Extraction speed 2.8 X
Track quality 99.8 %
Test CRC 5024F491
Copy CRC 5024F491
Cannot be verified as accurate (confidence 2) [83C7E94D], AccurateRip returned [0BD4BCDC] (AR v2)
Copy OK

Track 10

Filename C:\Music\10 - Marvin Hamlisch - Nathan Returns.wav

Pre-gap length 0:00:03.25

Peak level 49.4 %
Extraction speed 4.3 X
Track quality 100.0 %
Test CRC CFEC1710
Copy CRC CFEC1710
Cannot be verified as accurate (confidence 2) [DF9D6E03], AccurateRip returned [455AE400] (AR v2)
Copy OK

Track 11

Filename C:\Music\11 - Marvin Hamlisch - Southern Plantation.wav

Pre-gap length 0:00:02.50

Peak level 55.7 %
Extraction speed 2.9 X
Track quality 99.9 %
Test CRC 81BF627A
Copy CRC 81BF627A
Cannot be verified as accurate (confidence 2) [4FD6E748], AccurateRip returned [7D9A8234] (AR v2)
Copy OK

Track 12

Filename C:\Music\12 - Marvin Hamlisch - I'll Never Leave You.wav

Pre-gap length 0:00:02.50

Peak level 21.6 %
Extraction speed 4.6 X
Track quality 100.0 %
Test CRC A091A73A
Copy CRC A091A73A
Cannot be verified as accurate (confidence 2) [9487D158], AccurateRip returned [EA8A2822] (AR v2)
Copy OK

Track 13

Filename C:\Music\13 - Marvin Hamlisch - Stingo & Sophie Together.wav

Pre-gap length 0:00:02.63

Peak level 22.3 %
Extraction speed 4.7 X
Track quality 99.9 %
Test CRC 44D07B61
Copy CRC 44D07B61
Cannot be verified as accurate (confidence 2) [ECA0FC29], AccurateRip returned [EDFE739C] (AR v2)
Copy OK

Track 14

Filename C:\Music\14 - Marvin Hamlisch - Ample Make This Bed.wav

Pre-gap length 0:00:02.37

Peak level 62.4 %
Extraction speed 4.0 X
Track quality 99.9 %
Test CRC F5A47680
Copy CRC F5A47680
Cannot be verified as accurate (confidence 2) [4AC27EE1], AccurateRip returned [40471B80] (AR v2)
Copy OK

Track 15

Filename C:\Music\15 - Marvin Hamlisch - End Credits.wav

Pre-gap length 0:00:03.50

Peak level 41.4 %
Extraction speed 5.1 X
Track quality 100.0 %
Test CRC 165AF93F
Copy CRC 165AF93F
Cannot be verified as accurate (confidence 2) [A983595E], AccurateRip returned [B9760DC9] (AR v2)
Copy OK


No tracks could be verified as accurate
You may have a different pressing from the one(s) in the database

No errors occurred

End of status report

==== Log checksum E004BEBA0C6FECEFC31B222CF2418F79654936C1F561936649FE320D6DED1FEE ====

[CUETools log; Date: 13.08.2017 1:51:18; Version: 2.1.4]
[CTDB TOCID: hwwN0BTjdFr7xyk0IUaRVMA1UlM-] found.
Track | CTDB Status
1 | (7/7) Accurately ripped
2 | (7/7) Accurately ripped
3 | (7/7) Accurately ripped
4 | (7/7) Accurately ripped
5 | (5/7) Accurately ripped
6 | (7/7) Accurately ripped
7 | (7/7) Accurately ripped
8 | (7/7) Accurately ripped
9 | (7/7) Accurately ripped
10 | (7/7) Accurately ripped
11 | (7/7) Accurately ripped
12 | (7/7) Accurately ripped
13 | (7/7) Accurately ripped
14 | (7/7) Accurately ripped
15 | (7/7) Accurately ripped
[AccurateRip ID: 0010f198-00bf3cbc-aa07690f] found.
Track [ CRC | V2 ] Status
01 [7c45c70e|c8325fe8] (0+0/6) No match
02 [3fa2d27b|f4cb7af8] (0+0/6) No match
03 [aa3a7faa|4f1e8c78] (0+0/6) No match
04 [31f67766|b4f76256] (0+0/6) No match
05 [7b950568|ba7976df] (0+0/6) No match
06 [dced3bd9|5acd6a7a] (0+0/6) No match
07 [4a67e69a|87a1f83a] (0+0/6) No match
08 [abdc64b1|c80764d1] (0+0/6) No match
09 [a38909c3|83c7e94d] (0+0/6) No match
10 [5d6c5e05|df9d6e03] (0+0/6) No match
11 [f59ebbec|4fd6e748] (0+0/6) No match
12 [3482a9c5|9487d158] (0+0/6) No match
13 [e0d2c915|eca0fc29] (0+0/6) No match
14 [0a84335c|4ac27ee1] (0+0/6) No match
15 [b0d97c59|a983595e] (0+0/6) No match
Offsetted by 132:
01 [7b0129da] (2/6) Accurately ripped
02 [45050d9b] (2/6) Accurately ripped
03 [b7579340] (2/6) Accurately ripped
04 [2ea72be8] (2/6) Accurately ripped
05 [e3da1e18] (2/6) Accurately ripped
06 [8f20ec39] (2/6) Accurately ripped
07 [105a7e6a] (2/6) Accurately ripped
08 [e55848c9] (2/6) Accurately ripped
09 [0bd4bcdc] (2/6) Accurately ripped
10 [455ae400] (2/6) Accurately ripped
11 [7d9a8234] (2/6) Accurately ripped
12 [ea8a2822] (2/6) Accurately ripped
13 [edfe739c] (2/6) Accurately ripped
14 [40471b80] (2/6) Accurately ripped
15 [b9760dc9] (2/6) Accurately ripped
Offsetted by -138:
01 [893c0e50] (0/6) No match (V2 was not tested)
02 [e88d94ab] (0/6) No match (V2 was not tested)
03 [b73b88fa] (0/6) No match (V2 was not tested)
04 [9bf6a6a4] (0/6) No match (V2 was not tested)
05 [774cc8b0] (0/6) No match (V2 was not tested)
06 [2e42d4e9] (0/6) No match
07 [6fd30212] (0/6) No match
08 [ccdadef5] (0/6) No match
09 [74090062] (0/6) No match
10 [f03eb334] (0/6) No match
11 [502ec9b8] (0/6) No match
12 [15126aa1] (0/6) No match
13 [33f4ea51] (0/6) No match
14 [ddf29dc2] (0/6) No match
15 [a7d8b5c1] (0/6) No match
Offsetted by 268:
01 [71f0c5f2] (0/6) No match
02 [80de9fdb] (0/6) No match
03 [add030b6] (0/6) No match
04 [3aac9dd6] (0/6) No match
05 [5ecbf978] (0/6) No match
06 [e9a3c0f9] (0/6) No match (V2 was not tested)
07 [3963f40a] (0/6) No match (V2 was not tested)
08 [37d7edf9] (0/6) No match (V2 was not tested)
09 [dbae8a5f] (0/6) No match (V2 was not tested)
10 [cecffce5] (0/6) No match (V2 was not tested)
11 [6e8e65c4] (0/6) No match (V2 was not tested)
12 [f957213c] (0/6) No match (V2 was not tested)
13 [ee6601d2] (0/6) No match (V2 was not tested)
14 [c53e7748] (0/6) No match (V2 was not tested)
15 [17aac2a9] (0/6) No match (V2 was not tested)

Track Peak [ CRC32 ] [W/O NULL] [ LOG ]
– 97,5 [EC9DD0D7] [B0FF2976]
01 35,9 [558227F6] [383655D9] CRC32
02 62,7 [550FDF66] [CFC0B829] CRC32
03 54,1 [2F5E9800] [05034936] CRC32
04 97,5 [41904D87] [25423966] CRC32
05 23,9 [55C27375] [F4EEE6ED] CRC32
06 53,7 [23958BAC] [C7A5A52D] CRC32
07 41,5 [C745F763] [4F1547A4] CRC32
08 95,8 [C09CD9F4] [5E951BC0] CRC32
09 50,3 [5024F491] [E3AB86E4] CRC32
10 49,4 [CFEC1710] [0E56516A] CRC32
11 55,7 [81BF627A] [7DC29C8B] CRC32
12 21,6 [A091A73A] [1E687804] CRC32
13 22,3 [44D07B61] [EFBF83C3] CRC32
14 62,4 [F5A47680] [808F12CE] CRC32
15 41,4 [165AF93F] [CD2AC4D5] CRC32

foobar2000 1.2 / Dynamic Range Meter 1.1.1
log date: 2017-08-13 02:02:30

––––––––––––––––––––––––––––––––––––––––
Analyzed: Marvin Hamlisch / Sophie's Choice
––––––––––––––––––––––––––––––––––––––––

DR Peak RMS Duration Track
––––––––––––––––––––––––––––––––––––––––
DR11 -8.89 dB -25.07 dB 1:57 01-Love Theme
DR11 -4.05 dB -20.53 dB 2:47 02-Train Ride To Brooklyn
DR12 -5.34 dB -25.06 dB 2:35 03-Returning The Tray
DR13 -0.22 dB -18.05 dB 1:03 04-Coney Island Fun
DR12 -12.42 dB -29.04 dB 1:46 05-Songs Without Words
DR12 -5.40 dB -21.53 dB 2:02 06-Emily Dickinson
DR11 -7.63 dB -24.96 dB 1:56 07-Aren't All Women Like You?
DR13 -0.37 dB -19.65 dB 2:48 08-Rite On The Brooklyn Bridge
DR11 -5.95 dB -24.61 dB 1:44 09-Stingo; Polish Lullaby
DR12 -6.13 dB -26.89 dB 1:25 10-Nathan Returns
DR13 -5.07 dB -22.68 dB 1:57 11-Southern Plantation
DR9 -13.28 dB -27.58 dB 1:26 12-I'll Never Leave You
DR11 -13.00 dB -28.34 dB 3:07 13-Stingo & Sophie Together
DR12 -4.09 dB -22.87 dB 2:14 14-Ample Make This Bed
DR11 -7.65 dB -25.00 dB 2:51 15-End Credits
––––––––––––––––––––––––––––––––––––––––

Number of tracks: 15
Official DR value: DR11

Samplerate: 44100 Hz
Channels: 2
Bits per sample: 16
Bitrate: 503 kbps
Codec: FLAC
================================================================================

Marvin Hamlisch - Sophie's Choice: Original Motion Picture Soundtrack (1982)

Marvin Hamlisch - Sophie's Choice: Original Motion Picture Soundtrack (1982)

All thanks to original uploader - Filex777

More Movies & Soundtracks in Efgrapha Blog