Tags
Language
Tags

Merry Clayton - Merry Clayton (1971) Remastered 2010

Posted By: Designol
Merry Clayton - Merry Clayton (1971) Remastered 2010

Merry Clayton - Merry Clayton (1971) Remastered 2010
EAC | FLAC | Image (Cue&Log) ~ 248 Mb | Mp3 (CBR320) ~ 89 Mb | Scans ~ 90 Mb
Soul, Southern Soul, Deep Soul | Label: Repertoire | # REP 5177 | 00:37:23

Neil Young, Carole King, Billy Preston, Leon Russell, James Taylor and Bill Withers all saw their songs covered by Merry on her 1971 LP. Her reputation soared yet higher after people witnessed her stunning performances of Southern Man; Walk on In; After All This Time; Same Old Story; Grandma's Hands; a Song for You; Light on the Hill, and more!

Best known for her background vocal work on the Rolling Stones' legendary single "Gimme Shelter," Merry Clayton had a long and successful career as backup singer, solo artist, and actress. Born December 25, 1948 (hence the rather "holiday" feel of her first name), in New Orleans, LA, Clayton recorded tracks with Elvis Presley, the Supremes, Ray Charles, and Joe Cocker, as well as being a member of Ray Charles' Raelettes in the early '60s. Her solo debut, "The Doorbell Rings," was released in 1963, and she eventually found success as a session singer for the aforementioned artists. She followed up her best-known work – the appearance on "Gimme Shelter" – with a solo album of the same name, and during the '70s managed some minor R&B hits with tracks like "After All This Time" in 1971 and "Oh No Not My Baby" in 1973. After a brief hiatus from the music business, Clayton did minor acting work, appearing in the film Maid to Order and Cagney & Lacey. Clayton returned to the music side of things in 1994, albeit as a gospel singer, with the album Miracles. In 1996, Clayton performed with Marianne Faithfull and Darlene Love in the show 20th Century Pop, a performance of "20 rock-era standards."

Chris True, Allmusic.com

Merry Clayton at Allmusic
Merry Clayton at Wiki

Tracklist:

01. Southern Man (3:18)
02. Walk On In (2:46)
03. After All This Time (3:11)
04. Love Me or Let Me Be Lonely (3:35)
05. A Song For You (4:19)
06. Sho' Nuff (2:46)
07. Streamroller (3:47)
08. Same Old Story (4:50)
09. Light On the Hill (2:40)
10. Grandma's Hands (3:30)
11. Whatever (2:41)


Exact Audio Copy V1.1 from 23. June 2015

EAC extraction logfile from 1. September 2017, 17:55

Merry Clayton / Merry Clayton

Used drive : ASUS BW-12D1S-U Adapter: 1 ID: 1

Read mode : Secure
Utilize accurate stream : Yes
Defeat audio cache : Yes
Make use of C2 pointers : No

Read offset correction : 667
Overread into Lead-In and Lead-Out : No
Fill up missing offset samples with silence : Yes
Delete leading and trailing silent blocks : No
Null samples used in CRC calculations : Yes
Used interface : Native Win32 interface for Win NT & 2000

Used output format : User Defined Encoder
Selected bitrate : 1024 kBit/s
Quality : High
Add ID3 tag : No
Command line compressor : C:\Program Files (x86)\Exact Audio Copy\FLAC\FLAC.EXE
Additional command line options : -6 -V -T "ARTIST=%artist%" -T "TITLE=%title%" -T "ALBUM=%albumtitle%" -T "DATE=%year%" -T "TRACKNUMBER=%tracknr%" -T "GENRE=%genre%" -T "COMMENT=%comment%" -T "BAND=%albuminterpret%" -T "ALBUMARTIST=%albuminterpret%" -T "COMPOSER=%composer%" %haslyrics%–tag-from-file=LYRICS="%lyricsfile%"%haslyrics% -T "DISCNUMBER=%cdnumber%" -T "TOTALDISCS=%totalcds%" -T "TOTALTRACKS=%numtracks%" %hascover%–picture="%coverfile%"%hascover% %source% -o %dest%


TOC of the extracted CD

Track | Start | Length | Start sector | End sector
––––––––––––––––––––––––––––-
1 | 0:00.00 | 3:18.13 | 0 | 14862
2 | 3:18.13 | 2:45.54 | 14863 | 27291
3 | 6:03.67 | 3:10.68 | 27292 | 41609
4 | 9:14.60 | 3:34.43 | 41610 | 57702
5 | 12:49.28 | 4:18.57 | 57703 | 77109
6 | 17:08.10 | 2:46.31 | 77110 | 89590
7 | 19:54.41 | 3:47.13 | 89591 | 106628
8 | 23:41.54 | 4:50.02 | 106629 | 128380
9 | 28:31.56 | 2:39.68 | 128381 | 140373
10 | 31:11.49 | 3:29.68 | 140374 | 156116
11 | 34:41.42 | 2:41.34 | 156117 | 168225


Range status and errors

Selected range

Filename C:\Users\Alexandre\Downloads\Torrents of Autumn\Clayton, Merry [1971] Merry Clayton (2010 Repertoire Records remaster)\Clayton,Merry [1971] Merry Clayton.wav

Peak level 98.8 %
Extraction speed 6.5 X
Range quality 99.9 %
Test CRC 21187BE9
Copy CRC 21187BE9
Copy OK

No errors occurred


AccurateRip summary

Track 1 accurately ripped (confidence 7) [87E6E832] (AR v2)
Track 2 accurately ripped (confidence 7) [62B0AB7D] (AR v2)
Track 3 accurately ripped (confidence 7) [4365AF30] (AR v2)
Track 4 accurately ripped (confidence 7) [8FA0FBFB] (AR v2)
Track 5 accurately ripped (confidence 7) [855A9090] (AR v2)
Track 6 accurately ripped (confidence 7) [5DAA9C68] (AR v2)
Track 7 accurately ripped (confidence 7) [F599002A] (AR v2)
Track 8 accurately ripped (confidence 7) [F7DC7165] (AR v2)
Track 9 accurately ripped (confidence 7) [45C5EEDA] (AR v2)
Track 10 accurately ripped (confidence 7) [2AED8B8B] (AR v2)
Track 11 accurately ripped (confidence 8) [7C056A98] (AR v2)

All tracks accurately ripped

End of status report

–– CUETools DB Plugin V2.1.6

[CTDB TOCID: k4v.j2H9EAPkcg3_4TVYPxtWitM-] found
Submit result: k4v.j2H9EAPkcg3_4TVYPxtWitM- has been confirmed
Track | CTDB Status
1 | (10/10) Accurately ripped
2 | (10/10) Accurately ripped
3 | (10/10) Accurately ripped
4 | (10/10) Accurately ripped
5 | (10/10) Accurately ripped
6 | (10/10) Accurately ripped
7 | (10/10) Accurately ripped
8 | (10/10) Accurately ripped
9 | (10/10) Accurately ripped
10 | (10/10) Accurately ripped
11 | (10/10) Accurately ripped

foobar2000 1.2 / Dynamic Range Meter 1.1.1
log date: 2017-09-02 23:16:16

––––––––––––––––––––––––––––––––––––––––
Analyzed: Merry Clayton / Merry Clayton
––––––––––––––––––––––––––––––––––––––––

DR Peak RMS Duration Track
––––––––––––––––––––––––––––––––––––––––
DR8 -0.10 dB -9.52 dB 3:18 01-Southern Man
DR8 -0.10 dB -10.50 dB 2:46 02-Walk On In
DR7 -0.10 dB -10.04 dB 3:11 03-After All This Time
DR7 -0.10 dB -9.11 dB 3:35 04-Love Me or Let Me Be Lonely
DR6 -0.10 dB -9.96 dB 4:19 05-A Song For You
DR7 -0.10 dB -9.60 dB 2:46 06-Sho' Nuff
DR8 -0.10 dB -10.14 dB 3:47 07-Streamroller
DR8 -0.10 dB -11.41 dB 4:50 08-Same Old Story
DR8 -0.10 dB -11.44 dB 2:40 09-Light On the Hill
DR9 -0.10 dB -10.54 dB 3:30 10-Grandma's Hands
DR7 -0.10 dB -9.32 dB 2:41 11-Whatever
––––––––––––––––––––––––––––––––––––––––

Number of tracks: 11
Official DR value: DR8

Samplerate: 44100 Hz
Channels: 2
Bits per sample: 16
Bitrate: 886 kbps
Codec: FLAC
================================================================================

Merry Clayton - Merry Clayton (1971) Remastered 2010

Merry Clayton - Merry Clayton (1971) Remastered 2010

All thanks to original releaser - DoobieBro

More interesting music in My Blog