Tags
Language
Tags

Michael Chapman - Looking For Eleven (1980) Reissue 1996 [Re-Up]

Posted By: Designol
Michael Chapman - Looking For Eleven (1980) Reissue 1996 [Re-Up]

Michael Chapman - Looking For Eleven (1980) Reissue 1996
EAC | FLAC | Image (Cue&Log) ~ 295 Mb | Mp3 (CBR320) ~ 120 Mb | Scans ~ 123 Mb | 00:52:14
Singer-Songwriter, British Folk-Rock, Folk, Psychedelic | Label: Edsel | # EDCD 496

Originally recorded for Criminal Records in 1980, Looking for Eleven finds Rod Clements and Ray Laidlaw of Lindisfarne handling bass and drum duties, rather than Rick Kemp and Dave Mattacks. The resulting set has a somewhat stripped-down sound to it, though the assorted Chapman trademarks are present and accounted for, right down to the offbeat guitar sounds (Chapman, like John Martyn, has always refused to stick with a typical acoustic guitar sound). This album features more than the usual amount of instrumental work, which makes for a particularly engaging listening experience.

Review by Steven McDonald, Allmusic.com

Michael Chapman - Looking For Eleven (1980) Reissue 1996 [Re-Up]



Tracklist:

01. White Night Starlight (2:52)
02. Black Dark (5:11)
03. Spain One To Four (11:19)
04. Great Gifts From Heaven (3:15)
05. East Coast (4:30)
06. Dead Man's Handle (3:34)
07. White Out '79 (4:40)
08. Fireside Hound (1:41)
09. Common Knowledge (4:34)
10. Aquamarine (1:28)
11. The Easy Way (4:26)
12. Health Food (3:33)
13. Nuages (1:10)


Exact Audio Copy V1.0 beta 3 from 29. August 2011

EAC extraction logfile from 30. June 2014, 20:38

Michael Chapman / Looking For Eleven

Used drive : PLEXTOR DVDR PX-891SA Adapter: 0 ID: 2

Read mode : Secure
Utilize accurate stream : Yes
Defeat audio cache : Yes
Make use of C2 pointers : No

Read offset correction : 6
Overread into Lead-In and Lead-Out : No
Fill up missing offset samples with silence : Yes
Delete leading and trailing silent blocks : No
Null samples used in CRC calculations : Yes
Used interface : Installed external ASPI interface

Used output format : User Defined Encoder
Selected bitrate : 320 kBit/s
Quality : High
Add ID3 tag : No
Command line compressor : C:\Program Files\Exact Audio Copy 1.0\Flac\flac.exe
Additional command line options : -V -8 -T "Date=%year%" -T "Genre=%genre%" %source%

TOC of the extracted CD

Track | Start | Length | Start sector | End sector
––––––––––––––––––––––––––––-
1 | 0:00.00 | 2:52.32 | 0 | 12931
2 | 2:52.32 | 5:10.43 | 12932 | 36224
3 | 8:03.00 | 11:19.15 | 36225 | 87164
4 | 19:22.15 | 3:14.65 | 87165 | 101779
5 | 22:37.05 | 4:30.32 | 101780 | 122061
6 | 27:07.37 | 3:33.63 | 122062 | 138099
7 | 30:41.25 | 4:40.10 | 138100 | 159109
8 | 35:21.35 | 1:40.67 | 159110 | 166676
9 | 37:02.27 | 4:34.25 | 166677 | 187251
10 | 41:36.52 | 1:28.35 | 187252 | 193886
11 | 43:05.12 | 4:26.13 | 193887 | 213849
12 | 47:31.25 | 3:33.07 | 213850 | 229831
13 | 51:04.32 | 1:09.68 | 229832 | 235074

Range status and errors

Selected range

Filename K:\Lossless Temp\Michael Chapman\Michael Chapman - Looking For Eleven - 1980 (1996 Demon Records, EDCD 496, Germany)\Michael Chapman - Looking For Eleven.wav

Peak level 100.0 %
Extraction speed 6.3 X
Range quality 100.0 %
Test CRC 6F0A87F3
Copy CRC 6F0A87F3
Copy OK

No errors occurred

AccurateRip summary

Track 1 accurately ripped (confidence 2) [93705009] (AR v2)
Track 2 accurately ripped (confidence 2) [108D0677] (AR v2)
Track 3 accurately ripped (confidence 2) [7725F9FC] (AR v2)
Track 4 accurately ripped (confidence 2) [584AEAC4] (AR v2)
Track 5 accurately ripped (confidence 2) [770CD2FB] (AR v2)
Track 6 accurately ripped (confidence 2) [C6EBE718] (AR v2)
Track 7 accurately ripped (confidence 2) [F3BB29A4] (AR v2)
Track 8 accurately ripped (confidence 2) [2D26A2C6] (AR v2)
Track 9 accurately ripped (confidence 2) [0E9C3CB9] (AR v2)
Track 10 accurately ripped (confidence 2) [D1A7E733] (AR v2)
Track 11 accurately ripped (confidence 2) [C7232A27] (AR v2)
Track 12 accurately ripped (confidence 2) [2CE46379] (AR v2)
Track 13 accurately ripped (confidence 2) [AEF79138] (AR v2)

All tracks accurately ripped

End of status report

==== Log checksum AE674CA3AC44163E64075396D6A5812750B5DCD66672ED994E43A9E02903D807 ====

foobar2000 1.2 / Dynamic Range Meter 1.1.1
log date: 2017-08-29 22:13:24

––––––––––––––––––––––––––––––––––––––––
Analyzed: Michael Chapman / Looking For Eleven
––––––––––––––––––––––––––––––––––––––––

DR Peak RMS Duration Track
––––––––––––––––––––––––––––––––––––––––
DR10 -1.04 dB -13.85 dB 2:52 01-White Night Starlight
DR12 -0.87 dB -14.78 dB 5:11 02-Black Dark
DR11 0.00 dB -14.75 dB 11:19 03-Spain One To Four
DR14 0.00 dB -18.34 dB 3:15 04-Great Gifts From Heaven
DR12 -1.89 dB -16.16 dB 4:30 05-East Coast
DR11 -0.40 dB -13.23 dB 3:34 06-Dead Man's Handle
DR11 -0.44 dB -12.99 dB 4:40 07-White Out '79
DR11 -9.66 dB -23.51 dB 1:41 08-Fireside Hound
DR11 -0.30 dB -12.69 dB 4:34 09-Common Knowledge
DR11 -8.09 dB -22.30 dB 1:28 10-Aquamarine
DR12 0.00 dB -12.94 dB 4:26 11-The Easy Way
DR10 -0.39 dB -12.15 dB 3:33 12-Health Food
DR12 -2.34 dB -18.82 dB 1:10 13-Nuages
––––––––––––––––––––––––––––––––––––––––

Number of tracks: 13
Official DR value: DR11

Samplerate: 44100 Hz
Channels: 2
Bits per sample: 16
Bitrate: 789 kbps
Codec: FLAC
================================================================================

Michael Chapman - Looking For Eleven (1980) Reissue 1996 [Re-Up]

Michael Chapman - Looking For Eleven (1980) Reissue 1996 [Re-Up]

All thanks to original releaser - Swamp Fox

More interesting music in My Blog