Tags
Language
Tags

Michael Collins, Michael McHale - The Lyrical Clarinet, Volume 3 (2020)

Posted By: ArlegZ
Michael Collins, Michael McHale - The Lyrical Clarinet, Volume 3 (2020)

Michael Collins, Michael McHale - The Lyrical Clarinet, Volume 3 (2020)
EAC | FLAC | Image (Cue & Log) ~ 261 Mb | Total time: 70:07 | Scans included
Classical | Label: Chandos | # CHAN 20147 | Recorded: 2019

Michael Collins MBE is one of the most complete musicians of his generation. Continuing his distinguished career as a soloist, he has in recent years also become highly regarded as a conductor and in 2010 took up the position as Principal Conductor of the City of London Sinfonia, and works with leading orchestras around the world both as a soloist and as a conductor. Committed for many years to expanding the repertoire of the clarinet, he has premiered works by some of todays most highly regarded composers, including John Adams, Elliott Carter, Brett Dean and Mark-Anthony Turnage. In addition to commissioning and supporting new compositions, he is also a champion of well-crafted arrangements of other works for the clarinet. It is this area of his work that is so vividly demonstrated in this Chandos series the Lyrical Clarinet, of which this is the third volume. Most of the arrangements on this album were made by pianist Michael McHale, who accompanies on the recording.

Performer:
Michael Collins, clarinet
Michael McHale, piano

Track List:
Achille-Claude Debussy (1862–1918)
01. Clair de lune (c. 1890, revised 1905)
Fritz Kreisler (1875–1962)
02. Liebesleid (c. 1905)
Philippe Gaubert (1879–1941)
03. Fantaisie (1911)
Maria Theresia von Paradis (attrib.) (1759–1824)
04. Sicilienne (date unknown)
Gabriel Fauré (1845–1924)
05. Sicilienne, Op. 78 (1893 / 1898)
Fritz Kreisler
06. Schön Rosmarin (c. 1905)
Gabriel Fauré
07. Après un rêve, Op. 7 No. 1 (1877)
Felix Mendelssohn (1809–1847)
08. Lied ohne Worte, Op. 38 No. 2 (1836)
Robert Schumann (1810–1856)
09. Träumerei, Op. 15 No. 7 (1838)
Franz Liszt (1811 – 1886)
10. Liebestraum No. 3, S 541 (1843–50)
Achille-Claude Debussy
11. La Fille aux cheveux de lin (1910)
Johannes Brahms (1833–1897)
12. Hungarian Dance No. 1 (1868)
Camille Saint-Saëns (1835–1921)
13. Le Cygne (1886)
César Franck (1822–1890)
14-17. Sonata in A major, M 8 (1886)


Exact Audio Copy V1.5 from 20. February 2020

EAC extraction logfile from 23. June 2021, 23:13

Michael Collins, Michael McHale / The Lyrical Clarinet, Volume 3

Used drive : ASUS SDRW-08U7M-U Adapter: 1 ID: 0

Read mode : Secure
Utilize accurate stream : Yes
Defeat audio cache : Yes
Make use of C2 pointers : No

Read offset correction : 6
Overread into Lead-In and Lead-Out : No
Fill up missing offset samples with silence : Yes
Delete leading and trailing silent blocks : No
Null samples used in CRC calculations : Yes
Used interface : Native Win32 interface for Win NT & 2000

Used output format : User Defined Encoder
Selected bitrate : 128 kBit/s
Quality : High
Add ID3 tag : No
Command line compressor : C:\Program Files (x86)\Exact Audio Copy\Flac\flac.exe
Additional command line options : -V -8 -T "Date=%year%" -T "Genre=%genre%" %source%

TOC of the extracted CD

Track | Start | Length | Start sector | End sector
––––––––––––––––––––––––––––-
1 | 0:00.00 | 4:19.50 | 0 | 19474
2 | 4:19.50 | 3:13.00 | 19475 | 33949
3 | 7:32.50 | 7:30.00 | 33950 | 67699
4 | 15:02.50 | 2:30.35 | 67700 | 78984
5 | 17:33.10 | 3:20.10 | 78985 | 93994
6 | 20:53.20 | 1:56.20 | 93995 | 102714
7 | 22:49.40 | 3:11.10 | 102715 | 117049
8 | 26:00.50 | 2:22.00 | 117050 | 127699
9 | 28:22.50 | 2:15.00 | 127700 | 137824
10 | 30:37.50 | 4:33.25 | 137825 | 158324
11 | 35:11.00 | 2:22.50 | 158325 | 169024
12 | 37:33.50 | 3:05.55 | 169025 | 182954
13 | 40:39.30 | 2:42.30 | 182955 | 195134
14 | 43:21.60 | 5:39.15 | 195135 | 220574
15 | 49:01.00 | 7:51.30 | 220575 | 255929
16 | 56:52.30 | 7:08.30 | 255930 | 288059
17 | 64:00.60 | 6:05.15 | 288060 | 315449

Range status and errors

Selected range

Filename C:\temp\CHAN_20147 - The Lyrical Clarinet, Vol.3 - Michael Collins - 2020\The Lyrical Clarinet, Volume 3.wav

Peak level 98.2 %
Extraction speed 5.3 X
Range quality 100.0 %
Test CRC 4284ABAD
Copy CRC 4284ABAD
Copy OK

No errors occurred

AccurateRip summary

Track 1 accurately ripped (confidence 2) [64AFEB6F] (AR v2)
Track 2 accurately ripped (confidence 2) [0C36675E] (AR v2)
Track 3 accurately ripped (confidence 2) [D390EAA4] (AR v2)
Track 4 accurately ripped (confidence 2) [557A1D2F] (AR v2)
Track 5 accurately ripped (confidence 2) [408E8370] (AR v2)
Track 6 accurately ripped (confidence 2) [1D40615C] (AR v2)
Track 7 accurately ripped (confidence 2) [61348A85] (AR v2)
Track 8 accurately ripped (confidence 2) [BCEA80AE] (AR v2)
Track 9 accurately ripped (confidence 2) [47E52FA3] (AR v2)
Track 10 accurately ripped (confidence 2) [E4461A87] (AR v2)
Track 11 accurately ripped (confidence 2) [B0C29192] (AR v2)
Track 12 accurately ripped (confidence 2) [9AF1CD47] (AR v2)
Track 13 accurately ripped (confidence 2) [187748A9] (AR v2)
Track 14 accurately ripped (confidence 2) [FFCE7F01] (AR v2)
Track 15 accurately ripped (confidence 2) [DB76B127] (AR v2)
Track 16 accurately ripped (confidence 2) [2EBD2C8F] (AR v2)
Track 17 accurately ripped (confidence 2) [D02366AB] (AR v2)

All tracks accurately ripped

End of status report

==== Log checksum 63BAB2CF3962D1693BEB236751F5C9C850D1393A4EBE719FB337ECA39D7B9B36 ====

Michael Collins, Michael McHale - The Lyrical Clarinet, Volume 3 (2020)

Thanks to the original releaser