Tags
Language
Tags

VA - Ministry Of Sound: Essential Reggae (2009) 2CDs [Re-Up]

Posted By:
VA - Ministry Of Sound: Essential Reggae (2009) 2CDs [Re-Up]

VA - Ministry Of Sound: Essential Reggae (2009) 2CDs
EAC | FLAC | Tracks (Cue&Log) ~ 962 Mb | Mp3 (CBR320) ~ 383 Mb | Scans included
Reggae, Ragga, Ska, Dancehall | Label: Ministry Of Sound | # MOSCD191 | 02:32:08

An unpretentious collection of classic, commercial reggae tracks from the biggest names of the genre. What better way to celebrate the sun shining than by listening to Bob Marley, Gregory Isaacs, Dennis Brown, Dawn Penn, Peter Tosh, Shabba Ranks, Aswad and Diana King? Ultimate Reggae also contains classic hits from Desmond Dekker, Toots & The Maytals, Black Uhuru, The Paragons, Sly & Robbie, Freddie McGregor, Tippa Irie and Sugar Minott, plus big carnival hits from Beenie Man, Barrington Levy, Tenor Saw, Sean Kingston, Yellowman, Mr Vegas and Sean Paul.

Should a dance label be trusted to provide a generalist overview of reggae? Maybe not, but Ministry of Sound’s Essential Reggae, a two-disc set with 42 songs, does a decent job with the genre. It’s inclusive to a fault, with a few too many novelty interlopers and just barely reggae artists (such as Snow) in on the party, but there are several absolute classic must-owns, including Tenor Saw’s “Ring the Alarm,” Dawn Penn’s “You Don’t Love Me (No No No),” Wayne Smith’s “Under Me Sleng Teng,” Toots & the Maytals’ “54-46 (Was My Number),” and Peter Tosh’s “Get Up Stand Up."

Review by Andy Kellman, Allmusic.com

VA - Ministry Of Sound: Essential Reggae (2009) 2CDs [Re-Up]


Tracklist:

CD1:

01. Dawn Penn - You Don't Love Me [No No No] [LP Version] (03:30)
02. Aswad - Shine [Beatmasters Mix] (03:38)
03. Sean Kingston & Jonathan Rotem - Beautiful Girls (03:46)
04. Diana King - Shy Guy (03:39)
05. Shabba Ranks With Chevelle Franklin - Mr. Loverman (03:37)
06. Beenie Man - Who Am I [Zim Zima] (03:17)
07. Ini Kamoze - Here Comes The Hotstepper (04:02)
08. Super Cat (Featuring Jack Radics) - My Girl Josephine (03:39)
09. Snow - Informer [LP Version] (04:02)
10. Sean Paul - Bounce It Right Here (02:58)
11. Wayne Wonder - No Letting Go (03:23)
12. Mr. Vegas - Heads High (03:31)
13. Dillinger - Cocaine In My Brain (05:10)
14. Half Pint - Substitute Lover (03:49)
15. Wayne Smith - Under Me Sleng Teng (04:08)
16. Black Uhuru - African Love (03:40)
17. Natural Ites And Realistics - Picture On The Wall (04:36)
18. The Paragons - Blackbirds Singing (02:29)
19. Phyliss Dillon - Woman Of The Ghetto (03:20)
20. Gregory Issacs - Red Rose For Gregory (04:10)
21. Bob Marley And The Wailers - Trenchtown Rock (02:56)

CD2:

01. Bob Marley And The Wailers - Lively Up Yourself (02:49)
02. Desmond Dekker - Israelites (02:45)
03. Toots & The Maytals - 54-46 [Was My Number] (03:25)
04. The Paragons - The Tide Is High (02:41)
05. Joya Landis - Angel Of The Morning (03:02)
06. Dennis Brown - Money In My Pocket (03:40)
07. Freddie McGregor - Just Don't Wanna Be Lonely (03:35)
08. Sugar Minott - Good Thing Going [We've Got A Good Thing Going] (04:14)
09. Tippa Irie - Hello Darlin' (03:34)
10. Sly & Robbie - Billie Jean (04:56)
11. Peter Tosh - Get Up Stand Up (03:24)
12. Gregory Issacs - Rumours (03:20)
13. Barrington Levy - Here I Come [Broader Than Broadway] (03:46)
14. Tenor Saw - Ring The Alarm (03:12)
15. Yellowman - Nobody Move, Nobody Get Hurt (03:41)
16. Clint Eastwood & General Saint - Stop That Train (05:07)
17. Ekk-A-Mouse - We Do Em (03:53)
18. Frankie Paul - Pass The Tu Shen Peng (03:29)
19. Byron Lee And The Dragonaires - Cherry On Baby (02:38)
20. The Dynamics - Whole Lotta Love (04:21)
21. Alton Ellis - La La Means I Love You (02:56)


Exact Audio Copy V1.0 beta 4 from 7. December 2014

EAC extraction logfile from 19. February 2015, 10:07

V/A / Essential Reggae [Disc 1]

Used drive : HL-DT-STBD-RE GGW-H20L Adapter: 1 ID: 0

Read mode : Secure
Utilize accurate stream : Yes
Defeat audio cache : Yes
Make use of C2 pointers : No

Read offset correction : 667
Overread into Lead-In and Lead-Out : No
Fill up missing offset samples with silence : Yes
Delete leading and trailing silent blocks : No
Null samples used in CRC calculations : Yes
Used interface : Native Win32 interface for Win NT & 2000
Gap handling : Appended to previous track

Used output format : User Defined Encoder
Selected bitrate : 1024 kBit/s
Quality : High
Add ID3 tag : No
Command line compressor : C:\Program Files (x86)\Exact Audio Copy\Flac\flac.exe
Additional command line options : -8 -V -T "ARTIST=%artist%" -T "TITLE=%title%" -T "ALBUM=%albumtitle%" -T "DATE=%year%" -T "TRACKNUMBER=%tracknr%" -T "GENRE=%genre%" -T "PERFORMER=%albuminterpret%" -T "COMPOSER=%composer%" %haslyrics%–tag-from-file=LYRICS="%lyricsfile%"%haslyrics% -T "ALBUMARTIST=%albumartist%" -T "ALBUM ARTIST=%albumartist%" -T "DISCNUMBER=%cdnumber%" -T "TOTALDISCS=%totalcds%" -T "TOTALTRACKS=%numtracks%" -T "COMMENT=EAC V1.0 beta 4, Secure Mode, Test & Copy, AccurateRip, FLAC - 8 - oneanight oan" %source%


TOC of the extracted CD

Track | Start | Length | Start sector | End sector
––––––––––––––––––––––––––––-
1 | 0:00.00 | 3:30.17 | 0 | 15766
2 | 3:30.17 | 3:38.64 | 15767 | 32180
3 | 7:09.06 | 3:46.20 | 32181 | 49150
4 | 10:55.26 | 3:39.27 | 49151 | 65602
5 | 14:34.53 | 3:37.20 | 65603 | 81897
6 | 18:11.73 | 3:17.23 | 81898 | 96695
7 | 21:29.21 | 4:02.40 | 96696 | 114885
8 | 25:31.61 | 3:39.65 | 114886 | 131375
9 | 29:11.51 | 4:02.04 | 131376 | 149529
10 | 33:13.55 | 2:58.37 | 149530 | 162916
11 | 36:12.17 | 3:23.23 | 162917 | 178164
12 | 39:35.40 | 3:31.52 | 178165 | 194041
13 | 43:07.17 | 5:10.12 | 194042 | 217303
14 | 48:17.29 | 3:49.17 | 217304 | 234495
15 | 52:06.46 | 4:08.53 | 234496 | 253148
16 | 56:15.24 | 3:40.55 | 253149 | 269703
17 | 59:56.04 | 4:36.05 | 269704 | 290408
18 | 64:32.09 | 2:29.23 | 290409 | 301606
19 | 67:01.32 | 3:20.47 | 301607 | 316653
20 | 70:22.04 | 4:10.14 | 316654 | 335417
21 | 74:32.18 | 2:56.21 | 335418 | 348638


Track 1

Filename C:\oneanight\01 - Dawn Penn - You Don't Love Me [No No No] [LP Version].wav

Pre-gap length 0:00:02.00

Peak level 97.7 %
Extraction speed 4.4 X
Track quality 100.0 %
Test CRC 5B1289C8
Copy CRC 5B1289C8
Accurately ripped (confidence 4) [7C77F58A] (AR v2)
Copy OK

Track 2

Filename C:\oneanight\02 - Aswad - Shine [Beatmasters Mix].wav

Pre-gap length 0:00:00.73

Peak level 93.9 %
Extraction speed 4.8 X
Track quality 100.0 %
Test CRC C121FCD5
Copy CRC C121FCD5
Accurately ripped (confidence 4) [4E51EE56] (AR v2)
Copy OK

Track 3

Filename C:\oneanight\03 - Sean Kingston & Jonathan Rotem - Beautiful Girls.wav

Pre-gap length 0:00:00.28

Peak level 89.1 %
Extraction speed 5.0 X
Track quality 100.0 %
Test CRC 8057F3A9
Copy CRC 8057F3A9
Accurately ripped (confidence 4) [31253DEB] (AR v2)
Copy OK

Track 4

Filename C:\oneanight\04 - Diana King - Shy Guy.wav

Pre-gap length 0:00:01.12

Peak level 100.0 %
Extraction speed 5.3 X
Track quality 100.0 %
Test CRC 9956D818
Copy CRC 9956D818
Accurately ripped (confidence 4) [38EABD0B] (AR v2)
Copy OK

Track 5

Filename C:\oneanight\05 - Shabba Ranks With Chevelle Franklin - Mr. Loverman.wav

Pre-gap length 0:00:00.60

Peak level 89.1 %
Extraction speed 5.7 X
Track quality 100.0 %
Test CRC 2FD8E341
Copy CRC 2FD8E341
Accurately ripped (confidence 4) [A0E33CBD] (AR v2)
Copy OK

Track 6

Filename C:\oneanight\06 - Beenie Man - Who Am I [Zim Zima].wav

Pre-gap length 0:00:01.17

Peak level 97.7 %
Extraction speed 5.9 X
Track quality 100.0 %
Test CRC 033E64AD
Copy CRC 033E64AD
Accurately ripped (confidence 4) [CEB6E6FD] (AR v2)
Copy OK

Track 7

Filename C:\oneanight\07 - Ini Kamoze - Here Comes The Hotstepper.wav

Pre-gap length 0:00:00.82

Peak level 70.7 %
Extraction speed 6.2 X
Track quality 100.0 %
Test CRC 3E107AC9
Copy CRC 3E107AC9
Accurately ripped (confidence 4) [C13855B6] (AR v2)
Copy OK

Track 8

Filename C:\oneanight\08 - Super Cat (Featuring Jack Radics) - My Girl Josephine.wav

Pre-gap length 0:00:00.45

Peak level 93.5 %
Extraction speed 6.5 X
Track quality 100.0 %
Test CRC 8F690084
Copy CRC 8F690084
Accurately ripped (confidence 3) [517E75FC] (AR v2)
Copy OK

Track 9

Filename C:\oneanight\09 - Snow - Informer [LP Version].wav

Pre-gap length 0:00:00.25

Peak level 97.7 %
Extraction speed 6.8 X
Track quality 100.0 %
Test CRC 3AE7096B
Copy CRC 3AE7096B
Accurately ripped (confidence 3) [D9374A1F] (AR v2)
Copy OK

Track 10

Filename C:\oneanight\10 - Sean Paul - Bounce It Right Here.wav

Pre-gap length 0:00:00.20

Peak level 98.0 %
Extraction speed 6.6 X
Track quality 100.0 %
Test CRC 6B1FB271
Copy CRC 6B1FB271
Accurately ripped (confidence 4) [28FBF154] (AR v2)
Copy OK

Track 11

Filename C:\oneanight\11 - Wayne Wonder - No Letting Go.wav

Pre-gap length 0:00:00.74

Peak level 97.7 %
Extraction speed 7.1 X
Track quality 100.0 %
Test CRC 9F0CC83D
Copy CRC 9F0CC83D
Accurately ripped (confidence 4) [29A9DBBC] (AR v2)
Copy OK

Track 12

Filename C:\oneanight\12 - Mr. Vegas - Heads High.wav

Pre-gap length 0:00:00.41

Peak level 97.7 %
Extraction speed 7.1 X
Track quality 100.0 %
Test CRC 2979FC37
Copy CRC 2979FC37
Accurately ripped (confidence 4) [0D2A3B75] (AR v2)
Copy OK

Track 13

Filename C:\oneanight\13 - Dillinger - Cocaine In My Brain.wav

Pre-gap length 0:00:00.30

Peak level 97.7 %
Extraction speed 8.0 X
Track quality 100.0 %
Test CRC AC991B3E
Copy CRC AC991B3E
Accurately ripped (confidence 4) [AEA80A30] (AR v2)
Copy OK

Track 14

Filename C:\oneanight\14 - Half Pint - Substitute Lover.wav

Pre-gap length 0:00:00.46

Peak level 97.7 %
Extraction speed 7.9 X
Track quality 100.0 %
Test CRC BBF54FD3
Copy CRC BBF54FD3
Accurately ripped (confidence 4) [D4F34B46] (AR v2)
Copy OK

Track 15

Filename C:\oneanight\15 - Wayne Smith - Under Me Sleng Teng.wav

Pre-gap length 0:00:00.28

Peak level 97.7 %
Extraction speed 8.2 X
Track quality 100.0 %
Test CRC E9D70EFF
Copy CRC E9D70EFF
Accurately ripped (confidence 4) [C70E8E11] (AR v2)
Copy OK

Track 16

Filename C:\oneanight\16 - Black Uhuru - African Love.wav

Pre-gap length 0:00:00.26

Peak level 97.7 %
Extraction speed 6.6 X
Track quality 99.9 %
Test CRC 5AE04B24
Copy CRC 5AE04B24
Accurately ripped (confidence 4) [85CE7B87] (AR v2)
Copy OK

Track 17

Filename C:\oneanight\17 - Natural Ites And Realistics - Picture On The Wall.wav

Pre-gap length 0:00:00.64

Peak level 97.7 %
Extraction speed 8.6 X
Track quality 100.0 %
Test CRC 8ABF64B9
Copy CRC 8ABF64B9
Accurately ripped (confidence 4) [9FEE4FD6] (AR v2)
Copy OK

Track 18

Filename C:\oneanight\18 - The Paragons - Blackbirds Singing.wav

Pre-gap length 0:00:00.92

Peak level 97.7 %
Extraction speed 7.7 X
Track quality 100.0 %
Test CRC 5CE9C44F
Copy CRC 5CE9C44F
Accurately ripped (confidence 4) [245FE086] (AR v2)
Copy OK

Track 19

Filename C:\oneanight\19 - Phyliss Dillon - Woman Of The Ghetto.wav

Pre-gap length 0:00:00.76

Peak level 97.7 %
Extraction speed 8.7 X
Track quality 100.0 %
Test CRC C701D467
Copy CRC C701D467
Accurately ripped (confidence 4) [9A877BA5] (AR v2)
Copy OK

Track 20

Filename C:\oneanight\20 - Gregory Issacs - Red Rose For Gregory.wav

Pre-gap length 0:00:00.17

Peak level 97.7 %
Extraction speed 8.8 X
Track quality 100.0 %
Test CRC 90BF643B
Copy CRC 90BF643B
Accurately ripped (confidence 4) [0C3CBD4C] (AR v2)
Copy OK

Track 21

Filename C:\oneanight\21 - Bob Marley And The Wailers - Trenchtown Rock.wav

Pre-gap length 0:00:00.98

Peak level 97.7 %
Extraction speed 7.1 X
Track quality 99.9 %
Test CRC E7B6A92A
Copy CRC E7B6A92A
Accurately ripped (confidence 4) [51194700] (AR v2)
Copy OK


All tracks accurately ripped

No errors occurred

End of status report

–– CUETools DB Plugin V2.1.4

[CTDB TOCID: _SqvUJLR9JMV38CLt7ns4aID1j4-] found
Submit result: _SqvUJLR9JMV38CLt7ns4aID1j4- has been confirmed
Track | CTDB Status
1 | (1/1) Accurately ripped
2 | (1/1) Accurately ripped
3 | (1/1) Accurately ripped
4 | (1/1) Accurately ripped
5 | (1/1) Accurately ripped
6 | (1/1) Accurately ripped
7 | (1/1) Accurately ripped
8 | (1/1) Accurately ripped
9 | (1/1) Accurately ripped
10 | (1/1) Accurately ripped
11 | (1/1) Accurately ripped
12 | (1/1) Accurately ripped
13 | (1/1) Accurately ripped
14 | (1/1) Accurately ripped
15 | (1/1) Accurately ripped
16 | (1/1) Accurately ripped
17 | (1/1) Accurately ripped
18 | (1/1) Accurately ripped
19 | (1/1) Accurately ripped
20 | (1/1) Accurately ripped
21 | (1/1) Accurately ripped


==== Log checksum 11F8CA7D8C16979FD10E8E9436D2E60AF8B9C770193D7AA39B8DE5421FFEE935 ====

foobar2000 1.3.1 / Dynamic Range Meter 1.1.0
log date: 2015-02-19 10:13:55

––––––––––––––––––––––––––––––––––––––––
Analyzed: Dawn Penn / Essential Reggae [Disc 1] (1)
Aswad / Essential Reggae [Disc 1] (2)
Sean Kingston & Jonathan Rotem / Essential Reggae [Disc 1] (3)
Diana King / Essential Reggae [Disc 1] (4)
Shabba Ranks With Chevelle Franklin / Essential Reggae [Disc 1] (5)
Beenie Man / Essential Reggae [Disc 1] (6)
Ini Kamoze / Essential Reggae [Disc 1] (7)
Super Cat (Featuring Jack Radics) / Essential Reggae [Disc 1] (8)
Snow / Essential Reggae [Disc 1] (9)
Sean Paul / Essential Reggae [Disc 1] (10)
Wayne Wonder / Essential Reggae [Disc 1] (11)
Mr. Vegas / Essential Reggae [Disc 1] (12)
Dillinger / Essential Reggae [Disc 1] (13)
Half Pint / Essential Reggae [Disc 1] (14)
Wayne Smith / Essential Reggae [Disc 1] (15)
Black Uhuru / Essential Reggae [Disc 1] (16)
Natural Ites And Realistics / Essential Reggae [Disc 1] (17)
The Paragons / Essential Reggae [Disc 1] (18)
Phyliss Dillon / Essential Reggae [Disc 1] (19)
Gregory Issacs / Essential Reggae [Disc 1] (20)
Bob Marley And The Wailers / Essential Reggae [Disc 1] (21)
––––––––––––––––––––––––––––––––––––––––

DR Peak RMS Duration Track
––––––––––––––––––––––––––––––––––––––––
DR7 -0.20 dB -9.28 dB 3:30 01-You Don't Love Me [No No No] [LP Version]
DR6 -0.55 dB -7.86 dB 3:39 02-Shine [Beatmasters Mix]
DR8 -1.00 dB -10.61 dB 3:46 03-Beautiful Girls
DR7 0.00 dB -8.29 dB 3:39 04-Shy Guy
DR7 -1.00 dB -8.28 dB 3:37 05-Mr. Loverman
DR8 -0.20 dB -9.26 dB 3:17 06-Who Am I [Zim Zima]
DR5 -3.00 dB -8.82 dB 4:03 07-Here Comes The Hotstepper
DR7 -0.58 dB -8.69 dB 3:40 08-My Girl Josephine
DR8 -0.20 dB -9.07 dB 4:02 09-Informer [LP Version]
DR8 -0.17 dB -9.14 dB 2:58 10-Bounce It Right Here
DR7 -0.20 dB -7.90 dB 3:23 11-No Letting Go
DR7 -0.20 dB -8.16 dB 3:32 12-Heads High
DR8 -0.20 dB -9.24 dB 5:10 13-Cocaine In My Brain
DR7 -0.20 dB -8.03 dB 3:49 14-Substitute Lover
DR7 -0.20 dB -8.31 dB 4:09 15-Under Me Sleng Teng
DR7 -0.20 dB -8.18 dB 3:41 16-African Love
DR9 -0.20 dB -11.20 dB 4:36 17-Picture On The Wall
DR8 -0.20 dB -10.43 dB 2:29 18-Blackbirds Singing
DR8 -0.20 dB -9.72 dB 3:21 19-Woman Of The Ghetto
DR7 -0.20 dB -8.61 dB 4:10 20-Red Rose For Gregory
DR7 -0.20 dB -8.20 dB 2:56 21-Trenchtown Rock
––––––––––––––––––––––––––––––––––––––––

Number of tracks: 21
Official DR value: DR7

Samplerate: 44100 Hz
Channels: 2
Bits per sample: 16
Bitrate: 656 kbps
Codec: FLAC
================================================================================


Exact Audio Copy V1.0 beta 4 from 7. December 2014

EAC extraction logfile from 19. February 2015, 11:01

V/A / Essential Reggae [Disc 2]

Used drive : HL-DT-STBD-RE GGW-H20L Adapter: 1 ID: 0

Read mode : Secure
Utilize accurate stream : Yes
Defeat audio cache : Yes
Make use of C2 pointers : No

Read offset correction : 667
Overread into Lead-In and Lead-Out : No
Fill up missing offset samples with silence : Yes
Delete leading and trailing silent blocks : No
Null samples used in CRC calculations : Yes
Used interface : Native Win32 interface for Win NT & 2000
Gap handling : Appended to previous track

Used output format : User Defined Encoder
Selected bitrate : 1024 kBit/s
Quality : High
Add ID3 tag : No
Command line compressor : C:\Program Files (x86)\Exact Audio Copy\Flac\flac.exe
Additional command line options : -8 -V -T "ARTIST=%artist%" -T "TITLE=%title%" -T "ALBUM=%albumtitle%" -T "DATE=%year%" -T "TRACKNUMBER=%tracknr%" -T "GENRE=%genre%" -T "PERFORMER=%albuminterpret%" -T "COMPOSER=%composer%" %haslyrics%–tag-from-file=LYRICS="%lyricsfile%"%haslyrics% -T "ALBUMARTIST=%albumartist%" -T "ALBUM ARTIST=%albumartist%" -T "DISCNUMBER=%cdnumber%" -T "TOTALDISCS=%totalcds%" -T "TOTALTRACKS=%numtracks%" -T "COMMENT=EAC V1.0 beta 4, Secure Mode, Test & Copy, AccurateRip, FLAC - 8 - oneanight oan" %source%


TOC of the extracted CD

Track | Start | Length | Start sector | End sector
––––––––––––––––––––––––––––-
1 | 0:00.00 | 2:49.07 | 0 | 12681
2 | 2:49.07 | 2:45.60 | 12682 | 25116
3 | 5:34.67 | 3:25.28 | 25117 | 40519
4 | 9:00.20 | 2:41.44 | 40520 | 52638
5 | 11:41.64 | 3:02.69 | 52639 | 66357
6 | 14:44.58 | 3:40.02 | 66358 | 82859
7 | 18:24.60 | 3:35.68 | 82860 | 99052
8 | 22:00.53 | 4:14.54 | 99053 | 118156
9 | 26:15.32 | 3:34.37 | 118157 | 134243
10 | 29:49.69 | 4:56.23 | 134244 | 156466
11 | 34:46.17 | 3:24.44 | 156467 | 171810
12 | 38:10.61 | 3:20.68 | 171811 | 186878
13 | 41:31.54 | 3:46.14 | 186879 | 203842
14 | 45:17.68 | 3:12.73 | 203843 | 218315
15 | 48:30.66 | 3:41.37 | 218316 | 234927
16 | 52:12.28 | 5:07.39 | 234928 | 257991
17 | 57:19.67 | 3:53.70 | 257992 | 275536
18 | 61:13.62 | 3:29.29 | 275537 | 291240
19 | 64:43.16 | 2:38.66 | 291241 | 303156
20 | 67:22.07 | 4:21.58 | 303157 | 322789
21 | 71:43.65 | 2:56.23 | 322790 | 336012


Track 1

Filename C:\oneanight\01 - Bob Marley And The Wailers - Lively Up Yourself.wav

Pre-gap length 0:00:02.00

Peak level 97.7 %
Extraction speed 4.2 X
Track quality 100.0 %
Test CRC C14A9C20
Copy CRC C14A9C20
Accurately ripped (confidence 5) [A950FACA] (AR v2)
Copy OK

Track 2

Filename C:\oneanight\02 - Desmond Dekker - Israelites.wav

Pre-gap length 0:00:00.06

Peak level 97.7 %
Extraction speed 4.5 X
Track quality 100.0 %
Test CRC 3014987C
Copy CRC 3014987C
Accurately ripped (confidence 5) [F4D2A6BC] (AR v2)
Copy OK

Track 3

Filename C:\oneanight\03 - Toots & The Maytals - 54-46 [Was My Number].wav

Pre-gap length 0:00:00.36

Peak level 97.7 %
Extraction speed 4.9 X
Track quality 100.0 %
Test CRC 2ED6FCF7
Copy CRC 2ED6FCF7
Accurately ripped (confidence 5) [C0064F0B] (AR v2)
Copy OK

Track 4

Filename C:\oneanight\04 - The Paragons - The Tide Is High.wav

Pre-gap length 0:00:00.26

Peak level 85.8 %
Extraction speed 4.8 X
Track quality 100.0 %
Test CRC 266AFF5C
Copy CRC 266AFF5C
Accurately ripped (confidence 5) [6A3469C4] (AR v2)
Copy OK

Track 5

Filename C:\oneanight\05 - Joya Landis - Angel Of The Morning.wav

Pre-gap length 0:00:00.33

Peak level 80.0 %
Extraction speed 4.2 X
Track quality 99.9 %
Test CRC 80EF9BDF
Copy CRC 80EF9BDF
Accurately ripped (confidence 5) [3D399AB2] (AR v2)
Copy OK

Track 6

Filename C:\oneanight\06 - Dennis Brown - Money In My Pocket.wav

Pre-gap length 0:00:00.14

Peak level 83.9 %
Extraction speed 5.6 X
Track quality 100.0 %
Test CRC 9FB6948C
Copy CRC 9FB6948C
Accurately ripped (confidence 5) [2874789D] (AR v2)
Copy OK

Track 7

Filename C:\oneanight\07 - Freddie McGregor - Just Don't Wanna Be Lonely.wav

Pre-gap length 0:00:00.38

Peak level 97.7 %
Extraction speed 6.1 X
Track quality 100.0 %
Test CRC C10F11F1
Copy CRC C10F11F1
Accurately ripped (confidence 5) [B7EF8623] (AR v2)
Copy OK

Track 8

Filename C:\oneanight\08 - Sugar Minott - Good Thing Going [We've Got A Good Thing Going].wav

Pre-gap length 0:00:00.22

Peak level 89.1 %
Extraction speed 6.5 X
Track quality 100.0 %
Test CRC CAB9A69B
Copy CRC CAB9A69B
Accurately ripped (confidence 5) [358D00FF] (AR v2)
Copy OK

Track 9

Filename C:\oneanight\09 - Tippa Irie - Hello Darlin'.wav

Pre-gap length 0:00:00.60

Peak level 97.7 %
Extraction speed 6.5 X
Track quality 100.0 %
Test CRC 3A3F1097
Copy CRC 3A3F1097
Accurately ripped (confidence 5) [10E1EC0B] (AR v2)
Copy OK

Track 10

Filename C:\oneanight\10 - Sly & Robbie - Billie Jean.wav

Pre-gap length 0:00:00.65

Peak level 97.7 %
Extraction speed 7.2 X
Track quality 100.0 %
Test CRC F0D6FB43
Copy CRC F0D6FB43
Accurately ripped (confidence 5) [5A660521] (AR v2)
Copy OK

Track 11

Filename C:\oneanight\11 - Peter Tosh - Get Up Stand Up.wav

Pre-gap length 0:00:00.50

Peak level 97.7 %
Extraction speed 7.1 X
Track quality 100.0 %
Test CRC 069F24CA
Copy CRC 069F24CA
Accurately ripped (confidence 4) [96489485] (AR v2)
Copy OK

Track 12

Filename C:\oneanight\12 - Gregory Issacs - Rumours.wav

Pre-gap length 0:00:00.05

Peak level 97.7 %
Extraction speed 7.3 X
Track quality 100.0 %
Test CRC E79A1304
Copy CRC E79A1304
Accurately ripped (confidence 5) [B2B91FA3] (AR v2)
Copy OK

Track 13

Filename C:\oneanight\13 - Barrington Levy - Here I Come [Broader Than Broadway].wav

Pre-gap length 0:00:00.16

Peak level 97.7 %
Extraction speed 7.5 X
Track quality 100.0 %
Test CRC B069CBBD
Copy CRC B069CBBD
Accurately ripped (confidence 5) [344649AE] (AR v2)
Copy OK

Track 14

Filename C:\oneanight\14 - Tenor Saw - Ring The Alarm.wav

Pre-gap length 0:00:00.62

Peak level 97.7 %
Extraction speed 7.6 X
Track quality 100.0 %
Test CRC 89783D80
Copy CRC 89783D80
Accurately ripped (confidence 4) [699DE2E2] (AR v2)
Copy OK

Track 15

Filename C:\oneanight\15 - Yellowman - Nobody Move, Nobody Get Hurt.wav

Pre-gap length 0:00:00.14

Peak level 98.0 %
Extraction speed 8.0 X
Track quality 100.0 %
Test CRC 4E16A23F
Copy CRC 4E16A23F
Accurately ripped (confidence 4) [D53E286E] (AR v2)
Copy OK

Track 16

Filename C:\oneanight\16 - Clint Eastwood & General Saint - Stop That Train.wav

Pre-gap length 0:00:00.04

Peak level 97.7 %
Extraction speed 8.6 X
Track quality 100.0 %
Test CRC C1B0279A
Copy CRC C1B0279A
Accurately ripped (confidence 4) [952D1DCD] (AR v2)
Copy OK

Track 17

Filename C:\oneanight\17 - Ekk-A-Mouse - We Do Em.wav

Pre-gap length 0:00:00.41

Peak level 98.4 %
Extraction speed 8.2 X
Track quality 100.0 %
Test CRC C5C9EE3F
Copy CRC C5C9EE3F
Accurately ripped (confidence 4) [6B5B9A69] (AR v2)
Copy OK

Track 18

Filename C:\oneanight\18 - Frankie Paul - Pass The Tu Shen Peng.wav

Pre-gap length 0:00:00.40

Peak level 97.7 %
Extraction speed 8.3 X
Track quality 100.0 %
Test CRC 7C160A0C
Copy CRC 7C160A0C
Accurately ripped (confidence 4) [4C4D9682] (AR v2)
Copy OK

Track 19

Filename C:\oneanight\19 - Byron Lee And The Dragonaires - Cherry On Baby.wav

Pre-gap length 0:00:00.08

Peak level 97.7 %
Extraction speed 7.9 X
Track quality 100.0 %
Test CRC C32E117A
Copy CRC C32E117A
Accurately ripped (confidence 4) [A92DDF89] (AR v2)
Copy OK

Track 20

Filename C:\oneanight\20 - The Dynamics - Whole Lotta Love.wav

Peak level 100.0 %
Extraction speed 9.0 X
Track quality 100.0 %
Test CRC DB0788C3
Copy CRC DB0788C3
Accurately ripped (confidence 4) [DC47AF92] (AR v2)
Copy OK

Track 21

Filename C:\oneanight\21 - Alton Ellis - La La Means I Love You.wav

Peak level 97.7 %
Extraction speed 7.0 X
Track quality 99.9 %
Test CRC 2AEA5E3C
Copy CRC 2AEA5E3C
Accurately ripped (confidence 4) [9BF5D418] (AR v2)
Copy OK


All tracks accurately ripped

No errors occurred

End of status report

–– CUETools DB Plugin V2.1.4

[CTDB TOCID: 4nXR4bf5NslqdEEqTyzbYKN0e_A-] found
Submit result: 4nXR4bf5NslqdEEqTyzbYKN0e_A- has been confirmed
Track | CTDB Status
1 | (1/1) Accurately ripped
2 | (1/1) Accurately ripped
3 | (1/1) Accurately ripped
4 | (1/1) Accurately ripped
5 | (1/1) Accurately ripped
6 | (1/1) Accurately ripped
7 | (1/1) Accurately ripped
8 | (1/1) Accurately ripped
9 | (1/1) Accurately ripped
10 | (1/1) Accurately ripped
11 | (1/1) Accurately ripped
12 | (1/1) Accurately ripped
13 | (1/1) Accurately ripped
14 | (1/1) Accurately ripped
15 | (1/1) Accurately ripped
16 | (1/1) Accurately ripped
17 | (1/1) Accurately ripped
18 | (1/1) Accurately ripped
19 | (1/1) Accurately ripped
20 | (1/1) Accurately ripped
21 | (1/1) Accurately ripped


==== Log checksum 44DCFADFB3B1F5AFA0D01933D7D472AC83F1D57237352F90F794FB24B800FCAA ====

foobar2000 1.2 / Dynamic Range Meter 1.1.1
log date: 2015-08-26 13:58:16

––––––––––––––––––––––––––––––––––––––––
Analyzed: Alton Ellis / Essential Reggae [Disc 2] (1)
Barrington Levy / Essential Reggae [Disc 2] (2)
Bob Marley And The Wailers / Essential Reggae [Disc 2] (3)
Byron Lee And The Dragonaires / Essential Reggae [Disc 2] (4)
Clint Eastwood & General Saint / Essential Reggae [Disc 2] (5)
Dennis Brown / Essential Reggae [Disc 2] (6)
Desmond Dekker / Essential Reggae [Disc 2] (7)
Ekk-A-Mouse / Essential Reggae [Disc 2] (8)
Frankie Paul / Essential Reggae [Disc 2] (9)
Freddie McGregor / Essential Reggae [Disc 2] (10)
Gregory Issacs / Essential Reggae [Disc 2] (11)
Joya Landis / Essential Reggae [Disc 2] (12)
Peter Tosh / Essential Reggae [Disc 2] (13)
Sly & Robbie / Essential Reggae [Disc 2] (14)
Sugar Minott / Essential Reggae [Disc 2] (15)
Tenor Saw / Essential Reggae [Disc 2] (16)
The Dynamics / Essential Reggae [Disc 2] (17)
The Paragons / Essential Reggae [Disc 2] (18)
Tippa Irie / Essential Reggae [Disc 2] (19)
Toots & The Maytals / Essential Reggae [Disc 2] (20)
Yellowman / Essential Reggae [Disc 2] (21)
––––––––––––––––––––––––––––––––––––––––

DR Peak RMS Duration Track
––––––––––––––––––––––––––––––––––––––––
DR9 -0.20 dB -10.88 dB 2:56 21-La La Means I Love You
DR8 -0.20 dB -9.08 dB 3:46 13-Here I Come [Broader Than Broadway]
DR9 -0.20 dB -11.14 dB 2:49 01-Lively Up Yourself
DR9 -0.20 dB -10.41 dB 2:39 19-Cherry On Baby
DR7 -0.20 dB -8.38 dB 5:08 16-Stop That Train
DR7 -1.52 dB -8.87 dB 3:40 06-Money In My Pocket
DR7 -0.20 dB -9.02 dB 2:46 02-Israelites
DR9 -0.14 dB -10.37 dB 3:54 17-We Do Em
DR7 -0.20 dB -7.93 dB 3:29 18-Pass The Tu Shen Peng
DR7 -0.20 dB -8.73 dB 3:36 07-Just Don't Wanna Be Lonely
DR7 -0.20 dB -7.92 dB 3:21 12-Rumours
DR8 -1.93 dB -11.89 dB 3:03 05-Angel Of The Morning
DR8 -0.20 dB -9.24 dB 3:25 11-Get Up Stand Up
DR8 -0.20 dB -9.40 dB 4:56 10-Billie Jean
DR9 -1.00 dB -11.72 dB 4:15 08-Good Thing Going [We've Got A Good Thing Going]
DR8 -0.20 dB -9.10 dB 3:13 14-Ring The Alarm
DR8 0.00 dB -8.61 dB 4:22 20-Whole Lotta Love
DR9 -1.33 dB -11.60 dB 2:42 04-The Tide Is High
DR8 -0.20 dB -8.96 dB 3:34 09-Hello Darlin'
DR9 -0.20 dB -11.72 dB 3:25 03-54-46 [Was My Number]
DR7 -0.17 dB -8.90 dB 3:41 15-Nobody Move, Nobody Get Hurt
––––––––––––––––––––––––––––––––––––––––

Number of tracks: 21
Official DR value: DR8

Samplerate: 44100 Hz
Channels: 2
Bits per sample: 16
Bitrate: 954 kbps
Codec: FLAC
================================================================================

VA - Ministry Of Sound: Essential Reggae (2009) 2CDs [Re-Up]

VA - Ministry Of Sound: Essential Reggae (2009) 2CDs [Re-Up]

All thanks to original releaser - oneanight

More interesting music in My Blog