Tags
Language
Tags

Ministry of Sound - Chilled House Session 5 (2014)

Posted By: JET 1
Ministry of Sound - Chilled House Session 5 (2014)

Ministry of Sound - Chilled House Session 5 (2014)
EAC Rip | FLAC (Tracks) +CUE, LOG | 1.02 GB
Genre: Deep, Chill House | Label: Ministry Of Sound Records | Catalog Number: MOSCD354

Chillout Sessions is a series of compilations released by Ministry of Sound that focus on songs from the chillout genre. Songs on Chillout Sessions compilations vary in style from lounge to electronica and are released by many different artists. The Chillout Out genre of compilations started in the UK and since 2003 Ministry of Sound has released them under different tropes such as "Chilled", "After Hours", "The Morning After…" which has shown MOS to have seemingly ended its branding of the genre as Chillout Sessions.

Exact Audio Copy V1.0 beta 3 from 29. August 2011

EAC extraction logfile from 22. May 2014, 0:15

Various Artists / Ministry of Sound: Chilled House Session 5

Used drive : HL-DT-STBD-RE BH16NS40 Adapter: 2 ID: 0

Read mode : Secure
Utilize accurate stream : Yes
Defeat audio cache : Yes
Make use of C2 pointers : No

Read offset correction : 6
Overread into Lead-In and Lead-Out : No
Fill up missing offset samples with silence : Yes
Delete leading and trailing silent blocks : No
Null samples used in CRC calculations : Yes
Used interface : Native Win32 interface for Win NT & 2000
Gap handling : Appended to previous track

Used output format : User Defined Encoder
Selected bitrate : 1024 kBit/s
Quality : High
Add ID3 tag : No
Command line compressor : C:\Program Files (x86)\Exact Audio Copy\Flac\flac.exe
Additional command line options : -8 -V -T "ARTIST=%artist%" -T "TITLE=%title%" -T "ALBUM=%albumtitle%" -T "DATE=%year%" -T "TRACKNUMBER=%tracknr%" -T "GENRE=%genre%" -T "PERFORMER=%albuminterpret%" -T "COMPOSER=%composer%" %haslyrics%–tag-from-file=LYRICS="%lyricsfile%"%haslyrics% -T "ALBUMARTIST=%albumartist%" -T "DISCNUMBER=%cdnumber%" -T "TOTALDISCS=%totalcds%" -T "TOTALTRACKS=%numtracks%" -T "COMMENT=%comment%" %source% -o %dest%


TOC of the extracted CD

Track | Start | Length | Start sector | End sector
––––––––––––––––––––––––––––-
1 | 0:00.00 | 4:10.25 | 0 | 18774
2 | 4:10.25 | 4:11.12 | 18775 | 37611
3 | 8:21.37 | 4:55.29 | 37612 | 59765
4 | 13:16.66 | 3:16.28 | 59766 | 74493
5 | 16:33.19 | 2:23.46 | 74494 | 85264
6 | 18:56.65 | 4:34.62 | 85265 | 105876
7 | 23:31.52 | 2:23.57 | 105877 | 116658
8 | 25:55.34 | 5:18.36 | 116659 | 140544
9 | 31:13.70 | 2:43.40 | 140545 | 152809
10 | 33:57.35 | 3:14.36 | 152810 | 167395
11 | 37:11.71 | 3:36.09 | 167396 | 183604
12 | 40:48.05 | 5:24.38 | 183605 | 207942
13 | 46:12.43 | 2:47.40 | 207943 | 220507
14 | 49:00.08 | 3:22.65 | 220508 | 235722
15 | 52:22.73 | 5:02.39 | 235723 | 258411
16 | 57:25.37 | 4:29.01 | 258412 | 278587
17 | 61:54.38 | 3:51.44 | 278588 | 295956
18 | 65:46.07 | 5:09.35 | 295957 | 319166
19 | 70:55.42 | 3:28.13 | 319167 | 334779
20 | 74:23.55 | 5:05.71 | 334780 | 357725


Track 1

Filename C:\EAC Rips\Ministry of Sound - Chilled House Session 5\01 - Breach - Everything You Never Had (We Had It All) (Joe Goddard Remix) (feat. Andreya Triana).wav

Pre-gap length 0:00:02.00

Peak level 98.8 %
Extraction speed 2.0 X
Track quality 99.9 %
Test CRC 64DADBC3
Copy CRC 64DADBC3
Accurately ripped (confidence 1) [DD4C1154] (AR v2)
Copy OK

Track 2

Filename C:\EAC Rips\Ministry of Sound - Chilled House Session 5\02 - London Grammar - Strong (Shadow Child 4x4 Remix).wav

Peak level 98.8 %
Extraction speed 1.3 X
Track quality 100.0 %
Test CRC 8700D88F
Copy CRC 8700D88F
Accurately ripped (confidence 1) [882C18A0] (AR v2)
Copy OK

Track 3

Filename C:\EAC Rips\Ministry of Sound - Chilled House Session 5\03 - Avicii - Wake Me Up (PANG! Slow Things Down Remix).wav

Peak level 98.8 %
Extraction speed 1.4 X
Track quality 100.0 %
Test CRC ACF95CBA
Copy CRC ACF95CBA
Accurately ripped (confidence 1) [44B1FEEC] (AR v2)
Copy OK

Track 4

Filename C:\EAC Rips\Ministry of Sound - Chilled House Session 5\04 - Rudimental - Free (Maya Jane Coles Remix) (feat. Emeli Sandé).wav

Peak level 98.8 %
Extraction speed 1.5 X
Track quality 100.0 %
Test CRC AF82D4C3
Copy CRC AF82D4C3
Accurately ripped (confidence 1) [528E5937] (AR v2)
Copy OK

Track 5

Filename C:\EAC Rips\Ministry of Sound - Chilled House Session 5\05 - Storm Queen - Look Right Through (MK Dub III).wav

Peak level 98.8 %
Extraction speed 1.4 X
Track quality 100.0 %
Test CRC 90641329
Copy CRC 90641329
Accurately ripped (confidence 1) [3E7E55AC] (AR v2)
Copy OK

Track 6

Filename C:\EAC Rips\Ministry of Sound - Chilled House Session 5\06 - John Newman - Love Me Again (Love Thy Brother Remix).wav

Peak level 98.8 %
Extraction speed 1.7 X
Track quality 100.0 %
Test CRC F105F837
Copy CRC F105F837
Accurately ripped (confidence 1) [1AB0CC23] (AR v2)
Copy OK

Track 7

Filename C:\EAC Rips\Ministry of Sound - Chilled House Session 5\07 - Sam Smith, Nile Rodgers, Disclosure & Jimmy Napes - Together.wav

Peak level 98.8 %
Extraction speed 1.3 X
Track quality 99.9 %
Test CRC C60833D8
Copy CRC C60833D8
Accurately ripped (confidence 1) [14676453] (AR v2)
Copy OK

Track 8

Filename C:\EAC Rips\Ministry of Sound - Chilled House Session 5\08 - Bastille - Of The Night (Icarus Remix).wav

Peak level 98.8 %
Extraction speed 1.8 X
Track quality 100.0 %
Test CRC 13F2AEA3
Copy CRC 13F2AEA3
Accurately ripped (confidence 1) [DD97FF8C] (AR v2)
Copy OK

Track 9

Filename C:\EAC Rips\Ministry of Sound - Chilled House Session 5\09 - Röyksopp - Running To The Sea (LNTG remix) (feat. Susanne Sundfor).wav

Peak level 98.8 %
Extraction speed 1.7 X
Track quality 100.0 %
Test CRC 911F2120
Copy CRC 911F2120
Accurately ripped (confidence 1) [BF93A330] (AR v2)
Copy OK

Track 10

Filename C:\EAC Rips\Ministry of Sound - Chilled House Session 5\10 - Moby - The Perfect Life (Luigi Rocca Remix).wav

Peak level 98.8 %
Extraction speed 1.8 X
Track quality 100.0 %
Test CRC F81C6A2A
Copy CRC F81C6A2A
Accurately ripped (confidence 1) [F0935DC1] (AR v2)
Copy OK

Track 11

Filename C:\EAC Rips\Ministry of Sound - Chilled House Session 5\11 - Bondax - Giving It All (Joe Goddard Remix).wav

Peak level 98.8 %
Extraction speed 1.6 X
Track quality 99.9 %
Test CRC C8A691FA
Copy CRC C8A691FA
Accurately ripped (confidence 1) [D054350A] (AR v2)
Copy OK

Track 12

Filename C:\EAC Rips\Ministry of Sound - Chilled House Session 5\12 - CHVRCHES - Lies (Tourist Remix).wav

Peak level 98.8 %
Extraction speed 2.1 X
Track quality 100.0 %
Test CRC 5B1369DA
Copy CRC 5B1369DA
Accurately ripped (confidence 1) [170AE270] (AR v2)
Copy OK

Track 13

Filename C:\EAC Rips\Ministry of Sound - Chilled House Session 5\13 - Foxes - Youth (Le Youth Remix).wav

Peak level 98.8 %
Extraction speed 2.0 X
Track quality 100.0 %
Test CRC 6A1B14B1
Copy CRC 6A1B14B1
Accurately ripped (confidence 1) [5B236C3D] (AR v2)
Copy OK

Track 14

Filename C:\EAC Rips\Ministry of Sound - Chilled House Session 5\14 - Lulu James - Step By Step (Squarehead Remix).wav

Peak level 98.8 %
Extraction speed 1.8 X
Track quality 99.9 %
Test CRC E372FC7B
Copy CRC E372FC7B
Accurately ripped (confidence 1) [60631829] (AR v2)
Copy OK

Track 15

Filename C:\EAC Rips\Ministry of Sound - Chilled House Session 5\15 - Naughty Boy - La La La (Pále Remix) (feat. Sam Smith).wav

Peak level 98.8 %
Extraction speed 2.3 X
Track quality 100.0 %
Test CRC 2BBC206F
Copy CRC 2BBC206F
Accurately ripped (confidence 1) [3E4F804E] (AR v2)
Copy OK

Track 16

Filename C:\EAC Rips\Ministry of Sound - Chilled House Session 5\16 - Laura Mvula - She (Eagles For Hands Remix).wav

Peak level 98.8 %
Extraction speed 2.3 X
Track quality 100.0 %
Test CRC 8CB3E065
Copy CRC 8CB3E065
Accurately ripped (confidence 1) [9923F64B] (AR v2)
Copy OK

Track 17

Filename C:\EAC Rips\Ministry of Sound - Chilled House Session 5\17 - The Magician - When The Night Is Over (Clancy Remix) (feat. Newtimers).wav

Peak level 98.8 %
Extraction speed 2.3 X
Track quality 100.0 %
Test CRC D1972EEF
Copy CRC D1972EEF
Accurately ripped (confidence 1) [4BD70BE1] (AR v2)
Copy OK

Track 18

Filename C:\EAC Rips\Ministry of Sound - Chilled House Session 5\18 - Le Youth - C O O L (Ben Pearce Remix).wav

Peak level 98.8 %
Extraction speed 2.5 X
Track quality 100.0 %
Test CRC 2FD79296
Copy CRC 2FD79296
Accurately ripped (confidence 1) [419918A5] (AR v2)
Copy OK

Track 19

Filename C:\EAC Rips\Ministry of Sound - Chilled House Session 5\19 - Foals - Late Night (Solomun Remix).wav

Peak level 98.8 %
Extraction speed 2.0 X
Track quality 99.9 %
Test CRC 8A201528
Copy CRC 8A201528
Accurately ripped (confidence 1) [110BD792] (AR v2)
Copy OK

Track 20

Filename C:\EAC Rips\Ministry of Sound - Chilled House Session 5\20 - The Presets - It's Cool (Andrew Bayer & James Grant Remix).wav

Peak level 98.8 %
Extraction speed 2.6 X
Track quality 100.0 %
Test CRC 60368B07
Copy CRC 60368B07
Accurately ripped (confidence 1) [B2B4AC24] (AR v2)
Copy OK


All tracks accurately ripped

No errors occurred

End of status report

–– CUETools DB Plugin V2.1.3

[CTDB TOCID: 2018w3LynJ3xWbaUyW1n_fH0v7g-] found, Submit result: 2018w3LynJ3xWbaUyW1n_fH0v7g- has been confirmed
[55b04456] (3/3) Accurately ripped


==== Log checksum 8E3280824216E00AB79E37811B516A596CCE364B7A01E3FAA1F838BAD92FDD09 ====

Exact Audio Copy V1.0 beta 3 from 29. August 2011

EAC extraction logfile from 22. May 2014, 12:00

Various Artists / Ministry of Sound: Chilled House Session 5

Used drive : HL-DT-STBD-RE BH16NS40 Adapter: 2 ID: 0

Read mode : Secure
Utilize accurate stream : Yes
Defeat audio cache : Yes
Make use of C2 pointers : No

Read offset correction : 6
Overread into Lead-In and Lead-Out : No
Fill up missing offset samples with silence : Yes
Delete leading and trailing silent blocks : No
Null samples used in CRC calculations : Yes
Used interface : Native Win32 interface for Win NT & 2000
Gap handling : Appended to previous track

Used output format : User Defined Encoder
Selected bitrate : 1024 kBit/s
Quality : High
Add ID3 tag : No
Command line compressor : C:\Program Files (x86)\Exact Audio Copy\Flac\flac.exe
Additional command line options : -8 -V -T "ARTIST=%artist%" -T "TITLE=%title%" -T "ALBUM=%albumtitle%" -T "DATE=%year%" -T "TRACKNUMBER=%tracknr%" -T "GENRE=%genre%" -T "PERFORMER=%albuminterpret%" -T "COMPOSER=%composer%" %haslyrics%–tag-from-file=LYRICS="%lyricsfile%"%haslyrics% -T "ALBUMARTIST=%albumartist%" -T "DISCNUMBER=%cdnumber%" -T "TOTALDISCS=%totalcds%" -T "TOTALTRACKS=%numtracks%" -T "COMMENT=%comment%" %source% -o %dest%


TOC of the extracted CD

Track | Start | Length | Start sector | End sector
––––––––––––––––––––––––––––-
1 | 0:00.00 | 4:03.68 | 0 | 18292
2 | 4:03.68 | 3:44.39 | 18293 | 35131
3 | 7:48.32 | 3:10.48 | 35132 | 49429
4 | 10:59.05 | 3:48.00 | 49430 | 66529
5 | 14:47.05 | 4:14.08 | 66530 | 85587
6 | 19:01.13 | 3:50.13 | 85588 | 102850
7 | 22:51.26 | 2:55.06 | 102851 | 115981
8 | 25:46.32 | 4:10.44 | 115982 | 134775
9 | 29:57.01 | 2:41.02 | 134776 | 146852
10 | 32:38.03 | 4:44.61 | 146853 | 168213
11 | 37:22.64 | 4:59.08 | 168214 | 190646
12 | 42:21.72 | 4:31.24 | 190647 | 210995
13 | 46:53.21 | 4:33.34 | 210996 | 231504
14 | 51:26.55 | 2:30.09 | 231505 | 242763
15 | 53:56.64 | 3:58.47 | 242764 | 260660
16 | 57:55.36 | 3:26.35 | 260661 | 276145
17 | 61:21.71 | 5:36.47 | 276146 | 301392
18 | 66:58.43 | 4:35.73 | 301393 | 322090
19 | 71:34.41 | 3:28.01 | 322091 | 337691
20 | 75:02.42 | 4:40.29 | 337692 | 358720


Track 1

Filename C:\EAC Rips\Ministry of Sound - Chilled House Session 5 [FLAC]\01 - Disclosure - Help Me Lose My Mind (feat. London Grammar).wav

Pre-gap length 0:00:02.00

Peak level 98.8 %
Extraction speed 1.2 X
Track quality 100.0 %
Test CRC 9C2139B8
Copy CRC 9C2139B8
Accurately ripped (confidence 1) [A1577695] (AR v2)
Copy OK

Track 2

Filename C:\EAC Rips\Ministry of Sound - Chilled House Session 5 [FLAC]\02 - Booka Shade - Love Inc.wav

Peak level 98.8 %
Extraction speed 1.3 X
Track quality 100.0 %
Test CRC 6765D529
Copy CRC 6765D529
Accurately ripped (confidence 1) [E637034F] (AR v2)
Copy OK

Track 3

Filename C:\EAC Rips\Ministry of Sound - Chilled House Session 5 [FLAC]\03 - Tensnake - See Right Through (feat. Fiora).wav

Peak level 98.8 %
Extraction speed 1.3 X
Track quality 100.0 %
Test CRC 97894C80
Copy CRC 97894C80
Accurately ripped (confidence 1) [10193601] (AR v2)
Copy OK

Track 4

Filename C:\EAC Rips\Ministry of Sound - Chilled House Session 5 [FLAC]\04 - Dusky - Mr Man.wav

Peak level 98.8 %
Extraction speed 1.4 X
Track quality 100.0 %
Test CRC E16262FB
Copy CRC E16262FB
Accurately ripped (confidence 1) [FCB5D679] (AR v2)
Copy OK

Track 5

Filename C:\EAC Rips\Ministry of Sound - Chilled House Session 5 [FLAC]\05 - Deetron - Bright City Lights (feat. Fritz Kalkbrenner).wav

Peak level 98.8 %
Extraction speed 1.6 X
Track quality 100.0 %
Test CRC 5C7BF3C4
Copy CRC 5C7BF3C4
Accurately ripped (confidence 1) [2B9E82FC] (AR v2)
Copy OK

Track 6

Filename C:\EAC Rips\Ministry of Sound - Chilled House Session 5 [FLAC]\06 - Monkey Safari - Coming Down (Hi-Life).wav

Peak level 98.8 %
Extraction speed 1.6 X
Track quality 100.0 %
Test CRC 3A700A1F
Copy CRC 3A700A1F
Accurately ripped (confidence 1) [965FBA7C] (AR v2)
Copy OK

Track 7

Filename C:\EAC Rips\Ministry of Sound - Chilled House Session 5 [FLAC]\07 - Joris Voorn - Ringo.wav

Peak level 98.8 %
Extraction speed 1.6 X
Track quality 100.0 %
Test CRC 193B6016
Copy CRC 193B6016
Accurately ripped (confidence 1) [B135D2AD] (AR v2)
Copy OK

Track 8

Filename C:\EAC Rips\Ministry of Sound - Chilled House Session 5 [FLAC]\08 - Nora En Pure - Come With Me.wav

Peak level 98.8 %
Extraction speed 1.8 X
Track quality 100.0 %
Test CRC 21A31DB8
Copy CRC 21A31DB8
Accurately ripped (confidence 1) [DF56E5A4] (AR v2)
Copy OK

Track 9

Filename C:\EAC Rips\Ministry of Sound - Chilled House Session 5 [FLAC]\09 - Claptone - No Eyes (Mickey Remix) (feat. Jaw).wav

Peak level 98.8 %
Extraction speed 1.4 X
Track quality 99.9 %
Test CRC 67D275EB
Copy CRC 67D275EB
Accurately ripped (confidence 1) [6CD5FD46] (AR v2)
Copy OK

Track 10

Filename C:\EAC Rips\Ministry of Sound - Chilled House Session 5 [FLAC]\10 - Hot Since 82 - Chords.wav

Peak level 98.8 %
Extraction speed 1.9 X
Track quality 100.0 %
Test CRC 11CAF206
Copy CRC 11CAF206
Accurately ripped (confidence 1) [DC7675C9] (AR v2)
Copy OK

Track 11

Filename C:\EAC Rips\Ministry of Sound - Chilled House Session 5 [FLAC]\11 - MK - Always (Route 94 Remix) (feat. Alana).wav

Peak level 98.8 %
Extraction speed 1.9 X
Track quality 99.9 %
Test CRC C0DF944B
Copy CRC C0DF944B
Accurately ripped (confidence 1) [006CF90D] (AR v2)
Copy OK

Track 12

Filename C:\EAC Rips\Ministry of Sound - Chilled House Session 5 [FLAC]\12 - Bonobo - First Fires (Maya Jane Coles Remix) (feat. Grey Reverend).wav

Peak level 98.8 %
Extraction speed 2.1 X
Track quality 100.0 %
Test CRC 92AD0376
Copy CRC 92AD0376
Accurately ripped (confidence 1) [CA565D1C] (AR v2)
Copy OK

Track 13

Filename C:\EAC Rips\Ministry of Sound - Chilled House Session 5 [FLAC]\13 - Kölsch - Goldfisch.wav

Peak level 98.8 %
Extraction speed 2.2 X
Track quality 100.0 %
Test CRC 0E494DCB
Copy CRC 0E494DCB
Accurately ripped (confidence 1) [39C9D60B] (AR v2)
Copy OK

Track 14

Filename C:\EAC Rips\Ministry of Sound - Chilled House Session 5 [FLAC]\14 - Mount Kimbie - Made to Stray (DJ Koze Remix).wav

Peak level 98.8 %
Extraction speed 2.0 X
Track quality 100.0 %
Test CRC 5968156A
Copy CRC 5968156A
Accurately ripped (confidence 1) [6A11A4EA] (AR v2)
Copy OK

Track 15

Filename C:\EAC Rips\Ministry of Sound - Chilled House Session 5 [FLAC]\15 - Dinky - Falling Angel.wav

Peak level 98.8 %
Extraction speed 2.2 X
Track quality 100.0 %
Test CRC 1AC94EBC
Copy CRC 1AC94EBC
Accurately ripped (confidence 1) [2D8B3232] (AR v2)
Copy OK

Track 16

Filename C:\EAC Rips\Ministry of Sound - Chilled House Session 5 [FLAC]\16 - Paji - Six O'Clock.wav

Peak level 98.8 %
Extraction speed 1.9 X
Track quality 99.9 %
Test CRC B75166CE
Copy CRC B75166CE
Accurately ripped (confidence 1) [B33A74B3] (AR v2)
Copy OK

Track 17

Filename C:\EAC Rips\Ministry of Sound - Chilled House Session 5 [FLAC]\17 - DJ Yellow & Flowers And Sea Creatures - No One Gets Left Behind (Konstantin Sibold Remix).wav

Peak level 98.8 %
Extraction speed 2.2 X
Track quality 99.9 %
Test CRC 987D3AAC
Copy CRC 987D3AAC
Accurately ripped (confidence 1) [9B556BCA] (AR v2)
Copy OK

Track 18

Filename C:\EAC Rips\Ministry of Sound - Chilled House Session 5 [FLAC]\18 - Martina Topley-Bird - Crystalised (Agoria Remix - Dixon Vocal Retouch) (feat. Mark Lanegan & Warpaint).wav

Peak level 98.8 %
Extraction speed 2.5 X
Track quality 100.0 %
Test CRC 14696AF3
Copy CRC 14696AF3
Accurately ripped (confidence 1) [FC422557] (AR v2)
Copy OK

Track 19

Filename C:\EAC Rips\Ministry of Sound - Chilled House Session 5 [FLAC]\19 - Gui Boratto - Too Late (Alternative Version).wav

Peak level 98.8 %
Extraction speed 2.0 X
Track quality 99.9 %
Test CRC EC4B4908
Copy CRC EC4B4908
Accurately ripped (confidence 1) [637DEB8A] (AR v2)
Copy OK

Track 20

Filename C:\EAC Rips\Ministry of Sound - Chilled House Session 5 [FLAC]\20 - Good Guy Mikesh - Place Of Love (MP Edit) (feat. Filburt).wav

Peak level 98.8 %
Extraction speed 2.6 X
Track quality 100.0 %
Test CRC D0C86F7A
Copy CRC D0C86F7A
Accurately ripped (confidence 1) [1C058FA6] (AR v2)
Copy OK


All tracks accurately ripped

No errors occurred

End of status report

–– CUETools DB Plugin V2.1.3

[CTDB TOCID: 7w_SEf0GE9PW9Ya6FUW3bH0BbTU-] found, Submit result: already submitted
[51769146] (4/4) Accurately ripped


==== Log checksum 76820692277297ADED781ECE070506E0849D3DD5C064EF25DCDEA7D81F45DF69 ====

Tracklist :::
CD1
01. Everything You Never Had (We Had It All) [feat. Andreya Triana] [Joe Goddard Remix] - Breach
02. Strong (Shadow Child 4x4 Remix) - London Grammar
03. Wake Me Up (PANG! Slowing Things Down Remix) - Avicii
04. Free (feat. Emeli Sandé) [Maya Jane Coles Remix] - Rudimental
05. Look Right Through (MK Dub III) - Storm Queen
06. Love Me Again (Love Thy Brother Remix) - John Newman
07. Together (Extended Edit) - Sam Smith, Nile Rodgers, Disclosure & Jimmy Napes
08. Of The Night (Icarus Remix) - Bastille
09. Running To The Sea (LNTG Remix) [feat. Susanne Sundfør] - Röyksopp
10. The Perfect Life (Luigi Rocca remix) - Moby
11. Giving It All (Joe Goddard Remix) - Bondax
12. Lies (Tourist Remix) - CHVRCHES
13. Youth (Le Youth Remix) - Foxes
14. Step By Step (Squarehead Remix) - Lulu James
15. La La La (feat. Sam Smith) [Pále Remix] - Naughty Boy
16. She (Eagles For Hands Remix) - Laura Mvula
17. When The Night Is Over (feat. Newtimers) [Clancy Remix] - The Magician
18. C O O L (Ben Pearce Remix) - Le Youth
19. Late Night (Solomun Remix) - Foals
20. It's Cool (Andrew Bayer & James Grant Remix) - The Presets

CD2
01. Help Me Lose My Mind (feat. London Grammar) - Disclosure
02. Love Inc - Booka Shade
03. See Right Through (feat. Fiora) - Tensnake
04. Mr Man - Dusky
05. Bright City Lights (feat. Fritz Kalkbrenner) - Deetron
06. Coming Down (Hi-Life) [Extended Edit] - Monkey Safari
07. Ringo - Joris Voorn
08. Come With Me - Nora En Pure
09. No Eyes (feat. JAW) [Mickey Remix] - Claptone
10. Chords - Hot Since 82
11. Always (feat. Alana) [Route 94 Remix] - MK
12. First Fires (feat. Grey Reverend) [Maya Jane Coles Remix] - Bonobo
13. Goldfisch - Kölsch
14. Made To Stray (DJ Koze Remix) - Mount Kimbie
15. Fallen Angel - Dinky
16. Six O'clock - Paji
17. No One Gets Left Behind (Konstantin Sibold Remix) - DJ Yellow & Flowers of Sea Creatures
18. Crystalised (feat. Mark Lanegan & Warpaint) [Agoria Remix] [Dixon Vocal Retouch] - Martina Topley Bird
19. Too Late (Alternative Version) - Gui Boratto
20. Place Of Love (feat. Filburt) [MP Edit] - Good Guy Mikesh

Thanks to Original Re-leaser.