Subcategories

Mistic - Glorifica (2011)

Posted By: gribovar
Mistic - Glorifica (2011)

Mistic - Glorifica (2011)
EAC Rip | FLAC (tracks+.cue+log) - 315 MB | MP3 CBR 320 kbps (LAME 3.93) - 116 MB | Covers - 192 MB
Genre: New Age, Chant, Ambientpop | RAR 3% Rec. | Label: MJM Music (MJM5226)

Mistic was founded in 2005, inspired by a series of albums "Gregorian - Masters of Chant," which results released in 2006 album "Mistic - Polish biggest hits in the style of Gregorian chant" released by Warner Music.
Tracklist:
01. Tibi Sit Gloria
02. Jesu Dulcis Memoria
03. Glorifica
04. Qui Corde Fundis Gratiam
05. Gloria Magna Patri
06. Salve Festa Dies
07. Memoriale
08. Ave Maris Stella
09. Audi Benigne Conditor
10. Per Saecula

Total time: 48:12

Exact Audio Copy V1.0 beta 3 from 29. August 2011

EAC extraction logfile from 19. March 2013, 7:24

Mistic / Glorifica

Used drive : ASUS BW-12B1ST Adapter: 1 ID: 1

Read mode : Secure
Utilize accurate stream : Yes
Defeat audio cache : Yes
Make use of C2 pointers : No

Read offset correction : 6
Overread into Lead-In and Lead-Out : No
Fill up missing offset samples with silence : Yes
Delete leading and trailing silent blocks : No
Null samples used in CRC calculations : Yes
Used interface : Native Win32 interface for Win NT & 2000
Gap handling : Appended to previous track

Used output format : User Defined Encoder
Selected bitrate : 1024 kBit/s
Quality : High
Add ID3 tag : No
Command line compressor : C:\Program Files (x86)\Exact Audio Copy\Flac\flac.exe
Additional command line options : -8 -V -T "ARTIST=%artist%" -T "TITLE=%title%" -T "ALBUM=%albumtitle%" -T "DATE=%year%" -T "TRACKNUMBER=%tracknr%" -T "GENRE=%genre%" -T "PERFORMER=%albuminterpret%" -T "COMPOSER=%composer%" %haslyrics%–tag-from-file=LYRICS="%lyricsfile%"%haslyrics% -T "ALBUMARTIST=%albumartist%" -T "DISCNUMBER=%cdnumber%" -T "TOTALDISCS=%totalcds%" -T "TOTALTRACKS=%numtracks%" -T "COMMENT=%comment%" %source% -o %dest%


TOC of the extracted CD

Track | Start | Length | Start sector | End sector
––––––––––––––––––––––––––––-
1 | 0:00.00 | 4:14.03 | 0 | 19052
2 | 4:14.03 | 5:09.20 | 19053 | 42247
3 | 9:23.23 | 4:15.73 | 42248 | 61445
4 | 13:39.21 | 4:10.13 | 61446 | 80208
5 | 17:49.34 | 4:41.62 | 80209 | 101345
6 | 22:31.21 | 6:04.25 | 101346 | 128670
7 | 28:35.46 | 4:28.09 | 128671 | 148779
8 | 33:03.55 | 5:42.58 | 148780 | 174487
9 | 38:46.38 | 5:49.20 | 174488 | 200682
10 | 44:35.58 | 3:35.63 | 200683 | 216870


Track 1

Filename E:\Mistic - Glorifica\01 Tibi Sit Gloria.wav

Pre-gap length 0:00:02.00

Peak level 98.8 %
Extraction speed 4.3 X
Track quality 100.0 %
Test CRC D581BE1D
Copy CRC D581BE1D
Track not present in AccurateRip database
Copy OK

Track 2

Filename E:\Mistic - Glorifica\02 Jesu Dulcis Memoria.wav

Peak level 98.8 %
Extraction speed 5.0 X
Track quality 100.0 %
Test CRC 25E64612
Copy CRC 25E64612
Track not present in AccurateRip database
Copy OK

Track 3

Filename E:\Mistic - Glorifica\03 Glorifica.wav

Peak level 98.8 %
Extraction speed 4.5 X
Track quality 99.9 %
Test CRC 17491DD1
Copy CRC 17491DD1
Track not present in AccurateRip database
Copy OK

Track 4

Filename E:\Mistic - Glorifica\04 Qui Corde Fundis Gratiam.wav

Peak level 98.8 %
Extraction speed 5.8 X
Track quality 100.0 %
Test CRC 725F0C92
Copy CRC 725F0C92
Track not present in AccurateRip database
Copy OK

Track 5

Filename E:\Mistic - Glorifica\05 Gloria Magna Patri.wav

Peak level 98.8 %
Extraction speed 5.3 X
Track quality 99.9 %
Test CRC 709E9E94
Copy CRC 709E9E94
Track not present in AccurateRip database
Copy OK

Track 6

Filename E:\Mistic - Glorifica\06 Salve Festa Dies.wav

Peak level 98.8 %
Extraction speed 7.0 X
Track quality 100.0 %
Test CRC 9EEA75BC
Copy CRC 9EEA75BC
Track not present in AccurateRip database
Copy OK

Track 7

Filename E:\Mistic - Glorifica\07 Memoriale.wav

Peak level 98.8 %
Extraction speed 7.1 X
Track quality 100.0 %
Test CRC 5BFFE55D
Copy CRC 5BFFE55D
Track not present in AccurateRip database
Copy OK

Track 8

Filename E:\Mistic - Glorifica\08 Ave Maris Stella.wav

Peak level 98.8 %
Extraction speed 7.7 X
Track quality 100.0 %
Test CRC 4B7CFB88
Copy CRC 4B7CFB88
Track not present in AccurateRip database
Copy OK

Track 9

Filename E:\Mistic - Glorifica\09 Audi Benigne Conditor.wav

Peak level 98.8 %
Extraction speed 7.0 X
Track quality 99.9 %
Test CRC 255C383F
Copy CRC 255C383F
Track not present in AccurateRip database
Copy OK

Track 10

Filename E:\Mistic - Glorifica\10 Per Saecula.wav

Peak level 89.2 %
Extraction speed 6.9 X
Track quality 100.0 %
Test CRC 768FACAE
Copy CRC 768FACAE
Track not present in AccurateRip database
Copy OK


None of the tracks are present in the AccurateRip database

No errors occurred

End of status report

==== Log checksum 89886EC7EF5627D594EA6A8C67D3872875FC0457BA9C9B5A2910F1043F887071 ====

[CUETools log; Date: 26.03.2019 17:28:56; Version: 2.1.4]
[CTDB TOCID: VXGft5yY7kqLhQq4KtOEo1Y5V_4-] found.
Track | CTDB Status
1 | (3/3) Accurately ripped
2 | (3/3) Accurately ripped
3 | (3/3) Accurately ripped
4 | (3/3) Accurately ripped
5 | (3/3) Accurately ripped
6 | (3/3) Accurately ripped
7 | (3/3) Accurately ripped
8 | (3/3) Accurately ripped
9 | (3/3) Accurately ripped
10 | (3/3) Accurately ripped
[AccurateRip ID: 0011e923-00908dd8-8b0b4b0a] disk not present in database.

Track Peak [ CRC32 ] [W/O NULL] [ LOG ]
– 98,8 [B43B3059] [50933448]
01 98,8 [D581BE1D] [620287EF] CRC32
02 98,8 [25E64612] [D8B5C469] CRC32
03 98,8 [17491DD1] [C2DDE927] CRC32
04 98,8 [725F0C92] [42F9F0A3] CRC32
05 98,8 [709E9E94] [3590EEE7] CRC32
06 98,8 [9EEA75BC] [DFF7E075] CRC32
07 98,8 [5BFFE55D] [B764E7C2] CRC32
08 98,8 [4B7CFB88] [14DC503E] CRC32
09 98,8 [255C383F] [750784BF] CRC32
10 89,2 [768FACAE] [DB1FBE68] CRC32

Thanks to Ragnaroczek

See also:
Mistic - Between Heaven & Earth (2012)