Subcategories

Mistic - Mistic (2006)

Posted By: gribovar
Mistic - Mistic (2006)

Mistic - Mistic (2006)
EAC Rip | FLAC (tracks+.cue+log) - 389 MB | MP3 CBR 320 kbps (LAME 3.93) - 138 MB | Covers - 192 MB
Genre: New Age, Chant, Ambientpop | RAR 3% Rec. | Label: Warner Music Poland (5101-13740-2)

Mistic was founded in 2005, inspired by a series of albums "Gregorian - Masters of Chant," which results released in 2006 album "Mistic - Polish biggest hits in the style of Gregorian chant" released by Warner Music.
Tracklist:
01. Mistic
02. 10 Przykazan
03. Statki Na Niebie
04. Zaluje
05. Kiedy Powiem Sobie Dosc
06. Wiara
07. Kropla Deszczu
08. Kolysanka Dla Nieznajomej
09. To Co Dobre
10. Imie Deszczu
11. Latwopalni
12. Ruchome Piaski
13. Zapisane Jest

Total time: 57:20

Exact Audio Copy V1.0 beta 3 from 29. August 2011

EAC extraction logfile from 17. March 2013, 12:45

Mistic / Mistic

Used drive : ASUS BW-12B1ST Adapter: 1 ID: 1

Read mode : Secure
Utilize accurate stream : Yes
Defeat audio cache : Yes
Make use of C2 pointers : No

Read offset correction : 6
Overread into Lead-In and Lead-Out : No
Fill up missing offset samples with silence : Yes
Delete leading and trailing silent blocks : No
Null samples used in CRC calculations : Yes
Used interface : Native Win32 interface for Win NT & 2000
Gap handling : Appended to previous track

Used output format : User Defined Encoder
Selected bitrate : 1024 kBit/s
Quality : High
Add ID3 tag : No
Command line compressor : C:\Program Files (x86)\Exact Audio Copy\Flac\flac.exe
Additional command line options : -8 -V -T "ARTIST=%artist%" -T "TITLE=%title%" -T "ALBUM=%albumtitle%" -T "DATE=%year%" -T "TRACKNUMBER=%tracknr%" -T "GENRE=%genre%" -T "PERFORMER=%albuminterpret%" -T "COMPOSER=%composer%" %haslyrics%–tag-from-file=LYRICS="%lyricsfile%"%haslyrics% -T "ALBUMARTIST=%albumartist%" -T "DISCNUMBER=%cdnumber%" -T "TOTALDISCS=%totalcds%" -T "TOTALTRACKS=%numtracks%" -T "COMMENT=%comment%" %source% -o %dest%


TOC of the extracted CD

Track | Start | Length | Start sector | End sector
––––––––––––––––––––––––––––-
1 | 0:00.00 | 1:54.26 | 0 | 8575
2 | 1:54.26 | 5:27.01 | 8576 | 33101
3 | 7:21.27 | 4:16.51 | 33102 | 52352
4 | 11:38.03 | 5:03.63 | 52353 | 75140
5 | 16:41.66 | 5:23.63 | 75141 | 99428
6 | 22:05.54 | 4:46.35 | 99429 | 120913
7 | 26:52.14 | 4:21.09 | 120914 | 140497
8 | 31:13.23 | 3:40.18 | 140498 | 157015
9 | 34:53.41 | 4:00.32 | 157016 | 175047
10 | 38:53.73 | 3:31.38 | 175048 | 190910
11 | 42:25.36 | 4:23.31 | 190911 | 210666
12 | 46:48.67 | 5:53.34 | 210667 | 237175
13 | 52:42.26 | 4:38.03 | 237176 | 258028


Track 1

Filename E:\Mistic - Mistic (2006)\01 Mistic (Original).wav

Pre-gap length 0:00:02.00

Peak level 96.5 %
Extraction speed 1.6 X
Track quality 100.0 %
Test CRC 4ACE01F7
Copy CRC 4ACE01F7
Accurately ripped (confidence 1) [6E5319C5] (AR v1)
Copy OK

Track 2

Filename E:\Mistic - Mistic (2006)\02 10 Przykazan (Bajm).wav

Peak level 96.5 %
Extraction speed 1.7 X
Track quality 99.9 %
Test CRC 52EA633D
Copy CRC 52EA633D
Accurately ripped (confidence 1) [7193E2F8] (AR v1)
Copy OK

Track 3

Filename E:\Mistic - Mistic (2006)\03 Statki Na Niebie (De Mono).wav

Peak level 99.9 %
Extraction speed 2.4 X
Track quality 100.0 %
Test CRC A2072E89
Copy CRC A2072E89
Accurately ripped (confidence 1) [8B57C866] (AR v1)
Copy OK

Track 4

Filename E:\Mistic - Mistic (2006)\04 Zaluje (Ewelina Flinta).wav

Pre-gap length 0:00:32.76

Peak level 99.4 %
Extraction speed 2.7 X
Track quality 100.0 %
Test CRC 8E327EE3
Copy CRC 8E327EE3
Accurately ripped (confidence 1) [EE0B3CE2] (AR v1)
Copy OK

Track 5

Filename E:\Mistic - Mistic (2006)\05 Kiedy Powiem Sobie Dosc (O.N.A).wav

Pre-gap length 0:00:41.32

Peak level 96.5 %
Extraction speed 2.9 X
Track quality 100.0 %
Test CRC 2FD197C7
Copy CRC 2FD197C7
Accurately ripped (confidence 1) [0500B158] (AR v1)
Copy OK

Track 6

Filename E:\Mistic - Mistic (2006)\06 Wiara (Ira).wav

Peak level 100.0 %
Extraction speed 2.3 X
Track quality 99.9 %
Test CRC 7BD29CCB
Copy CRC 7BD29CCB
Accurately ripped (confidence 1) [47B238F1] (AR v1)
Copy OK

Track 7

Filename E:\Mistic - Mistic (2006)\07 Kropla Deszczu (Gabriel Fleszar).wav

Pre-gap length 0:00:20.70

Peak level 98.8 %
Extraction speed 3.2 X
Track quality 100.0 %
Test CRC 14726D01
Copy CRC 14726D01
Accurately ripped (confidence 1) [2B8E4396] (AR v1)
Copy OK

Track 8

Filename E:\Mistic - Mistic (2006)\08 Kolysanka Dla Nieznajomej (Perfect).wav

Pre-gap length 0:00:20.92

Peak level 100.0 %
Extraction speed 3.2 X
Track quality 100.0 %
Test CRC E7D16A03
Copy CRC E7D16A03
Accurately ripped (confidence 1) [F0BD8ECD] (AR v1)
Copy OK

Track 9

Filename E:\Mistic - Mistic (2006)\09 To Co Dobre (Kasia Kowalska).wav

Peak level 96.5 %
Extraction speed 3.4 X
Track quality 100.0 %
Test CRC E35FD986
Copy CRC E35FD986
Accurately ripped (confidence 1) [96FCFE2B] (AR v1)
Copy OK

Track 10

Filename E:\Mistic - Mistic (2006)\10 Imie Deszczu (Mafia).wav

Peak level 96.5 %
Extraction speed 2.5 X
Track quality 99.9 %
Test CRC 26DA7034
Copy CRC 26DA7034
Accurately ripped (confidence 1) [A68EAC79] (AR v1)
Copy OK

Track 11

Filename E:\Mistic - Mistic (2006)\11 Latwopalni (Maryla Rodowicz).wav

Peak level 98.4 %
Extraction speed 3.7 X
Track quality 100.0 %
Test CRC E6D73637
Copy CRC E6D73637
Accurately ripped (confidence 1) [EBBB554D] (AR v1)
Copy OK

Track 12

Filename E:\Mistic - Mistic (2006)\12 Ruchome Piaski (Varius Manx).wav

Pre-gap length 0:00:23.40

Peak level 98.7 %
Extraction speed 4.0 X
Track quality 100.0 %
Test CRC 31D4448F
Copy CRC 31D4448F
Accurately ripped (confidence 1) [B9AE0D82] (AR v1)
Copy OK

Track 13

Filename E:\Mistic - Mistic (2006)\13 Zapisane Jest (Original).wav

Pre-gap length 0:00:25.29

Peak level 100.0 %
Extraction speed 4.0 X
Track quality 100.0 %
Test CRC DDC39ED1
Copy CRC DDC39ED1
Accurately ripped (confidence 1) [113DDC9D] (AR v1)
Copy OK


All tracks accurately ripped

No errors occurred

End of status report

==== Log checksum 25A6801188C6E4EDF19FDF0E168F61FCC21447DA9E6893779DFB43DFECABD99D ====

[CUETools log; Date: 04.04.2019 15:41:40; Version: 2.1.4]
[CTDB TOCID: ZOOboisNoeUC1Mw3MxVjXE0fYuM-] found.
Track | CTDB Status
1 | (6/6) Accurately ripped
2 | (6/6) Accurately ripped
3 | (6/6) Accurately ripped
4 | (6/6) Accurately ripped
5 | (6/6) Accurately ripped
6 | (6/6) Accurately ripped
7 | (6/6) Accurately ripped
8 | (6/6) Accurately ripped
9 | (6/6) Accurately ripped
10 | (6/6) Accurately ripped
11 | (6/6) Accurately ripped
12 | (6/6) Accurately ripped
13 | (6/6) Accurately ripped
[AccurateRip ID: 001ad68c-010eeee3-960d700d] found.
Track [ CRC | V2 ] Status
01 [6e5319c5|9a0c82e0] (1+1/2) Accurately ripped
02 [7193e2f8|39dccf86] (1+1/2) Accurately ripped
03 [8b57c866|01ffb261] (1+1/2) Accurately ripped
04 [ee0b3ce2|f78a28b6] (1+1/2) Accurately ripped
05 [0500b158|6b2a9003] (1+1/2) Accurately ripped
06 [47b238f1|40ccf317] (1+1/2) Accurately ripped
07 [2b8e4396|ed223ad3] (1+1/2) Accurately ripped
08 [f0bd8ecd|b3718523] (1+1/2) Accurately ripped
09 [96fcfe2b|c4a3944d] (1+1/2) Accurately ripped
10 [a68eac79|9d6c2be0] (1+1/2) Accurately ripped
11 [ebbb554d|5a1bafed] (1+1/2) Accurately ripped
12 [b9ae0d82|a35f312c] (1+1/2) Accurately ripped
13 [113ddc9d|61b662fc] (1+1/2) Accurately ripped

Track Peak [ CRC32 ] [W/O NULL] [ LOG ]
– 100,0 [9509071A] [0D745322]
01 96,5 [4ACE01F7] [4C423F6F] CRC32
02 96,5 [52EA633D] [03DA3298] CRC32
03 99,9 [A2072E89] [3BC11C5F] CRC32
04 99,4 [8E327EE3] [5DCED5ED] CRC32
05 96,5 [2FD197C7] [E5C5D802] CRC32
06 100,0 [7BD29CCB] [0D168649] CRC32
07 98,8 [14726D01] [23ED32D5] CRC32
08 100,0 [E7D16A03] [DDC29F7A] CRC32
09 96,5 [E35FD986] [B411668D] CRC32
10 96,5 [26DA7034] [1D885CC6] CRC32
11 98,4 [E6D73637] [03B152AC] CRC32
12 98,7 [31D4448F] [5FC479E9] CRC32
13 100,0 [DDC39ED1] [8F4A4ED6] CRC32

Thanks to Ragnaroczek

See also:
Mistic - Glorifica (2011)
Mistic - Between Heaven & Earth (2012)