Subcategories

Moby Grape - Live: Historic Live Moby Grape Performances 1966-1969 (2010)

Posted By: Designol
Moby Grape - Live: Historic Live Moby Grape Performances 1966-1969 (2010)

Moby Grape - Live: Historic Live Moby Grape Performances 1966-1969 (2010)
EAC | FLAC | Tracks (Cue&Log) ~ 319 Mb | Mp3 (CBR320) ~ 175 Mb | Scans included
Label: Sundazed Music | # SC 11210 | Time: 01:13:51
Psychedelic Rock, Folk-Rock, Country-Rock, Blues-Rock

Moby Grape Live is a 2010 album, released by Sundazed Records, of previously unissued live recordings of the band Moby Grape. Included are recordings of the band in its prime in 1966 and 1967, as well as 1969 recordings, subsequent to the 1968 collapse and departure of founding member Skip Spence. A particularly notable inclusion is the band's performance at the historic Monterey International Pop Festival.

Moby Grape made several good albums in their day, but only one inarguably great one (their classic 1967 debut), and getting their special magic on tape in the studio seemed to be a tricky affair. But the group apparently had better luck with their muse on-stage, judging from the evidence contained in this album. Featuring material from five concerts spanning a period that predates the first album and ends shortly before the recording of Truly Fine Citizen (the album that preceded their first breakup), Moby Grape Live: Historic Live Moby Grape Performances captures the energy and spirit of the band as well as anything they released during their heyday. This collection starts out with seven songs from a show at San Francisco's Avalon Ballroom in 1967, and if the performances aren't quite as precise as what they achieved in the studio, the interplay between guitarists Peter Lewis, Jerry Miller, and Skip Spence is exciting and brimming with imagination, while the five-part harmonies are terrific and all the more impressive for the fire of the band's attack. Next up is the first authorized release of Moby Grape's short set at the 1967 Monterey International Pop Festival, and though the band might have been better advised to start with something more rousing than "Indifference" and "Mr. Blues," the group is in fine fettle and the closing version of "Omaha" rocks out. After a gritty 1967 blues workout on "Sweet Little Angel" that leaves plenty of room for guitar soloing, the album jumps forward to 1969 and a five-song session recorded for RAI Radio during a tour stop in the Netherlands. By this time, Spence was out of Moby Grape, but if there's a little less electricity in the band the passion is still there, the harmonies are spot-on, "Trucking Man" rocks furiously, and the extended version of "Omaha" shows this group was still finding new wrinkles in their classic repertoire. And finally, a 1966 Avalon Ballroom tape unearths the otherwise unrecorded "Dark Magic," an epic-scale guitar workout that runs over 17 minutes in this version. Given that concision was one of Moby Grape's great virtues, a quarter-hour guitar freakout wouldn't seem to play to their strengths, but if "Dark Magic" meanders just a bit, the interplay between the musicians is little short of amazing and they wind enough twists and turns into the song to keep it exciting throughout. While Moby Grape's studio work might offer a clearer picture of the strength of their songs, Historic Live Moby Grape does a brilliant job of revealing what made them great as a band, and the best tracks here should prompt any serious fan of late-'60s rock to reaffirm Moby Grape's status as one of the finest acts of their time.

Review by Mark Deming, Allmusic.com

Moby Grape - Live: Historic Live Moby Grape Performances 1966-1969 (2010)



Tracklist:

Avalon Ballroom, San Francisco June 1967
01. Ain't No Use (1:34)
02. Rounder (2:00)
03. Looper (2:25)
04. Bitter Wind (1:48)
05. Changes (4:36)
06. Indifference (2:47)
07. Someday (3:22)

Monterey International Pop Festival June 17, 1967
08. Introduction (1:18)
09. Indifference (3:16)
10. Mr. Blues (1:52)
11. Sitting by the Window (2:56)
12. Omaha (2:53)

San Francisco 1967
13. Sweet Little Angel (4:50)

RAI, Amsterdam, Netherlands February 12, 1969
14. Murder in My Heart for the Judge (4:51)
15. I Am Not Willing (5:31)
16. Trucking Man (2:05)
17. Fall on You (2:14)
18. Omaha (6:05)

Avalon Ballroom, San Francisco December 31, 1966
19. Dark Magic (17:27)


Exact Audio Copy V0.99 prebeta 4 from 23. January 2008

EAC extraction logfile from 25. May 2010, 23:50

Moby Grape / Live

Used drive : TSSTcorpCD/DVDW TS-L632D Adapter: 0 ID: 1

Read mode : Secure
Utilize accurate stream : Yes
Defeat audio cache : Yes
Make use of C2 pointers : No

Read offset correction : 6
Overread into Lead-In and Lead-Out : No
Fill up missing offset samples with silence : Yes
Delete leading and trailing silent blocks : No
Null samples used in CRC calculations : Yes
Used interface : Native Win32 interface for Win NT & 2000
Gap handling : Appended to previous track

Used output format : User Defined Encoder
Selected bitrate : 128 kBit/s
Quality : High
Add ID3 tag : No
Command line compressor : C:\Program Files\FLAC\flac.exe
Additional command line options : -8 -V -T "ARTIST=%a" -T "TITLE=%t" -T "ALBUM=%g" -T "DATE=%y" -T "TRACKNUMBER=%n" -T "GENRE=%m" -T "COMMENT=%e" %s -o %d


TOC of the extracted CD

Track | Start | Length | Start sector | End sector
––––––––––––––––––––––––––––-
1 | 0:00.00 | 1:33.53 | 0 | 7027
2 | 1:33.53 | 2:00.13 | 7028 | 16040
3 | 3:33.66 | 2:24.41 | 16041 | 26881
4 | 5:58.32 | 1:47.52 | 26882 | 34958
5 | 7:46.09 | 4:36.31 | 34959 | 55689
6 | 12:22.40 | 2:47.29 | 55690 | 68243
7 | 15:09.69 | 3:21.51 | 68244 | 83369
8 | 18:31.45 | 1:18.35 | 83370 | 89254
9 | 19:50.05 | 3:16.00 | 89255 | 103954
10 | 23:06.05 | 1:52.16 | 103955 | 112370
11 | 24:58.21 | 2:55.48 | 112371 | 125543
12 | 27:53.69 | 2:53.33 | 125544 | 138551
13 | 30:47.27 | 4:50.23 | 138552 | 160324
14 | 35:37.50 | 4:51.16 | 160325 | 182165
15 | 40:28.66 | 5:31.00 | 182166 | 206990
16 | 45:59.66 | 2:05.18 | 206991 | 216383
17 | 48:05.09 | 2:13.46 | 216384 | 226404
18 | 50:18.55 | 6:04.62 | 226405 | 253766
19 | 56:23.42 | 17:27.14 | 253767 | 332305


Track 1

Filename D:\EAC\01 - Ain't No Use.wav

Pre-gap length 0:00:02.00

Peak level 98.8 %
Track quality 100.0 %
Test CRC 4BD196AB
Copy CRC 4BD196AB
Track not present in AccurateRip database
Copy OK

Track 2

Filename D:\EAC\02 - Rounder.wav

Peak level 98.8 %
Track quality 99.9 %
Test CRC 64A69858
Copy CRC 64A69858
Track not present in AccurateRip database
Copy OK

Track 3

Filename D:\EAC\03 - Looper.wav

Peak level 98.8 %
Track quality 100.0 %
Test CRC 322A9860
Copy CRC 322A9860
Track not present in AccurateRip database
Copy OK

Track 4

Filename D:\EAC\04 - Bitter Wind.wav

Peak level 98.8 %
Track quality 100.0 %
Test CRC C79FA3E9
Copy CRC C79FA3E9
Track not present in AccurateRip database
Copy OK

Track 5

Filename D:\EAC\05 - Changes.wav

Peak level 98.8 %
Track quality 100.0 %
Test CRC 255B5358
Copy CRC 255B5358
Track not present in AccurateRip database
Copy OK

Track 6

Filename D:\EAC\06 - Indifference.wav

Peak level 98.8 %
Track quality 100.0 %
Test CRC 065EEF56
Copy CRC 065EEF56
Track not present in AccurateRip database
Copy OK

Track 7

Filename D:\EAC\07 - Someday.wav

Peak level 98.8 %
Track quality 100.0 %
Test CRC ECF888CB
Copy CRC ECF888CB
Track not present in AccurateRip database
Copy OK

Track 8

Filename D:\EAC\08 - Introduction.wav

Pre-gap length 0:00:01.46

Peak level 98.4 %
Track quality 100.0 %
Test CRC ECD84DCE
Copy CRC ECD84DCE
Track not present in AccurateRip database
Copy OK

Track 9

Filename D:\EAC\09 - Indifference.wav

Peak level 98.8 %
Track quality 100.0 %
Test CRC 6448C94E
Copy CRC 6448C94E
Track not present in AccurateRip database
Copy OK

Track 10

Filename D:\EAC\10 - Mr. Blues.wav

Peak level 98.8 %
Track quality 99.9 %
Test CRC 89001073
Copy CRC 89001073
Track not present in AccurateRip database
Copy OK

Track 11

Filename D:\EAC\11 - Sitting by the Window.wav

Peak level 88.7 %
Track quality 99.9 %
Test CRC DAC5D698
Copy CRC DAC5D698
Track not present in AccurateRip database
Copy OK

Track 12

Filename D:\EAC\12 - Omaha.wav

Peak level 98.8 %
Track quality 100.0 %
Test CRC 602468D0
Copy CRC 602468D0
Track not present in AccurateRip database
Copy OK

Track 13

Filename D:\EAC\13 - Sweet Little Angel.wav

Pre-gap length 0:00:01.49

Peak level 73.3 %
Track quality 100.0 %
Test CRC E03FA03D
Copy CRC E03FA03D
Track not present in AccurateRip database
Copy OK

Track 14

Filename D:\EAC\14 - Murder in My Heart for the Judge.wav

Pre-gap length 0:00:02.25

Peak level 79.4 %
Track quality 99.9 %
Test CRC D73D6D2B
Copy CRC D73D6D2B
Track not present in AccurateRip database
Copy OK

Track 15

Filename D:\EAC\15 - I Am Not Willing.wav

Peak level 79.2 %
Track quality 100.0 %
Test CRC 881476DF
Copy CRC 881476DF
Track not present in AccurateRip database
Copy OK

Track 16

Filename D:\EAC\16 - Trucking Man.wav

Peak level 98.8 %
Track quality 100.0 %
Test CRC 9AE52DBF
Copy CRC 9AE52DBF
Track not present in AccurateRip database
Copy OK

Track 17

Filename D:\EAC\17 - Fall on You.wav

Peak level 96.3 %
Track quality 100.0 %
Test CRC 0B4CCD8C
Copy CRC 0B4CCD8C
Track not present in AccurateRip database
Copy OK

Track 18

Filename D:\EAC\18 - Omaha.wav

Peak level 96.9 %
Track quality 100.0 %
Test CRC CC17C19D
Copy CRC CC17C19D
Track not present in AccurateRip database
Copy OK

Track 19

Filename D:\EAC\19 - Dark Magic.wav

Pre-gap length 0:00:02.59

Peak level 98.8 %
Track quality 100.0 %
Test CRC C52B7A27
Copy CRC C52B7A27
Track not present in AccurateRip database
Copy OK


None of the tracks are present in the AccurateRip database

No errors occurred

End of status report

[CUETools log; Date: 20.04.2018 18:19:17; Version: 2.1.4]
[CTDB TOCID: xF0RVXHaGRQ.QBASgFieU6rL0f8-] found.
Track | CTDB Status
1 | (16/16) Accurately ripped
2 | (16/16) Accurately ripped
3 | (16/16) Accurately ripped
4 | (16/16) Accurately ripped
5 | (15/16) Accurately ripped
6 | (16/16) Accurately ripped
7 | (16/16) Accurately ripped
8 | (16/16) Accurately ripped
9 | (16/16) Accurately ripped
10 | (16/16) Accurately ripped
11 | (16/16) Accurately ripped
12 | (15/16) Accurately ripped
13 | (16/16) Accurately ripped
14 | (16/16) Accurately ripped
15 | (16/16) Accurately ripped
16 | (16/16) Accurately ripped
17 | (16/16) Accurately ripped
18 | (16/16) Accurately ripped
19 | (15/16) Accurately ripped
[AccurateRip ID: 00253c2b-02210c9c-fc114e13] found.
Track [ CRC | V2 ] Status
01 [73e7374c|2a03e250] (08+08/20) Accurately ripped
02 [25c7066b|6d3f24e8] (08+08/20) Accurately ripped
03 [1b31efc7|1cebe21c] (08+08/20) Accurately ripped
04 [b64cf651|5cdc8953] (08+08/20) Accurately ripped
05 [928a1eee|b04790cd] (08+08/20) Accurately ripped
06 [3140c178|6f47db3a] (08+08/20) Accurately ripped
07 [260aee48|1903208a] (08+08/20) Accurately ripped
08 [0ef9293c|986fd575] (08+08/20) Accurately ripped
09 [bf53c82e|8be0aa8f] (08+08/20) Accurately ripped
10 [b2f2dc03|ec556a52] (08+08/20) Accurately ripped
11 [84b52158|5e684ea6] (08+08/20) Accurately ripped
12 [e69e75a4|209cbaa1] (08+08/20) Accurately ripped
13 [df32fb6a|68f07847] (08+08/20) Accurately ripped
14 [de2d2e53|5fe7709a] (08+08/20) Accurately ripped
15 [289bf6e1|45f6ec35] (08+08/20) Accurately ripped
16 [459b4a7b|b85f77e1] (08+08/20) Accurately ripped
17 [38cb3ef4|ecf09379] (08+08/20) Accurately ripped
18 [9e55bfb0|e64d8122] (08+08/20) Accurately ripped
19 [fc695b41|427da439] (07+08/18) Accurately ripped
Offsetted by -12:
01 [7f95ac1a] (00/20) No match (V2 was not tested)
02 [c1b200ec] (00/20) No match (V2 was not tested)
03 [53b11bc3] (00/20) No match (V2 was not tested)
04 [06e75d91] (00/20) No match (V2 was not tested)
05 [8b9ec580] (00/20) No match (V2 was not tested)
06 [0a318ddb] (00/20) No match (V2 was not tested)
07 [0dd0d5dc] (00/20) No match (V2 was not tested)
08 [204fe248] (00/20) No match (V2 was not tested)
09 [e203e9fc] (00/20) No match (V2 was not tested)
10 [5a90cbf1] (00/20) No match (V2 was not tested)
11 [80f12f3f] (00/20) No match (V2 was not tested)
12 [a900f0ab] (00/20) No match (V2 was not tested)
13 [656ed453] (00/20) No match (V2 was not tested)
14 [66a84519] (00/20) No match (V2 was not tested)
15 [499b53c9] (00/20) No match (V2 was not tested)
16 [9974ca3d] (00/20) No match (V2 was not tested)
17 [b8b2dcb7] (00/20) No match (V2 was not tested)
18 [9df952fa] (00/20) No match (V2 was not tested)
19 [53764dac] (00/18) No match (V2 was not tested)

Track Peak [ CRC32 ] [W/O NULL] [ LOG ]
– 98,8 [4838ADE7] [269797C5]
01 98,8 [4BD196AB] [6BE0F188] CRC32
02 98,8 [64A69858] [974C8A7F] CRC32
03 98,8 [322A9860] [AA62391A] CRC32
04 98,8 [C79FA3E9] [4AFEA92C] CRC32
05 98,8 [255B5358] [BDF4058B] CRC32
06 98,8 [065EEF56] [2FC89B0B] CRC32
07 98,8 [ECF888CB] [1C28975F] CRC32
08 98,4 [ECD84DCE] [06B2C8A7] CRC32
09 98,8 [6448C94E] [9639C198] CRC32
10 98,8 [89001073] [CFAA6672] CRC32
11 88,7 [DAC5D698] [03F4A2E0] CRC32
12 98,8 [602468D0] [18FDE2DE] CRC32
13 73,3 [E03FA03D] [72B5F178] CRC32
14 79,4 [D73D6D2B] [6F4DFB8D] CRC32
15 79,2 [881476DF] [DFF8840A] CRC32
16 98,8 [9AE52DBF] [F47FB986] CRC32
17 96,3 [0B4CCD8C] [82E1973F] CRC32
18 96,9 [CC17C19D] [11AFAE25] CRC32
19 98,8 [C52B7A27] [8BB91675] CRC32

foobar2000 1.2 / Dynamic Range Meter 1.1.1
log date: 2018-04-20 18:21:45

––––––––––––––––––––––––––––––––––––––––
Analyzed: Moby Grape / Live
––––––––––––––––––––––––––––––––––––––––

DR Peak RMS Duration Track
––––––––––––––––––––––––––––––––––––––––
DR11 -0.10 dB -13.30 dB 1:34 01-Ain't No Use
DR11 -0.10 dB -12.06 dB 2:00 02-Rounder
DR11 -0.10 dB -13.40 dB 2:25 03-Looper
DR9 -0.10 dB -10.62 dB 1:48 04-Bitter Wind
DR10 -0.10 dB -11.85 dB 4:36 05-Changes
DR11 -0.10 dB -11.83 dB 2:47 06-Indifference
DR11 -0.10 dB -14.08 dB 3:22 07-Someday
DR15 -0.13 dB -23.30 dB 1:18 08-Introduction
DR11 -0.10 dB -12.06 dB 3:16 09-Indifference
DR11 -0.10 dB -12.47 dB 1:52 10-Mr. Blues
DR10 -1.04 dB -13.83 dB 2:56 11-Sitting by the Window
DR11 -0.10 dB -12.37 dB 2:53 12-Omaha
DR10 -2.70 dB -14.01 dB 4:50 13-Sweet Little Angel
DR10 -2.00 dB -13.72 dB 4:51 14-Murder in My Heart for the Judge
DR11 -2.02 dB -14.34 dB 5:31 15-I Am Not Willing
DR10 -0.10 dB -11.36 dB 2:05 16-Trucking Man
DR10 -0.32 dB -11.19 dB 2:14 17-Fall on You
DR9 -0.27 dB -11.10 dB 6:05 18-Omaha
DR8 -0.10 dB -10.01 dB 17:27 19-Dark Magic
––––––––––––––––––––––––––––––––––––––––

Number of tracks: 19
Official DR value: DR11

Samplerate: 44100 Hz
Channels: 2
Bits per sample: 16
Bitrate: 490 kbps
Codec: FLAC
================================================================================

Moby Grape - Live: Historic Live Moby Grape Performances 1966-1969 (2010)

Moby Grape - Live: Historic Live Moby Grape Performances 1966-1969 (2010)