Subcategories
Tags
Language
Tags

Mötley Crüe - Music To Crash Your Car To - Volume I (2003)

Posted By: v3122
Mötley Crüe - Music To Crash Your Car To - Volume I (2003)

Mötley Crüe - Music To Crash Your Car To - Volume I (2003)
EAC | Flac(Image) + Cue + Log & MP3 CBR 320Kbps
4CD | Hip-O Rec., B0001460-02 | ~ 1968 or 621 Mb | Scans(600dpi, jpg) -> 431 Mb
Hard Rock / Glam Metal

If you need a serious shot of the Crüe, drink up. Music to Crash Your Car To, Vol. 1 is the first four-disc installment of yet another re-releasing of the band's material, though this time the entire catalog is getting the treatment in three separate boxes. This initial set covers the band's halcyon/hell-raising early days of 1981-1987 (i.e., Too Fast for Love, Shout at the Devil, Theatre of Pain, and Girls, Girls, Girls). That alone recommends this as the best box to buy if only grabbing one. Serious Crüesers will no doubt be disappointed that there's not much new going on here apart from the fact that the first disc brings together both the original Leathür Records versions and Elektra Records remixes from MC's debut album, Too Fast for Love (though to many diehards that's a pretty big chunk of bait). One would have thought that there'd have been more genuine bonus material (as opposed to reissued bonus material) – a much fairer deal for the faithful. But new fans and those extremos who want the Leathür album on CD probably won't mind shelling out for this big fix of hair metal history. And apart from "Tommy's Drum Piece from Cherokee Studios" (which is kinda like scraping underneath the bottom of the barrel for material), there aren't many flat spots here. OK, the Crüe were never Aerosmith or Van Halen, but when it came to good-time anthems and candied-up metal, these were the guys to turn to. And all the proof you need is in this release.

by Adrian Zupp, AMG
Mötley Crüe - Music To Crash Your Car To - Volume I (2003)


Mötley Crüe - Music To Crash Your Car To - Volume I (2003):

Mötley Crüe - Music To Crash Your Car To - Volume I (2003)

Tracklist CD1:

01. Live Wire (Leathur Original Mix) (3:16)
02. Public Enemy #1 (Leathur Original Mix) (4:24)
03. Take Me To The Top (Leathur Original Mix) (3:45)
04. Merry-Go-Round (Leathur Original Mix) (3:22)
05. Piece Of Your Action (Leathur Original Mix) (4:42)
06. Starry Eyes (Leathur Original Mix) (4:32)
07. Stick To Your Guns (Leathur Original Mix) (4:20)
08. Come On And Dance (Leathur Original Mix) (3:14)
09. Too Fast For Love (Leathur Original Mix) (4:17)
10. On With The Show (Leathur Original Mix) (4:04)
11. Live Wire (3:14)
12. Come On And Dance (2:46)
13. Public Enemy #1 (4:22)
14. Merry-Go-Round (3:21)
15. Take Me To The Top (3:44)
16. Piece Of Your Action (4:39)
17. Starry Eyes (4:28)
18. Too Fast For Love (3:21)
19. On With The Show (4:04)

Exact Audio Copy V1.0 beta 3 from 29. August 2011

Отчёт EAC об извлечении, выполненном 29. мая 2015, 10:42

Motley Crue / Music To Crash Your Car To - Vol. 1 - Disc 1

Дисковод: TSSTcorpCDDVDW SH-S202H Adapter: 0 ID: 1

Режим чтения : Достоверность
Использование точного потока : Да
Отключение кэша аудио : Да
Использование указателей C2 : Нет

Коррекция смещения при чтении : 6
Способность читать области Lead-in и Lead-out : Нет
Заполнение пропущенных сэмплов тишиной : Да
Удаление блоков с тишиной в начале и конце : Нет
При вычислениях CRC использовались нулевые сэмплы : Да
Интерфейс : Встроенный Win32-интерфейс для Win NT/2000

Выходной формат : Пользовательский кодировщик
Выбранный битрейт : 768 kBit/s
Качество : Высокий
Добавление ID3-тега : Нет
Утилита сжатия : C:\Program Files\Exact Audio Copy\FLAC\FLAC.EXE
Дополнительные параметры : -6 -V -T "ARTIST=%artist%" -T "TITLE=%title%" -T "ALBUM=%albumtitle%" -T "DATE=%year%" -T "TRACKNUMBER=%tracknr%" -T "GENRE=%genre%" -T "COMMENT=%comment%" -T "BAND=%albuminterpret%" -T "ALBUMARTIST=%albuminterpret%" -T "COMPOSER=%composer%" %haslyrics%–tag-from-file=LYRICS="%lyricsfile%"%haslyrics% -T "DISCNUMBER=%cdnumber%" -T "TOTALDISCS=%totalcds%" -T "TOTALTRACKS=%numtracks%" %hascover%–picture="%coverfile%"%hascover% %source% -o %dest%


TOC извлечённого CD

Трек | Старт | Длительность | Начальный сектор | Конечный сектор
––––––––––––––––––––––––––––––––––-
1 | 0:00.00 | 3:16.05 | 0 | 14704
2 | 3:16.05 | 4:24.30 | 14705 | 34534
3 | 7:40.35 | 3:44.40 | 34535 | 51374
4 | 11:25.00 | 3:21.72 | 51375 | 66521
5 | 14:46.72 | 4:41.48 | 66522 | 87644
6 | 19:28.45 | 4:31.40 | 87645 | 108009
7 | 24:00.10 | 4:20.37 | 108010 | 127546
8 | 28:20.47 | 3:13.45 | 127547 | 142066
9 | 31:34.17 | 4:17.03 | 142067 | 161344
10 | 35:51.20 | 4:04.32 | 161345 | 179676
11 | 39:55.52 | 3:14.08 | 179677 | 194234
12 | 43:09.60 | 2:46.22 | 194235 | 206706
13 | 45:56.07 | 4:21.63 | 206707 | 226344
14 | 50:17.70 | 3:21.25 | 226345 | 241444
15 | 53:39.20 | 3:43.42 | 241445 | 258211
16 | 57:22.62 | 4:39.00 | 258212 | 279136
17 | 62:01.62 | 4:28.03 | 279137 | 299239
18 | 66:29.65 | 3:21.15 | 299240 | 314329
19 | 69:51.05 | 4:03.47 | 314330 | 332601


Характеристики диапазона извлечения и сообщения об ошибках

Выбранный диапазон

Имя файла K:\Motley Crue - Music To Crash Your Car To - Vol. 1\Motley Crue - Music To Crash Your Car To - Vol. 1 - Disc 1.wav

Пиковый уровень 100.0 %
Скорость извлечения 3.4 X
Качество диапазона 100.0 %
CRC теста 14F86486
CRC копии 14F86486
Копирование… OK

Ошибок не произошло


AccurateRip: сводка

Трек 1 : извлечено точно (доверие 15) [750B1E90] (AR v2)
Трек 2 : извлечено точно (доверие 14) [D1366193] (AR v2)
Трек 3 : извлечено точно (доверие 14) [74D20DD1] (AR v2)
Трек 4 : извлечено точно (доверие 14) [3D241CEA] (AR v2)
Трек 5 : извлечено точно (доверие 14) [139FD288] (AR v2)
Трек 6 : извлечено точно (доверие 14) [35A1AA7E] (AR v2)
Трек 7 : извлечено точно (доверие 14) [D7933DAF] (AR v2)
Трек 8 : извлечено точно (доверие 14) [2A1A092E] (AR v2)
Трек 9 : извлечено точно (доверие 14) [95E8A0D3] (AR v2)
Трек 10 : извлечено точно (доверие 14) [83A9755B] (AR v2)
Трек 11 : извлечено точно (доверие 16) [2C3F58AA] (AR v2)
Трек 12 : извлечено точно (доверие 16) [C4836A46] (AR v2)
Трек 13 : извлечено точно (доверие 16) [72505E80] (AR v2)
Трек 14 : извлечено точно (доверие 16) [CE8CF33B] (AR v2)
Трек 15 : извлечено точно (доверие 16) [EC3399D5] (AR v2)
Трек 16 : извлечено точно (доверие 16) [1466196E] (AR v2)
Трек 17 : извлечено точно (доверие 16) [0658D620] (AR v2)
Трек 18 : извлечено точно (доверие 15) [E697DE5D] (AR v2)
Трек 19 : извлечено точно (доверие 15) [29D33D7B] (AR v2)

Все треки извлечены точно

Конец отчёта

foobar2000 1.2.9 / Dynamic Range Meter 1.1.1
log date: 2015-05-31 17:15:22

––––––––––––––––––––––––––––––––––––––––
Analyzed: Motley Crue / Music To Crash Your Car To - Vol. 1 - Disc 1
––––––––––––––––––––––––––––––––––––––––

DR Peak RMS Duration Track
––––––––––––––––––––––––––––––––––––––––
DR8 0.00 dB -9.79 dB 3:16 01-Live Wire (Leathur Original Mix)
DR9 0.00 dB -10.24 dB 4:24 02-Public Enemy #1 (Leathur Original Mix)
DR9 0.00 dB -10.05 dB 3:45 03-Take Me To The Top (Leathur Original Mix)
DR9 0.00 dB -10.97 dB 3:22 04-Merry-Go-Round (Leathur Original Mix)
DR9 0.00 dB -9.73 dB 4:42 05-Piece Of Your Action (Leathur Original Mix)
DR9 0.00 dB -10.96 dB 4:32 06-Starry Eyes (Leathur Original Mix)
DR9 0.00 dB -9.97 dB 4:20 07-Stick To Your Guns (Leathur Original Mix)
DR9 0.00 dB -10.73 dB 3:14 08-Come On And Dance (Leathur Original Mix)
DR9 0.00 dB -10.43 dB 4:17 09-Too Fast For Love (Leathur Original Mix)
DR9 0.00 dB -10.18 dB 4:04 10-On With The Show (Leathur Original Mix)
DR8 -0.30 dB -9.63 dB 3:14 11-Live Wire
DR8 -0.30 dB -9.41 dB 2:46 12-Come On And Dance
DR7 -0.30 dB -8.56 dB 4:22 13-Public Enemy #1
DR8 -0.30 dB -11.15 dB 3:21 14-Merry-Go-Round
DR9 -0.30 dB -10.26 dB 3:44 15-Take Me To The Top
DR9 -0.30 dB -10.24 dB 4:39 16-Piece Of Your Action
DR9 -0.30 dB -10.68 dB 4:28 17-Starry Eyes
DR8 -0.30 dB -9.26 dB 3:21 18-Too Fast For Love
DR8 -0.30 dB -10.36 dB 4:04 19-On With The Show
––––––––––––––––––––––––––––––––––––––––

Number of tracks: 19
Official DR value: DR9

Samplerate: 44100 Hz
Channels: 2
Bits per sample: 16
Bitrate: 1032 kbps
Codec: FLAC

[CUETools log; Date: 31.05.2015 16:32:49; Version: 2.1.4]
[CTDB TOCID: 8_Dxb.BAiOa3Hj0M0u_eGoM6eN4-] found.
Track | CTDB Status
1 | (13/13) Accurately ripped
2 | (13/13) Accurately ripped
3 | (13/13) Accurately ripped
4 | (13/13) Accurately ripped
5 | (13/13) Accurately ripped
6 | (13/13) Accurately ripped
7 | (13/13) Accurately ripped
8 | (13/13) Accurately ripped
9 | (13/13) Accurately ripped
10 | (13/13) Accurately ripped
11 | (13/13) Accurately ripped
12 | (13/13) Accurately ripped
13 | (13/13) Accurately ripped
14 | (13/13) Accurately ripped
15 | (13/13) Accurately ripped
16 | (13/13) Accurately ripped
17 | (13/13) Accurately ripped
18 | (12/13) Accurately ripped
19 | (12/13) Accurately ripped
[AccurateRip ID: 0032bef1-02c61c51-25115213] found.
Track [ CRC | V2 ] Status
01 [f8755c45|750b1e90] (13+15/28) Accurately ripped
02 [466fdcc9|d1366193] (16+14/30) Accurately ripped
03 [cb7a625a|74d20dd1] (16+14/30) Accurately ripped
04 [d6b03fa0|3d241cea] (16+14/30) Accurately ripped
05 [d040577f|139fd288] (16+14/30) Accurately ripped
06 [e32ce768|35a1aa7e] (16+14/30) Accurately ripped
07 [384b9b3d|d7933daf] (16+14/30) Accurately ripped
08 [c22db0cd|2a1a092e] (16+14/30) Accurately ripped
09 [5fb6ea00|95e8a0d3] (16+14/30) Accurately ripped
10 [35563080|83a9755b] (16+14/30) Accurately ripped
11 [16948723|2c3f58aa] (14+16/30) Accurately ripped
12 [fa77458d|c4836a46] (14+16/30) Accurately ripped
13 [2ec24c6a|72505e80] (14+16/30) Accurately ripped
14 [53bf548a|ce8cf33b] (14+16/30) Accurately ripped
15 [fa05233c|ec3399d5] (14+16/30) Accurately ripped
16 [143d3685|1466196e] (14+16/30) Accurately ripped
17 [2ffa6f2d|0658d620] (14+16/30) Accurately ripped
18 [7f3b4eb9|e697de5d] (14+15/29) Accurately ripped
19 [54bd51e6|29d33d7b] (14+15/29) Accurately ripped

Track Peak [ CRC32 ] [W/O NULL] [ LOG ]
– 100,0 [14F86486] [D515663C] CRC32
01 100,0 [2B098DA1] [412CFF31]
02 100,0 [8196B287] [9235F5FD]
03 100,0 [69616B3E] [BB9D7966]
04 100,0 [44895B2F] [6EE7AF6A]
05 100,0 [112533EC] [4078B7EF]
06 100,0 [9C043F35] [2539FC27]
07 100,0 [3D73901D] [2C41E2E6]
08 100,0 [BECAC7F9] [8532352C]
09 100,0 [78738C5B] [81421821]
10 100,0 [F68B5864] [A9A7F21B]
11 96,6 [40EE4653] [E2F35C3D]
12 96,6 [D46E8AE1] [807A1EF0]
13 96,6 [6E529B33] [4483EF6D]
14 96,6 [6815B9A0] [DBE6DCD0]
15 96,6 [85474CEE] [0E6D21C5]
16 96,6 [6F748D30] [EAAA98E9]
17 96,6 [1CE23C6C] [B2E502B9]
18 96,6 [E632DE96] [E89785B5]
19 96,6 [6AC2A5F3] [4D5EEDF5]

Mötley Crüe - Music To Crash Your Car To - Volume I (2003)

Tracklist CD2:

01. Toast Of The Town (3:34)
02. Tonight (4:26)
03. Too Fast For Love (Alternate Intro) (4:19)
04. Merry-Go-Round (Live) (3:56)
05. In The Beginning (1:14)
06. Shout At The Devil (3:16)
07. Looks That Kill (4:08)
08. Bastard (2:54)
09. God Bless The Children Of The Beast (1:31)
10. Helter Skelter (3:13)
11. Red Hot (3:21)
12. Too Young To Fall In Love (3:33)
13. Knock 'Em Dead Kid (3:43)
14. Ten Seconds To Love (4:17)
15. Danger (3:46)
16. Shout At The Devil (Demo) (3:17)
17. Looks That Kill (Demo) (5:05)
18. Hotter Than Hell (Demo) (2:51)
19. I Will Survive (3:22)
20. Too Young To Fall In Love (Demo) (3:04)

Exact Audio Copy V1.0 beta 3 from 29. August 2011

Отчёт EAC об извлечении, выполненном 29. мая 2015, 11:09

Motley Crue / Music To Crash Your Car To Volume 1 (Disc 2)

Дисковод: TSSTcorpCDDVDW SH-S202H Adapter: 0 ID: 1

Режим чтения : Достоверность
Использование точного потока : Да
Отключение кэша аудио : Да
Использование указателей C2 : Нет

Коррекция смещения при чтении : 6
Способность читать области Lead-in и Lead-out : Нет
Заполнение пропущенных сэмплов тишиной : Да
Удаление блоков с тишиной в начале и конце : Нет
При вычислениях CRC использовались нулевые сэмплы : Да
Интерфейс : Встроенный Win32-интерфейс для Win NT/2000

Выходной формат : Пользовательский кодировщик
Выбранный битрейт : 768 kBit/s
Качество : Высокий
Добавление ID3-тега : Нет
Утилита сжатия : C:\Program Files\Exact Audio Copy\FLAC\FLAC.EXE
Дополнительные параметры : -6 -V -T "ARTIST=%artist%" -T "TITLE=%title%" -T "ALBUM=%albumtitle%" -T "DATE=%year%" -T "TRACKNUMBER=%tracknr%" -T "GENRE=%genre%" -T "COMMENT=%comment%" -T "BAND=%albuminterpret%" -T "ALBUMARTIST=%albuminterpret%" -T "COMPOSER=%composer%" %haslyrics%–tag-from-file=LYRICS="%lyricsfile%"%haslyrics% -T "DISCNUMBER=%cdnumber%" -T "TOTALDISCS=%totalcds%" -T "TOTALTRACKS=%numtracks%" %hascover%–picture="%coverfile%"%hascover% %source% -o %dest%


TOC извлечённого CD

Трек | Старт | Длительность | Начальный сектор | Конечный сектор
––––––––––––––––––––––––––––––––––-
1 | 0:00.00 | 3:33.65 | 0 | 16039
2 | 3:33.65 | 4:26.02 | 16040 | 35991
3 | 7:59.67 | 4:18.60 | 35992 | 55401
4 | 12:18.52 | 3:55.48 | 55402 | 73074
5 | 16:14.25 | 1:14.22 | 73075 | 78646
6 | 17:28.47 | 3:15.50 | 78647 | 93321
7 | 20:44.22 | 4:07.53 | 93322 | 111899
8 | 24:52.00 | 2:54.25 | 111900 | 124974
9 | 27:46.25 | 1:30.55 | 124975 | 131779
10 | 29:17.05 | 3:13.00 | 131780 | 146254
11 | 32:30.05 | 3:21.27 | 146255 | 161356
12 | 35:51.32 | 3:33.20 | 161357 | 177351
13 | 39:24.52 | 3:43.25 | 177352 | 194101
14 | 43:08.02 | 4:17.10 | 194102 | 213386
15 | 47:25.12 | 3:45.65 | 213387 | 230326
16 | 51:11.02 | 3:17.08 | 230327 | 245109
17 | 54:28.10 | 5:05.37 | 245110 | 268021
18 | 59:33.47 | 2:50.53 | 268022 | 280824
19 | 62:24.25 | 3:21.45 | 280825 | 295944
20 | 65:45.70 | 3:03.50 | 295945 | 309719


Характеристики диапазона извлечения и сообщения об ошибках

Выбранный диапазон

Имя файла K:\Motley Crue - Music To Crash Your Car To - Vol. 1\Motley Crue - Music To Crash Your Car To - Vol. 1 - Disc 2\Motley Crue - Music To Crash Your Car To - Vol. 1 - Disc 2.wav

Пиковый уровень 98.8 %
Скорость извлечения 6.2 X
Качество диапазона 100.0 %
CRC теста E821A71B
CRC копии E821A71B
Копирование… OK

Ошибок не произошло


AccurateRip: сводка

Трек 1 : извлечено точно (доверие 15) [1D143D2A] (AR v2)
Трек 2 : извлечено точно (доверие 14) [E0E01B68] (AR v2)
Трек 3 : извлечено точно (доверие 14) [6D55A759] (AR v2)
Трек 4 : извлечено точно (доверие 14) [211E46D7] (AR v2)
Трек 5 : извлечено точно (доверие 14) [8EC44F7C] (AR v2)
Трек 6 : извлечено точно (доверие 15) [BAE7E630] (AR v2)
Трек 7 : извлечено точно (доверие 14) [471323D2] (AR v2)
Трек 8 : извлечено точно (доверие 14) [3CDBEF22] (AR v2)
Трек 9 : извлечено точно (доверие 14) [7BFF8F98] (AR v2)
Трек 10 : извлечено точно (доверие 14) [50749109] (AR v2)
Трек 11 : извлечено точно (доверие 14) [EE1A8C54] (AR v2)
Трек 12 : извлечено точно (доверие 15) [2940D4DE] (AR v2)
Трек 13 : извлечено точно (доверие 14) [FB863899] (AR v2)
Трек 14 : извлечено точно (доверие 14) [72E35D4B] (AR v2)
Трек 15 : извлечено точно (доверие 15) [F788DD5A] (AR v2)
Трек 16 : извлечено точно (доверие 14) [5724413E] (AR v2)
Трек 17 : извлечено точно (доверие 14) [9A35F728] (AR v2)
Трек 18 : извлечено точно (доверие 13) [3629E822] (AR v2)
Трек 19 : извлечено точно (доверие 12) [1625CC53] (AR v2)
Трек 20 : извлечено точно (доверие 12) [F64324A9] (AR v2)

Все треки извлечены точно

Конец отчёта

foobar2000 1.2.9 / Dynamic Range Meter 1.1.1
log date: 2015-05-31 17:15:46

––––––––––––––––––––––––––––––––––––––––
Analyzed: Motley Crue / Music To Crash Your Car To Volume 1 (Disc 2)
––––––––––––––––––––––––––––––––––––––––

DR Peak RMS Duration Track
––––––––––––––––––––––––––––––––––––––––
DR8 -0.80 dB -9.49 dB 3:34 01-Toast Of The Town
DR8 -0.80 dB -9.79 dB 4:26 02-Tonight
DR7 -0.80 dB -8.81 dB 4:19 03-Too Fast For Love (Alternate Intro)
DR7 -0.80 dB -10.73 dB 3:56 04-Merry-Go-Round (Live)
DR10 -0.52 dB -13.26 dB 1:14 05-In The Beginning
DR8 -0.13 dB -9.43 dB 3:16 06-Shout At The Devil
DR7 -0.10 dB -8.40 dB 4:08 07-Looks That Kill
DR7 -0.10 dB -8.96 dB 2:54 08-Bastard
DR12 -2.28 dB -17.53 dB 1:31 09-God Bless The Children Of The Beast
DR8 -0.10 dB -9.01 dB 3:13 10-Helter Skelter
DR6 -0.10 dB -7.29 dB 3:21 11-Red Hot
DR7 -0.10 dB -9.03 dB 3:33 12-Too Young To Fall In Love
DR8 -0.10 dB -8.97 dB 3:43 13-Knock 'Em Dead Kid
DR8 -0.10 dB -9.06 dB 4:17 14-Ten Seconds To Love
DR7 -0.10 dB -8.96 dB 3:46 15-Danger
DR9 -0.10 dB -10.71 dB 3:17 16-Shout At The Devil (Demo)
DR7 -0.10 dB -8.44 dB 5:05 17-Looks That Kill (Demo)
DR8 -0.10 dB -9.51 dB 2:51 18-Hotter Than Hell (Demo)
DR7 -0.10 dB -9.55 dB 3:22 19-I Will Survive
DR8 -0.10 dB -9.77 dB 3:04 20-Too Young To Fall In Love (Demo)
––––––––––––––––––––––––––––––––––––––––

Number of tracks: 20
Official DR value: DR8

Samplerate: 44100 Hz
Channels: 2
Bits per sample: 16
Bitrate: 1030 kbps
Codec: FLAC

[CUETools log; Date: 31.05.2015 16:39:40; Version: 2.1.4]
[CTDB TOCID: mGjCziVHpV_rYKdd30ygo0R3S94-] found.
Track | CTDB Status
1 | (12/12) Accurately ripped
2 | (12/12) Accurately ripped
3 | (12/12) Accurately ripped
4 | (12/12) Accurately ripped
5 | (12/12) Accurately ripped
6 | (12/12) Accurately ripped
7 | (12/12) Accurately ripped
8 | (12/12) Accurately ripped
9 | (12/12) Accurately ripped
10 | (12/12) Accurately ripped
11 | (12/12) Accurately ripped
12 | (11/12) Accurately ripped
13 | (12/12) Accurately ripped
14 | (12/12) Accurately ripped
15 | (12/12) Accurately ripped
16 | (12/12) Accurately ripped
17 | (12/12) Accurately ripped
18 | (11/12) Accurately ripped
19 | (11/12) Accurately ripped
20 | (11/12) Accurately ripped
[AccurateRip ID: 00317e0f-02d32cfa-33102114] found.
Track [ CRC | V2 ] Status
01 [7c53985a|1d143d2a] (15+15/30) Accurately ripped
02 [5e71f8af|e0e01b68] (15+14/29) Accurately ripped
03 [8f510831|6d55a759] (15+14/29) Accurately ripped
04 [10ea9846|211e46d7] (16+14/30) Accurately ripped
05 [9b249f90|8ec44f7c] (16+14/30) Accurately ripped
06 [1d752048|bae7e630] (16+15/31) Accurately ripped
07 [082e4de4|471323d2] (15+14/29) Accurately ripped
08 [d110ca4d|3cdbef22] (16+14/30) Accurately ripped
09 [7258e04d|7bff8f98] (17+14/31) Accurately ripped
10 [730b3793|50749109] (16+14/30) Accurately ripped
11 [76df74d1|ee1a8c54] (16+14/30) Accurately ripped
12 [4fffd0f8|2940d4de] (16+15/31) Accurately ripped
13 [e7b07ff8|fb863899] (16+14/30) Accurately ripped
14 [2907b8d5|72e35d4b] (16+14/30) Accurately ripped
15 [a122073e|f788dd5a] (16+15/31) Accurately ripped
16 [22a10292|5724413e] (16+14/30) Accurately ripped
17 [f9b84f59|9a35f728] (16+14/30) Accurately ripped
18 [70a222d9|3629e822] (16+13/29) Accurately ripped
19 [83b819fa|1625cc53] (14+12/26) Accurately ripped
20 [24cf0d03|f64324a9] (13+12/25) Accurately ripped

Track Peak [ CRC32 ] [W/O NULL] [ LOG ]
– 98,8 [E821A71B] [32599CDA] CRC32
01 91,2 [44245B8D] [B7BFE068]
02 91,2 [0A9BC4BA] [C2C37FF7]
03 91,2 [5B18252E] [2F487B3D]
04 91,2 [7835027A] [4F697929]
05 94,1 [0AFD7F13] [69CD0E93]
06 98,5 [37335D7D] [B53B6F2A]
07 98,8 [A13A25B8] [6C5D80B0]
08 98,8 [E2E65F64] [7E8ED4BA]
09 76,9 [02AAD568] [DFABE9A4]
10 98,8 [D4C85E0C] [429D12CE]
11 98,8 [81D5F6DA] [B8BCFE20]
12 98,8 [ACC76F81] [2F610FAA]
13 98,8 [B3C90A96] [7636EFD5]
14 98,8 [13300AB5] [BA07E090]
15 98,8 [AA82ADA1] [71B3C863]
16 98,8 [868811A6] [6D052490]
17 98,8 [E5210124] [EA63EE0F]
18 98,8 [183E92A5] [84BFCA79]
19 98,8 [F32C889B] [80F091CE]
20 98,8 [EF75F172] [D3313593]

Mötley Crüe - Music To Crash Your Car To - Volume I (2003)

Tracklist CD3:

01. City Boy Blues (4:09)
02. Smokin' In The Boys Room (3:27)
03. Louder Than Hell (2:32)
04. Keep Your Eye On The Money (4:39)
05. Home Sweet Home (4:00)
06. Tonight (We Need A Lover) (3:37)
07. Use It Or Lose It (2:38)
08. Save Our Souls (4:13)
09. Raise Your Hands To Rock (2:49)
10. Fight For Your Rights (3:49)
11. Home Sweet Home (Demo) (4:24)
12. Smokin' In The Boys Room (Alternate Guitar Solo - Rough Mix) (3:33)
13. City Boy Blues (Demo) (4:28)
14. Home Sweet Home (Instrumental Rough Mix) (2:57)
15. Keep Your Eye On The Money (Demo) (3:49)
16. Tommy's Drum Piece From Cherokee Studios (3:13)

Exact Audio Copy V1.0 beta 3 from 29. August 2011

Отчёт EAC об извлечении, выполненном 30. мая 2015, 0:24

Motley Crue / Motley Crue - Music To Crash Your Car To - Vol. 1 - Disc 3

Дисковод: TSSTcorpCDDVDW SH-S202H Adapter: 0 ID: 1

Режим чтения : Достоверность
Использование точного потока : Да
Отключение кэша аудио : Да
Использование указателей C2 : Нет

Коррекция смещения при чтении : 6
Способность читать области Lead-in и Lead-out : Нет
Заполнение пропущенных сэмплов тишиной : Да
Удаление блоков с тишиной в начале и конце : Нет
При вычислениях CRC использовались нулевые сэмплы : Да
Интерфейс : Встроенный Win32-интерфейс для Win NT/2000

Выходной формат : Пользовательский кодировщик
Выбранный битрейт : 768 kBit/s
Качество : Высокий
Добавление ID3-тега : Нет
Утилита сжатия : C:\Program Files\Exact Audio Copy\FLAC\FLAC.EXE
Дополнительные параметры : -6 -V -T "ARTIST=%artist%" -T "TITLE=%title%" -T "ALBUM=%albumtitle%" -T "DATE=%year%" -T "TRACKNUMBER=%tracknr%" -T "GENRE=%genre%" -T "COMMENT=%comment%" -T "BAND=%albuminterpret%" -T "ALBUMARTIST=%albuminterpret%" -T "COMPOSER=%composer%" %haslyrics%–tag-from-file=LYRICS="%lyricsfile%"%haslyrics% -T "DISCNUMBER=%cdnumber%" -T "TOTALDISCS=%totalcds%" -T "TOTALTRACKS=%numtracks%" %hascover%–picture="%coverfile%"%hascover% %source% -o %dest%


TOC извлечённого CD

Трек | Старт | Длительность | Начальный сектор | Конечный сектор
––––––––––––––––––––––––––––––––––-
1 | 0:00.00 | 4:09.27 | 0 | 18701
2 | 4:09.27 | 3:27.10 | 18702 | 34236
3 | 7:36.37 | 2:32.18 | 34237 | 45654
4 | 10:08.55 | 4:39.25 | 45655 | 66604
5 | 14:48.05 | 3:59.40 | 66605 | 84569
6 | 18:47.45 | 3:37.15 | 84570 | 100859
7 | 22:24.60 | 2:38.37 | 100860 | 112746
8 | 25:03.22 | 4:12.55 | 112747 | 131701
9 | 29:16.02 | 2:48.40 | 131702 | 144341
10 | 32:04.42 | 3:48.45 | 144342 | 161486
11 | 35:53.12 | 4:23.63 | 161487 | 181274
12 | 40:17.00 | 3:33.07 | 181275 | 197256
13 | 43:50.07 | 4:28.33 | 197257 | 217389
14 | 48:18.40 | 2:57.25 | 217390 | 230689
15 | 51:15.65 | 3:49.35 | 230690 | 247899
16 | 55:05.25 | 3:12.70 | 247900 | 262369


Характеристики диапазона извлечения и сообщения об ошибках

Выбранный диапазон

Имя файла K:\Motley Crue - Music To Crash Your Car To - Vol. 1\Motley Crue - Music To Crash Your Car To - Vol. 1 - Disc 3\Motley Crue - Music To Crash Your Car To - Vol. 1 - Disc 3.wav

Пиковый уровень 98.8 %
Скорость извлечения 2.9 X
Качество диапазона 99.9 %
CRC теста CA9B0122
CRC копии CA9B0122
Копирование… OK

Ошибок не произошло


AccurateRip: сводка

Трек 1 : извлечено точно (доверие 12) [029E0385] (AR v2)
Трек 2 : извлечено точно (доверие 13) [1D108AEF] (AR v2)
Трек 3 : извлечено точно (доверие 13) [04674725] (AR v2)
Трек 4 : извлечено точно (доверие 13) [4768D74C] (AR v2)
Трек 5 : извлечено точно (доверие 13) [E170A939] (AR v2)
Трек 6 : извлечено точно (доверие 13) [604D591B] (AR v2)
Трек 7 : извлечено точно (доверие 13) [150FAA45] (AR v2)
Трек 8 : извлечено точно (доверие 13) [EF72BC49] (AR v2)
Трек 9 : извлечено точно (доверие 13) [1EE517A9] (AR v2)
Трек 10 : извлечено точно (доверие 13) [4127EA48] (AR v2)
Трек 11 : извлечено точно (доверие 13) [3C69A69D] (AR v2)
Трек 12 : извлечено точно (доверие 13) [34492017] (AR v2)
Трек 13 : извлечено точно (доверие 13) [19840783] (AR v2)
Трек 14 : извлечено точно (доверие 13) [4BEF7814] (AR v2)
Трек 15 : извлечено точно (доверие 13) [9D98F245] (AR v2)
Трек 16 : извлечено точно (доверие 13) [E7C2F90F] (AR v2)

Все треки извлечены точно

Конец отчёта

foobar2000 1.2.9 / Dynamic Range Meter 1.1.1
log date: 2015-05-31 17:16:45

––––––––––––––––––––––––––––––––––––––––
Analyzed: Motley Crue / Motley Crue - Music To Crash Your Car To - Vol. 1 - Disc 3
––––––––––––––––––––––––––––––––––––––––

DR Peak RMS Duration Track
––––––––––––––––––––––––––––––––––––––––
DR8 -0.10 dB -9.38 dB 4:09 01-City Boy Blues
DR7 -0.10 dB -7.73 dB 3:27 02-Smokin' In The Boys Room
DR6 -0.10 dB -7.84 dB 2:32 03-Louder Than Hell
DR7 -0.10 dB -9.07 dB 4:39 04-Keep Your Eye On The Money
DR7 -0.10 dB -9.96 dB 4:00 05-Home Sweet Home
DR7 -0.10 dB -8.34 dB 3:37 06-Tonight (We Need A Lover)
DR6 -0.10 dB -7.15 dB 2:38 07-Use It Or Lose It
DR7 -0.30 dB -7.93 dB 4:13 08-Save Our Souls
DR7 -0.10 dB -8.67 dB 2:49 09-Raise Your Hands To Rock
DR6 -0.10 dB -7.18 dB 3:49 10-Fight For Your Rights
DR7 -0.10 dB -10.12 dB 4:24 11-Home Sweet Home (Demo)
DR7 -0.10 dB -7.94 dB 3:33 12-Smokin' In The Boys Room (Alternate Guitar Solo - Rough Mix)
DR8 -0.10 dB -9.17 dB 4:28 13-City Boy Blues (Demo)
DR9 -0.10 dB -10.49 dB 2:57 14-Home Sweet Home (Instrumental Rough Mix)
DR8 -0.10 dB -9.20 dB 3:49 15-Keep Your Eye On The Money (Demo)
DR8 -1.10 dB -10.48 dB 3:13 16-Tommy's Drum Piece From Cherokee Studios
––––––––––––––––––––––––––––––––––––––––

Number of tracks: 16
Official DR value: DR7

Samplerate: 44100 Hz
Channels: 2
Bits per sample: 16
Bitrate: 995 kbps
Codec: FLAC

[CUETools log; Date: 31.05.2015 16:39:53; Version: 2.1.4]
[CTDB TOCID: GfkW0SSF_RXj47XLJKC9_DGLyH4-] found.
Track | CTDB Status
1 | (12/12) Accurately ripped
2 | (12/12) Accurately ripped
3 | (12/12) Accurately ripped
4 | (12/12) Accurately ripped
5 | (12/12) Accurately ripped
6 | (12/12) Accurately ripped
7 | (12/12) Accurately ripped
8 | (12/12) Accurately ripped
9 | (12/12) Accurately ripped
10 | (12/12) Accurately ripped
11 | (12/12) Accurately ripped
12 | (12/12) Accurately ripped
13 | (12/12) Accurately ripped
14 | (12/12) Accurately ripped
15 | (12/12) Accurately ripped
16 | (12/12) Accurately ripped
[AccurateRip ID: 0022255d-0199a4cd-d30daa10] found.
Track [ CRC | V2 ] Status
01 [34f19045|029e0385] (15+12/27) Accurately ripped
02 [527c74fb|1d108aef] (16+13/29) Accurately ripped
03 [b5151383|04674725] (16+13/29) Accurately ripped
04 [e24e9459|4768d74c] (15+13/28) Accurately ripped
05 [3445936e|e170a939] (16+13/29) Accurately ripped
06 [a6bf80bc|604d591b] (16+13/29) Accurately ripped
07 [32fc8e6a|150faa45] (16+13/29) Accurately ripped
08 [194acfaa|ef72bc49] (16+13/29) Accurately ripped
09 [a6d47a95|1ee517a9] (16+13/29) Accurately ripped
10 [5968f027|4127ea48] (16+13/29) Accurately ripped
11 [b940bc5e|3c69a69d] (16+13/29) Accurately ripped
12 [8c160290|34492017] (16+13/29) Accurately ripped
13 [1f1982d9|19840783] (16+13/29) Accurately ripped
14 [9b421fd4|4bef7814] (16+13/29) Accurately ripped
15 [84c115dd|9d98f245] (16+13/29) Accurately ripped
16 [9a82c102|e7c2f90f] (15+13/28) Accurately ripped

Track Peak [ CRC32 ] [W/O NULL] [ LOG ]
– 98,8 [CA9B0122] [618B1552] CRC32
01 98,8 [FA96C5AE] [542EE26D]
02 98,8 [85DD393F] [4AD33142]
03 98,8 [F234AE37] [C04BA11E]
04 98,8 [2870CC29] [D986629F]
05 98,8 [0863C9C5] [2A016FB0]
06 98,8 [EA962775] [F27934AF]
07 98,8 [AB212D57] [A2D39769]
08 96,6 [8FC1217E] [8925D184]
09 98,8 [D0FA2240] [B05B82E0]
10 98,8 [0710F7B3] [4080A773]
11 98,8 [CD3725F5] [38D139EE]
12 98,8 [709AF6DB] [BFCAAE70]
13 98,8 [38E6A143] [39B436E3]
14 98,8 [F043194D] [2E4B1EBC]
15 98,8 [080DDEA3] [6B5D4439]
16 88,1 [0C7037AB] [F14F55CA]

Mötley Crüe - Music To Crash Your Car To - Volume I (2003)

Tracklist CD4:

01. Wild Side (4:43)
02. Girls, Girls, Girls (4:31)
03. Dancing On Glass (4:20)
04. Bad Boy Boogie (3:28)
05. Nona (1:26)
06. Five Years Dead (3:51)
07. All In The Name Of … (3:41)
08. Sumthin' For Nuthin' (4:49)
09. You're All I Need (4:35)
10. Jailhouse Rock (Live) (4:41)
11. Girls, Girls, Girls (Tom Werman And Band Intro - Rough Mix Instrumental Track) (5:38)
12. Wild Side (Instrumental - Rough Mix Of Instrumental Track) (4:09)
13. Rodeo (4:12)
14. Nona (Instrumental Demo Idea) (2:44)
15. All In The Name Of … (Live - Moscow Peace Festival 1989) (5:01)

Exact Audio Copy V1.0 beta 3 from 29. August 2011

Отчёт EAC об извлечении, выполненном 30. мая 2015, 1:10

Motley Crue / Music To Crash Your Car To - Vol. 1 - Disc 4

Дисковод: TSSTcorpCDDVDW SH-S202H Adapter: 0 ID: 1

Режим чтения : Достоверность
Использование точного потока : Да
Отключение кэша аудио : Да
Использование указателей C2 : Нет

Коррекция смещения при чтении : 6
Способность читать области Lead-in и Lead-out : Нет
Заполнение пропущенных сэмплов тишиной : Да
Удаление блоков с тишиной в начале и конце : Нет
При вычислениях CRC использовались нулевые сэмплы : Да
Интерфейс : Встроенный Win32-интерфейс для Win NT/2000

Выходной формат : Пользовательский кодировщик
Выбранный битрейт : 768 kBit/s
Качество : Высокий
Добавление ID3-тега : Нет
Утилита сжатия : C:\Program Files\Exact Audio Copy\FLAC\FLAC.EXE
Дополнительные параметры : -6 -V -T "ARTIST=%artist%" -T "TITLE=%title%" -T "ALBUM=%albumtitle%" -T "DATE=%year%" -T "TRACKNUMBER=%tracknr%" -T "GENRE=%genre%" -T "COMMENT=%comment%" -T "BAND=%albuminterpret%" -T "ALBUMARTIST=%albuminterpret%" -T "COMPOSER=%composer%" %haslyrics%–tag-from-file=LYRICS="%lyricsfile%"%haslyrics% -T "DISCNUMBER=%cdnumber%" -T "TOTALDISCS=%totalcds%" -T "TOTALTRACKS=%numtracks%" %hascover%–picture="%coverfile%"%hascover% %source% -o %dest%


TOC извлечённого CD

Трек | Старт | Длительность | Начальный сектор | Конечный сектор
––––––––––––––––––––––––––––––––––-
1 | 0:00.00 | 4:43.25 | 0 | 21249
2 | 4:43.25 | 4:30.52 | 21250 | 41551
3 | 9:14.02 | 4:20.35 | 41552 | 61086
4 | 13:34.37 | 3:28.25 | 61087 | 76711
5 | 17:02.62 | 1:26.13 | 76712 | 83174
6 | 18:29.00 | 3:50.42 | 83175 | 100466
7 | 22:19.42 | 3:40.70 | 100467 | 117036
8 | 26:00.37 | 4:49.10 | 117037 | 138721
9 | 30:49.47 | 4:35.30 | 138722 | 159376
10 | 35:25.02 | 4:41.10 | 159377 | 180461
11 | 40:06.12 | 5:38.20 | 180462 | 205831
12 | 45:44.32 | 4:08.45 | 205832 | 224476
13 | 49:53.02 | 4:12.15 | 224477 | 243391
14 | 54:05.17 | 2:44.10 | 243392 | 255701
15 | 56:49.27 | 5:01.18 | 255702 | 278294


Характеристики диапазона извлечения и сообщения об ошибках

Выбранный диапазон

Имя файла K:\Motley Crue - Music To Crash Your Car To - Vol. 1\Motley Crue - Music To Crash Your Car To - Vol. 1 - Disc 4\Motley Crue - Music To Crash Your Car To - Vol. 1 - Disc 4.wav

Пиковый уровень 98.8 %
Скорость извлечения 7.4 X
Качество диапазона 100.0 %
CRC теста DF0428C8
CRC копии DF0428C8
Копирование… OK

Ошибок не произошло


AccurateRip: сводка

Трек 1 : извлечено точно (доверие 12) [0A5F145C] (AR v2)
Трек 2 : извлечено точно (доверие 12) [A29514D7] (AR v2)
Трек 3 : извлечено точно (доверие 13) [4907B4DC] (AR v2)
Трек 4 : извлечено точно (доверие 13) [1148C9BF] (AR v2)
Трек 5 : извлечено точно (доверие 13) [D46A2D8C] (AR v2)
Трек 6 : извлечено точно (доверие 13) [F0BEA0C3] (AR v2)
Трек 7 : извлечено точно (доверие 13) [3E267B43] (AR v2)
Трек 8 : извлечено точно (доверие 13) [C83E68AD] (AR v2)
Трек 9 : извлечено точно (доверие 13) [81F33887] (AR v2)
Трек 10 : извлечено точно (доверие 13) [059E83DF] (AR v2)
Трек 11 : извлечено точно (доверие 13) [6D11C17B] (AR v2)
Трек 12 : извлечено точно (доверие 13) [C5F2F846] (AR v2)
Трек 13 : извлечено точно (доверие 13) [A143C37B] (AR v2)
Трек 14 : извлечено точно (доверие 13) [026ECA78] (AR v2)
Трек 15 : извлечено точно (доверие 13) [ADE9F2EE] (AR v2)

Все треки извлечены точно

Конец отчёта

foobar2000 1.2.9 / Dynamic Range Meter 1.1.1
log date: 2015-05-31 17:17:35

––––––––––––––––––––––––––––––––––––––––
Analyzed: Motley Crue / Music To Crash Your Car To - Vol. 1 - Disc 4
––––––––––––––––––––––––––––––––––––––––

DR Peak RMS Duration Track
––––––––––––––––––––––––––––––––––––––––
DR8 -0.10 dB -9.38 dB 4:43 01-Wild Side
DR8 -0.16 dB -9.44 dB 4:31 02-Girls, Girls, Girls
DR7 -0.90 dB -9.06 dB 4:20 03-Dancing On Glass
DR7 -0.40 dB -8.81 dB 3:28 04-Bad Boy Boogie
DR9 -0.44 dB -11.72 dB 1:26 05-Nona
DR9 -0.10 dB -9.79 dB 3:51 06-Five Years Dead
DR8 -0.23 dB -8.98 dB 3:41 07-All In The Name Of …
DR8 -0.10 dB -8.85 dB 4:49 08-Sumthin' For Nuthin'
DR7 -0.10 dB -8.89 dB 4:35 09-You're All I Need
DR8 -0.10 dB -9.66 dB 4:41 10-Jailhouse Rock (Live)
DR9 -0.10 dB -10.75 dB 5:38 11-Girls, Girls, Girls (Tom Werman And Band Intro - Rough Mix Instrumental Track)
DR9 -0.10 dB -10.14 dB 4:09 12-Wild Side (Instrumental - Rough Mix Of Instrumental Track)
DR8 -0.60 dB -10.15 dB 4:12 13-Rodeo
DR7 -0.10 dB -9.59 dB 2:44 14-Nona (Instrumental Demo Idea)
DR8 -0.10 dB -9.12 dB 5:01 15-All In The Name Of … (Live - Moscow Peace Festival 1989)
––––––––––––––––––––––––––––––––––––––––

Number of tracks: 15
Official DR value: DR8

Samplerate: 44100 Hz
Channels: 2
Bits per sample: 16
Bitrate: 1002 kbps
Codec: FLAC

[CUETools log; Date: 31.05.2015 16:42:29; Version: 2.1.4]
[CTDB TOCID: sc.VTOZaR.nIXOM7TUGB2AwMHjg-] found.
Track | CTDB Status
1 | (13/13) Accurately ripped
2 | (13/13) Accurately ripped
3 | (13/13) Accurately ripped
4 | (13/13) Accurately ripped
5 | (13/13) Accurately ripped
6 | (13/13) Accurately ripped
7 | (13/13) Accurately ripped
8 | (13/13) Accurately ripped
9 | (13/13) Accurately ripped
10 | (13/13) Accurately ripped
11 | (13/13) Accurately ripped
12 | (13/13) Accurately ripped
13 | (13/13) Accurately ripped
14 | (13/13) Accurately ripped
15 | (13/13) Accurately ripped
[AccurateRip ID: 00216113-017b1a99-c00e7e0f] found.
Track [ CRC | V2 ] Status
01 [4608f61f|0a5f145c] (15+12/27) Accurately ripped
02 [3a909c35|a29514d7] (16+12/28) Accurately ripped
03 [b49a7799|4907b4dc] (16+13/29) Accurately ripped
04 [899dc6d5|1148c9bf] (16+13/29) Accurately ripped
05 [75d9d125|d46a2d8c] (16+13/29) Accurately ripped
06 [21b88009|f0bea0c3] (16+13/29) Accurately ripped
07 [c546cecd|3e267b43] (16+13/29) Accurately ripped
08 [f7726b0e|c83e68ad] (16+13/29) Accurately ripped
09 [eaf5e75a|81f33887] (16+13/29) Accurately ripped
10 [0fbddd89|059e83df] (16+13/29) Accurately ripped
11 [aa46e32d|6d11c17b] (16+13/29) Accurately ripped
12 [67abcd38|c5f2f846] (16+13/29) Accurately ripped
13 [db5e4ada|a143c37b] (16+13/29) Accurately ripped
14 [bfd677bd|026eca78] (16+13/29) Accurately ripped
15 [2647d58a|ade9f2ee] (15+13/28) Accurately ripped

Track Peak [ CRC32 ] [W/O NULL] [ LOG ]
– 98,8 [DF0428C8] [D94E7E3C] CRC32
01 98,8 [DE4897CB] [1A192298]
02 98,2 [71CC1700] [1F951470]
03 90,1 [E05E5BBE] [497E75B3]
04 95,5 [46303781] [6FB0545F]
05 95,0 [EC9754F7] [BFEAF90A]
06 98,8 [BF988FD5] [0031A176]
07 97,3 [E657AEF0] [6E1835C1]
08 98,8 [BAF86E27] [DD9B41B4]
09 98,8 [8DAAD7D0] [77F7B33E]
10 98,8 [D87972F0] [DD9B3BE5]
11 98,8 [1AF5F71F] [24038E15]
12 98,8 [8B86C25E] [7EC40731]
13 93,3 [47CED2E7] [4D4AFB35]
14 98,8 [9152E131] [AD2166E9]
15 98,8 [49C603C7] [26C474D4]

Mötley Crüe - Music To Crash Your Car To - Volume I (2003)

All thanks go to shteeren

More Motley Crue in my Blog

Download Mötley Crüe - Music To Crash Your Car To - Volume I (2003):