Subcategories

Mstislav Rostropovich, Martha Argerich - Chopin: Cellosonate op. 65, Polonaise / Shumann: Adagio & Allegro (1989)

Posted By: tirexiss
Mstislav Rostropovich, Martha Argerich - Chopin: Cellosonate op. 65, Polonaise / Shumann: Adagio & Allegro (1989)

Mstislav Rostropovich, Martha Argerich - Chopin: Cellosonate op. 65, Polonaise / Shumann: Adagio & Allegro (1989)
EAC | FLAC (image+.cue, log) | Covers Included | 46:00 | 209 MB
Genre: Classical | Label: Deutsche Grammophon | Catalog: 419 860-2

This is a fine specimen of what duo-playing can and should be. My pleasure in this record is in no small measure down to my enthusiasm for these particular works, among the most attractive and significant products of early romanticism. Chopin's cello sonata seems to me an even better work than his piano sonatas. None other than Tovey gives it high marks for construction, even forgetting for once to include his near-invariable reference to Beethoven as the benchmark in all such matters. Chopin had written for the cello in his early years, and the opus 3 introduction-and-polonaise is included here, but the sonata has a sheer self-assurance about that sounds as if he had been composing for it all his life. There is even a full-scale slow movement - not long but not a miniature either - and that was something that Beethoven had avoided, no doubt because the cello of all instruments was most liable to show up the feeble sustaining-power of the pianos of his time. I recently heard a recital on a piano made for Clara Schumann by her father's firm, and matters had obviously improved since Beethoven's time - I was surprised by the volume and sustained tone it was capable of - but even Brahms was still cautious about slow movements in his cello sonatas. In the first there is none, in the second he has the cello playing largely pizzicato. Chopin adopts the simplest and most natural solution, a lyric melody on the cello with the piano mainly reduced to accompaniment.
What I love about this record is the sheer full-bloodedness of the playing. The recorded balance is really very good, much better than on the notable disc of the Brahms sonatas that Rostropovich did with Serkin, and the sound of the two instruments has the quality that such playing deserves and demands. The trio of Chopin's scherzo is a humdinger of a cello tune, sung with heart, soul and passion by Rostropovich. Schumann's adagio section is likewise given the 'mit innigem Ausdruck' treatment, and when matters turn 'Rasch und feurig' the playing is simply thrilling. I'm not sure whether everyone is going to like Argerich's impetuosity here and there in the finale of the sonata. However that's who she is and that's what we ought to expect. Rostropovich follows her without a qualm, and I buy the whole effect unreservedly. I'm even an enthusiast for Chopin's early introduction/polonaise, a similar effort to the Andante Spianato and Grand Polonaise familiar from piano recitals. I looked for, and duly found, the predictable cliché 'a salon piece', but happily before I poked any derision at the expression I also noticed that it was Chopin who had used the phrase.
These days Rostropovich is into conducting although I think he still plays. Argerich has announced that she will do no more solo work and focus instead on the chamber repertory. I see nothing in this situation that stops me from hoping to hear more from this magnificent partnership.

Mstislav Rostropovich, Martha Argerich - Chopin: Cellosonate op. 65, Polonaise / Shumann: Adagio & Allegro (1989)

Track List:

Fryderyk Chopin (1810-1849):
01. Sonate pour piano et violoncelle op.65 1.Allegro [0:15:16.20]
02. Sonate pour piano et violoncelle op.65 2.Scherzo [0:04:52.00]
03. Sonate pour piano et violoncelle op.65 3.Largo [0:03:44.20]
04. Sonate pour piano et violoncelle op.65 4.Finale [0:05:36.40]
05. Polonaise pour piano et violoncelle op.3 [0:08:17.07]
Robert Schumann (1810-1856):
06. Adagio et allegro pour piano et violoncelle op.70 [0:08:13.63]

Performers:
Mstislav Rostropovich - cello
Martha Argerich - piano

Exact Audio Copy V1.0 beta 3 from 29. August 2011

EAC extraction logfile from 1. April 2012, 21:11

Mstislav Rostropovich / Chopin - Cellosonate op. 65, Polonaise; Shumann: Adagio & Allegro - Rostropvich

Used drive : HL-DT-STDVDRAM GSA-H10A Adapter: 0 ID: 0

Read mode : Secure
Utilize accurate stream : Yes
Defeat audio cache : Yes
Make use of C2 pointers : No

Read offset correction : 667
Overread into Lead-In and Lead-Out : No
Fill up missing offset samples with silence : Yes
Delete leading and trailing silent blocks : No
Null samples used in CRC calculations : Yes
Used interface : Native Win32 interface for Win NT & 2000

Used output format : User Defined Encoder
Selected bitrate : 1024 kBit/s
Quality : High
Add ID3 tag : No
Command line compressor : C:\Program Files\Exact Audio Copy\Flac\flac.exe
Additional command line options : -8 -V -T "TITLE=%title%" -T "ARTIST=%artist%" -T "ALBUMARTIST=%albumartist%" -T "ALBUM=%albumtitle%" -T "DATE=%year%" -T "TRACKNUMBER=%tracknr%" -T "TRACKTOTAL=%numtracks%" -T "GENRE=%genre%" -T "COMMENT=%comment%" -T "PERFORMER=%albuminterpret%" -T "COMPOSER=%composer%" %source% -o %dest%


TOC of the extracted CD

Track | Start | Length | Start sector | End sector
––––––––––––––––––––––––––––-
1 | 0:00.33 | 15:16.20 | 33 | 68752
2 | 15:16.53 | 4:52.00 | 68753 | 90652
3 | 20:08.53 | 3:44.20 | 90653 | 107472
4 | 23:52.73 | 5:36.40 | 107473 | 132712
5 | 29:29.38 | 8:17.07 | 132713 | 169994
6 | 37:46.45 | 8:13.63 | 169995 | 207032


Range status and errors

Selected range

Filename F:\Ripped general\[0455] Chopin - Cellosonate op. 65, Polonaise; Shumann Adagio & Allegro - Rostropvich\Chopin - Cellosonate op. 65, Polonaise; Shumann- Adagio & Allegro - Rostropvich.wav

Peak level 97.7 %
Extraction speed 4.3 X
Range quality 100.0 %
Test CRC 5406DBFC
Copy CRC 5406DBFC
Copy OK

No errors occurred


AccurateRip summary

Track 1 accurately ripped (confidence 2) [FED149A8] (AR v2)
Track 2 accurately ripped (confidence 2) [6186BB0D] (AR v2)
Track 3 accurately ripped (confidence 2) [E0CA59CD] (AR v2)
Track 4 accurately ripped (confidence 2) [8D248314] (AR v2)
Track 5 accurately ripped (confidence 2) [B0C189B6] (AR v2)
Track 6 accurately ripped (confidence 2) [AF058C69] (AR v2)

All tracks accurately ripped

End of status report

Thanks to the Original ripper (unknown)!

Welcome to my blog!

Download: