Subcategories

Murray Perahia, English Chamber Orchestra - Mozart: The Complete Piano Concertos (12CDs) [2012]

Posted By: ArlegZ
Murray Perahia, English Chamber Orchestra - Mozart: The Complete Piano Concertos (12CDs) [2012]

Murray Perahia, English Chamber Orchestra - Mozart: The Complete Piano Concertos (12CDs) [2012]
EAC | FLAC | Image (Cue & Log) ~ 2.76 Gb | Total time: 11:37:03 | Scans included
Classical | Label: Sony Classical | # 1914112 | Recorded: 1975-1988

Perahia’s immaculate technique, stylistic surety, and classical symmetry are remarkably consistent. While his tone is always singing and rounded, lyrical melodies and decorative passages alike convey a slight diamond-like edge to the peak of crescendos or an emphatic accent. This helps achieve an attractive fusion of unruffled poise and dramatic tension. You hear this quite readily in the B-flat K. 456 concerto ‘s first movement, or in the carefully pedaled trills and restatement of the main theme in K. 595’s heavenly Larghetto, also sampled here. Perahia’s symbiotic musical rapport with Radu Lupu in the two-piano concerto and the two-piano version of the concerto for three pianos should not go unmentioned.
– Jed Distler

Performer:
Murray Perahia, piano & conductor
Radu Lupu, piano (Nos. 7 & 10)
English Chamber Orchestra

Track List:
CD 1
01-03. Konzert Nr. 1 F-Dur, KV 37
04-06. Konzert Nr. 2 B-Dur, KV 39
07-09. Konzert Nr. 3 D-Dur, KV 40
10-12. Konzert Nr. 4 G-Dur, KV 41
CD 2
01-03. Konzert Nr. 5 D-Dur, KV 175
04-06. Konzert Nr. 6 B-Dur, KV 238
07-09. Konzert Nr. 7 F-Dur «Lodron-Konzert» (für 2 bzw. 3 Klaviere), KV 242
CD 3
01-03. Konzert Nr. 8 C-Dur «Lützow-Konzert», KV 246
04-06. Konzert Nr. 9 Es-Dur «Jeunehomme-Konzert», KV 271
07-09. Konzert Nr. 10 Es-Dur (für 2 Klaviere), KV 365
CD 4
01-03. Konzert Nr. 11 F-Dur, KV 413
04-06. Konzert Nr. 12 A-Dur, KV 414
CD 5
01-03. Konzert Nr. 13 C-Dur, KV 415
04-06. Konzert Nr. 14 Es-Dur, KV 449
CD 6
01-03. Konzert Nr. 15 B-Dur, KV 450
04-06. Konzert Nr. 16 D-Dur, KV 451
CD 7
01-03. Konzert Nr. 17 G-Dur, KV 453
04-06. Konzert Nr. 18 B-Dur, KV 456
CD 8
01-03. Konzert Nr. 19 F-Dur, KV 459
04-06. Konzert Nr. 20 d-moll, KV 466
CD 9
01-03. Konzert Nr. 21 C-Dur, KV 467
04-06. Konzert Nr. 22 Es-Dur, KV 482
CD 10
01-03. Konzert Nr. 23 A-Dur, KV 488
04-06. Konzert Nr. 24 c-moll, KV 491
CD 11
01-03. Konzert Nr. 25 C-Dur, KV 503
04-06. Konzert Nr. 26 D-Dur «Krönungskonzert», KV 537
CD 12
01-03. Konzert Nr. 27 B-Dur, KV 595
04. Rondo D-Dur, KV 382 (Alternative zum III. Satz von KV 175)
05. Rondo A-Dur, KV 386 (Alternative zum III. Satz von KV 414)


CD1
Exact Audio Copy V1.3 from 2. September 2016

EAC extraction logfile from 12. October 2017, 17:33

Murray Perahia, English Chamber Orchestra / Mozart - Piano Concertos Nos.1-4

Used drive : HL-DT-STDVDRAM GH24NS95 Adapter: 1 ID: 0

Read mode : Secure
Utilize accurate stream : Yes
Defeat audio cache : Yes
Make use of C2 pointers : No

Read offset correction : 6
Overread into Lead-In and Lead-Out : No
Fill up missing offset samples with silence : Yes
Delete leading and trailing silent blocks : No
Null samples used in CRC calculations : Yes
Used interface : Native Win32 interface for Win NT & 2000

Used output format : User Defined Encoder
Selected bitrate : 128 kBit/s
Quality : High
Add ID3 tag : No
Command line compressor : C:\Program Files\Exact Audio Copy\Flac\flac.exe
Additional command line options : -V -8 -T "Date=%year%" -T "Genre=%genre%" %source%


TOC of the extracted CD

Track | Start | Length | Start sector | End sector
––––––––––––––––––––––––––––-
1 | 0:00.00 | 5:23.38 | 0 | 24262
2 | 5:23.38 | 5:20.58 | 24263 | 48320
3 | 10:44.21 | 5:06.60 | 48321 | 71330
4 | 15:51.06 | 5:13.00 | 71331 | 94805
5 | 21:04.06 | 5:52.70 | 94806 | 121275
6 | 26:57.01 | 3:55.40 | 121276 | 138940
7 | 30:52.41 | 5:04.35 | 138941 | 161775
8 | 35:57.01 | 4:48.48 | 161776 | 183423
9 | 40:45.49 | 2:30.00 | 183424 | 194673
10 | 43:15.49 | 5:15.70 | 194674 | 218368
11 | 48:31.44 | 4:40.20 | 218369 | 239388
12 | 53:11.64 | 3:44.11 | 239389 | 256199


Range status and errors

Selected range

Filename C:\Program Files\Exact Audio Copy\Flac\Mozart - Piano Concertos Nos.1-4.wav

Peak level 97.3 %
Extraction speed 7.3 X
Range quality 100.0 %
Test CRC E6B91CD5
Copy CRC E6B91CD5
Copy OK

No errors occurred

End of status report

==== Log checksum A1CE16AE1839520853BEB690C7B1A22CD798F2DC09FBEB049678571E610C40AF ====
CD2
Exact Audio Copy V1.3 from 2. September 2016

EAC extraction logfile from 12. October 2017, 17:56

Murray Perahia, English Chamber Orchestra / Mozart - Piano Concertos Nos.5-7

Used drive : HL-DT-STDVDRAM GH24NS95 Adapter: 1 ID: 0

Read mode : Secure
Utilize accurate stream : Yes
Defeat audio cache : Yes
Make use of C2 pointers : No

Read offset correction : 6
Overread into Lead-In and Lead-Out : No
Fill up missing offset samples with silence : Yes
Delete leading and trailing silent blocks : No
Null samples used in CRC calculations : Yes
Used interface : Native Win32 interface for Win NT & 2000

Used output format : User Defined Encoder
Selected bitrate : 128 kBit/s
Quality : High
Add ID3 tag : No
Command line compressor : C:\Program Files\Exact Audio Copy\Flac\flac.exe
Additional command line options : -V -8 -T "Date=%year%" -T "Genre=%genre%" %source%


TOC of the extracted CD

Track | Start | Length | Start sector | End sector
––––––––––––––––––––––––––––-
1 | 0:00.00 | 8:13.23 | 0 | 36997
2 | 8:13.23 | 8:17.05 | 36998 | 74277
3 | 16:30.28 | 5:21.13 | 74278 | 98365
4 | 21:51.41 | 7:23.59 | 98366 | 131649
5 | 29:15.25 | 6:02.51 | 131650 | 158850
6 | 35:18.01 | 7:33.18 | 158851 | 192843
7 | 42:51.19 | 8:11.00 | 192844 | 229668
8 | 51:02.19 | 7:10.60 | 229669 | 261978
9 | 58:13.04 | 5:18.66 | 261979 | 285894


Range status and errors

Selected range

Filename C:\Program Files\Exact Audio Copy\Flac\Mozart - Piano Concertos Nos.5-7.wav

Peak level 98.8 %
Extraction speed 7.9 X
Range quality 100.0 %
Test CRC E7503C91
Copy CRC E7503C91
Copy OK

No errors occurred

End of status report

==== Log checksum EC3343E1842C5F8FDC51BEAD2CA96705A2362FF0B6CA9E08DC934A7D02F6DE0D ====
CD3
Exact Audio Copy V1.3 from 2. September 2016

EAC extraction logfile from 12. October 2017, 18:20

Murray Perahia, English Chamber Orchestra / Mozart - Piano Concertos Nos.8-10

Used drive : HL-DT-STDVDRAM GH24NS95 Adapter: 1 ID: 0

Read mode : Secure
Utilize accurate stream : Yes
Defeat audio cache : Yes
Make use of C2 pointers : No

Read offset correction : 6
Overread into Lead-In and Lead-Out : No
Fill up missing offset samples with silence : Yes
Delete leading and trailing silent blocks : No
Null samples used in CRC calculations : Yes
Used interface : Native Win32 interface for Win NT & 2000

Used output format : User Defined Encoder
Selected bitrate : 128 kBit/s
Quality : High
Add ID3 tag : No
Command line compressor : C:\Program Files\Exact Audio Copy\Flac\flac.exe
Additional command line options : -V -8 -T "Date=%year%" -T "Genre=%genre%" %source%


TOC of the extracted CD

Track | Start | Length | Start sector | End sector
––––––––––––––––––––––––––––-
1 | 0:00.00 | 7:19.26 | 0 | 32950
2 | 7:19.26 | 7:15.66 | 32951 | 65641
3 | 14:35.17 | 7:06.17 | 65642 | 97608
4 | 21:41.34 | 10:02.68 | 97609 | 142826
5 | 31:44.27 | 11:30.54 | 142827 | 194630
6 | 43:15.06 | 10:06.22 | 194631 | 240102
7 | 53:21.28 | 9:40.00 | 240103 | 283602
8 | 63:01.28 | 7:08.70 | 283603 | 315772
9 | 70:10.23 | 6:36.13 | 315773 | 345485


Range status and errors

Selected range

Filename C:\Program Files\Exact Audio Copy\Flac\Mozart - Piano Concertos Nos.8-10.wav

Peak level 98.8 %
Extraction speed 8.3 X
Range quality 99.9 %
Test CRC 7E2488CE
Copy CRC 7E2488CE
Copy OK

No errors occurred

End of status report

==== Log checksum 9BDF5E90CA6B5B4AC29E4091FE832CCE02675736AAE43E6800A7F573013B01CE ====
CD4
Exact Audio Copy V1.3 from 2. September 2016

EAC extraction logfile from 12. October 2017, 18:37

Murray Perahia, English Chamber Orchestra / Mozart - Piano Concertos Nos.11-12

Used drive : HL-DT-STDVDRAM GH24NS95 Adapter: 1 ID: 0

Read mode : Secure
Utilize accurate stream : Yes
Defeat audio cache : Yes
Make use of C2 pointers : No

Read offset correction : 6
Overread into Lead-In and Lead-Out : No
Fill up missing offset samples with silence : Yes
Delete leading and trailing silent blocks : No
Null samples used in CRC calculations : Yes
Used interface : Native Win32 interface for Win NT & 2000

Used output format : User Defined Encoder
Selected bitrate : 128 kBit/s
Quality : High
Add ID3 tag : No
Command line compressor : C:\Program Files\Exact Audio Copy\Flac\flac.exe
Additional command line options : -V -8 -T "Date=%year%" -T "Genre=%genre%" %source%


TOC of the extracted CD

Track | Start | Length | Start sector | End sector
––––––––––––––––––––––––––––-
1 | 0:00.00 | 8:49.00 | 0 | 39674
2 | 8:49.00 | 9:03.63 | 39675 | 80462
3 | 17:52.63 | 5:21.32 | 80463 | 104569
4 | 23:14.20 | 10:32.02 | 104570 | 151971
5 | 33:46.22 | 8:18.51 | 151972 | 189372
6 | 42:04.73 | 6:19.20 | 189373 | 217817


Range status and errors

Selected range

Filename C:\Program Files\Exact Audio Copy\Flac\Mozart - Piano Concertos Nos.11-12.wav

Peak level 98.8 %
Extraction speed 7.1 X
Range quality 100.0 %
Test CRC 4E3E2DBA
Copy CRC 4E3E2DBA
Copy OK

No errors occurred

End of status report

==== Log checksum C075D1C6C323EDA6BA9F20CCD53D28D3147D23B5CD73848F57309B9B28DBBBAC ====
CD5
Exact Audio Copy V1.3 from 2. September 2016

EAC extraction logfile from 12. October 2017, 18:55

Murray Perahia, English Chamber Orchestra / Mozart - Piano Concertos Nos.13-14

Used drive : HL-DT-STDVDRAM GH24NS95 Adapter: 1 ID: 0

Read mode : Secure
Utilize accurate stream : Yes
Defeat audio cache : Yes
Make use of C2 pointers : No

Read offset correction : 6
Overread into Lead-In and Lead-Out : No
Fill up missing offset samples with silence : Yes
Delete leading and trailing silent blocks : No
Null samples used in CRC calculations : Yes
Used interface : Native Win32 interface for Win NT & 2000

Used output format : User Defined Encoder
Selected bitrate : 128 kBit/s
Quality : High
Add ID3 tag : No
Command line compressor : C:\Program Files\Exact Audio Copy\Flac\flac.exe
Additional command line options : -V -8 -T "Date=%year%" -T "Genre=%genre%" %source%


TOC of the extracted CD

Track | Start | Length | Start sector | End sector
––––––––––––––––––––––––––––-
1 | 0:00.00 | 9:55.12 | 0 | 44636
2 | 9:55.12 | 7:55.30 | 44637 | 80291
3 | 17:50.42 | 8:08.59 | 80292 | 116950
4 | 25:59.26 | 8:36.66 | 116951 | 155716
5 | 34:36.17 | 6:58.27 | 155717 | 187093
6 | 41:34.44 | 5:59.27 | 187094 | 214045


Range status and errors

Selected range

Filename C:\Program Files\Exact Audio Copy\Flac\Mozart - Piano Concertos Nos.13-14.wav

Peak level 98.8 %
Extraction speed 7.0 X
Range quality 100.0 %
Test CRC D1316BC0
Copy CRC D1316BC0
Copy OK

No errors occurred

End of status report

==== Log checksum 3A55D40FC8537DD30D03C1A45D45E8AC9BA6DB3754FA4E762F4847F3AFF20086 ====
CD6
Exact Audio Copy V1.3 from 2. September 2016

EAC extraction logfile from 12. October 2017, 19:12

Murray Perahia, English Chamber Orchestra / Mozart - Piano Concertos Nos.15-16

Used drive : HL-DT-STDVDRAM GH24NS95 Adapter: 1 ID: 0

Read mode : Secure
Utilize accurate stream : Yes
Defeat audio cache : Yes
Make use of C2 pointers : No

Read offset correction : 6
Overread into Lead-In and Lead-Out : No
Fill up missing offset samples with silence : Yes
Delete leading and trailing silent blocks : No
Null samples used in CRC calculations : Yes
Used interface : Native Win32 interface for Win NT & 2000

Used output format : User Defined Encoder
Selected bitrate : 128 kBit/s
Quality : High
Add ID3 tag : No
Command line compressor : C:\Program Files\Exact Audio Copy\Flac\flac.exe
Additional command line options : -V -8 -T "Date=%year%" -T "Genre=%genre%" %source%


TOC of the extracted CD

Track | Start | Length | Start sector | End sector
––––––––––––––––––––––––––––-
1 | 0:00.00 | 11:06.63 | 0 | 50012
2 | 11:06.63 | 5:46.39 | 50013 | 76001
3 | 16:53.27 | 7:59.43 | 76002 | 111969
4 | 24:52.70 | 10:45.68 | 111970 | 160412
5 | 35:38.63 | 7:23.33 | 160413 | 193670
6 | 43:02.21 | 6:33.35 | 193671 | 223180


Range status and errors

Selected range

Filename C:\Program Files\Exact Audio Copy\Flac\Mozart - Piano Concertos Nos.15-16.wav

Peak level 98.8 %
Extraction speed 7.1 X
Range quality 100.0 %
Test CRC 248F1816
Copy CRC 248F1816
Copy OK

No errors occurred

End of status report

==== Log checksum 7BBD1D8EAD839A46A9FB2C5A47022478390ABDC9FC00ACEE0CD53B5ED80156F4 ====
CD7
Exact Audio Copy V1.3 from 2. September 2016

EAC extraction logfile from 12. October 2017, 19:34

Murray Perahia, English Chamber Orchestra / Mozart - Piano Concertos Nos.17-18

Used drive : HL-DT-STDVDRAM GH24NS95 Adapter: 1 ID: 0

Read mode : Secure
Utilize accurate stream : Yes
Defeat audio cache : Yes
Make use of C2 pointers : No

Read offset correction : 6
Overread into Lead-In and Lead-Out : No
Fill up missing offset samples with silence : Yes
Delete leading and trailing silent blocks : No
Null samples used in CRC calculations : Yes
Used interface : Native Win32 interface for Win NT & 2000

Used output format : User Defined Encoder
Selected bitrate : 128 kBit/s
Quality : High
Add ID3 tag : No
Command line compressor : C:\Program Files\Exact Audio Copy\Flac\flac.exe
Additional command line options : -V -8 -T "Date=%year%" -T "Genre=%genre%" %source%


TOC of the extracted CD

Track | Start | Length | Start sector | End sector
––––––––––––––––––––––––––––-
1 | 0:00.00 | 11:29.02 | 0 | 51676
2 | 11:29.02 | 10:33.14 | 51677 | 99165
3 | 22:02.16 | 7:59.07 | 99166 | 135097
4 | 30:01.23 | 11:23.41 | 135098 | 186363
5 | 41:24.64 | 10:27.14 | 186364 | 233402
6 | 51:52.03 | 7:17.02 | 233403 | 266179


Range status and errors

Selected range

Filename C:\Program Files\Exact Audio Copy\Flac\Mozart - Piano Concertos Nos.17-18.wav

Peak level 98.8 %
Extraction speed 7.4 X
Range quality 99.9 %
Test CRC 34267A56
Copy CRC 34267A56
Copy OK

No errors occurred

End of status report

==== Log checksum 923F8626D39DCC9C2FB8BEE2BFEECEEEC9E2364655C02122A7FB531C533CC840 ====
CD8
Exact Audio Copy V1.3 from 2. September 2016

EAC extraction logfile from 12. October 2017, 19:54

Murray Perahia, English Chamber Orchestra / Mozart - Piano Concertos Nos.19-20

Used drive : HL-DT-STDVDRAM GH24NS95 Adapter: 1 ID: 0

Read mode : Secure
Utilize accurate stream : Yes
Defeat audio cache : Yes
Make use of C2 pointers : No

Read offset correction : 6
Overread into Lead-In and Lead-Out : No
Fill up missing offset samples with silence : Yes
Delete leading and trailing silent blocks : No
Null samples used in CRC calculations : Yes
Used interface : Native Win32 interface for Win NT & 2000

Used output format : User Defined Encoder
Selected bitrate : 128 kBit/s
Quality : High
Add ID3 tag : No
Command line compressor : C:\Program Files\Exact Audio Copy\Flac\flac.exe
Additional command line options : -V -8 -T "Date=%year%" -T "Genre=%genre%" %source%


TOC of the extracted CD

Track | Start | Length | Start sector | End sector
––––––––––––––––––––––––––––-
1 | 0:00.00 | 12:45.49 | 0 | 57423
2 | 12:45.49 | 8:00.63 | 57424 | 93486
3 | 20:46.37 | 7:44.67 | 93487 | 128353
4 | 28:31.29 | 14:36.23 | 128354 | 194076
5 | 43:07.52 | 9:25.10 | 194077 | 236461
6 | 52:32.62 | 7:08.46 | 236462 | 268607


Range status and errors

Selected range

Filename C:\Program Files\Exact Audio Copy\Flac\Mozart - Piano Concertos Nos.19-20.wav

Peak level 82.7 %
Extraction speed 7.4 X
Range quality 100.0 %
Test CRC 2DB1CCE9
Copy CRC 2DB1CCE9
Copy OK

No errors occurred

End of status report

==== Log checksum 8055007DB480E7B070D0595B99FDAC2A77008D3836842C1CED58B6863665323B ====
CD9
Exact Audio Copy V1.3 from 2. September 2016

EAC extraction logfile from 12. October 2017, 20:19

Murray Perahia, English Chamber Orchestra / Mozart - Piano Concertos Nos.21-22

Used drive : HL-DT-STDVDRAM GH24NS95 Adapter: 1 ID: 0

Read mode : Secure
Utilize accurate stream : Yes
Defeat audio cache : Yes
Make use of C2 pointers : No

Read offset correction : 6
Overread into Lead-In and Lead-Out : No
Fill up missing offset samples with silence : Yes
Delete leading and trailing silent blocks : No
Null samples used in CRC calculations : Yes
Used interface : Native Win32 interface for Win NT & 2000

Used output format : User Defined Encoder
Selected bitrate : 128 kBit/s
Quality : High
Add ID3 tag : No
Command line compressor : C:\Program Files\Exact Audio Copy\Flac\flac.exe
Additional command line options : -V -8 -T "Date=%year%" -T "Genre=%genre%" %source%


TOC of the extracted CD

Track | Start | Length | Start sector | End sector
––––––––––––––––––––––––––––-
1 | 0:00.00 | 14:01.38 | 0 | 63112
2 | 14:01.38 | 6:58.65 | 63113 | 94527
3 | 21:00.28 | 6:44.22 | 94528 | 124849
4 | 27:44.50 | 13:01.40 | 124850 | 183464
5 | 40:46.15 | 10:20.02 | 183465 | 229966
6 | 51:06.17 | 12:21.41 | 229967 | 285582


Range status and errors

Selected range

Filename C:\Program Files\Exact Audio Copy\Flac\Mozart - Piano Concertos Nos.21-22.wav

Peak level 98.8 %
Extraction speed 5.4 X
Range quality 99.9 %
Test CRC 3062781F
Copy CRC 3062781F
Copy OK

No errors occurred

End of status report

==== Log checksum A49B1F2390001D79984C8F1D1C657CE0C4873CED7C595421458283AC23024A2B ====
CD10
Exact Audio Copy V1.3 from 2. September 2016

EAC extraction logfile from 12. October 2017, 20:39

Murray Perahia, English Chamber Orchestra / Mozart - Piano Concertos Nos.23-24

Used drive : HL-DT-STDVDRAM GH24NS95 Adapter: 1 ID: 0

Read mode : Secure
Utilize accurate stream : Yes
Defeat audio cache : Yes
Make use of C2 pointers : No

Read offset correction : 6
Overread into Lead-In and Lead-Out : No
Fill up missing offset samples with silence : Yes
Delete leading and trailing silent blocks : No
Null samples used in CRC calculations : Yes
Used interface : Native Win32 interface for Win NT & 2000

Used output format : User Defined Encoder
Selected bitrate : 128 kBit/s
Quality : High
Add ID3 tag : No
Command line compressor : C:\Program Files\Exact Audio Copy\Flac\flac.exe
Additional command line options : -V -8 -T "Date=%year%" -T "Genre=%genre%" %source%


TOC of the extracted CD

Track | Start | Length | Start sector | End sector
––––––––––––––––––––––––––––-
1 | 0:00.00 | 11:43.47 | 0 | 52771
2 | 11:43.47 | 7:27.22 | 52772 | 86318
3 | 19:10.69 | 8:24.27 | 86319 | 124145
4 | 27:35.21 | 13:26.16 | 124146 | 184611
5 | 41:01.37 | 8:34.28 | 184612 | 223189
6 | 49:35.65 | 8:51.17 | 223190 | 263031


Range status and errors

Selected range

Filename C:\Program Files\Exact Audio Copy\Flac\Mozart - Piano Concertos Nos.23-24.wav

Peak level 98.8 %
Extraction speed 7.4 X
Range quality 100.0 %
Test CRC BFBA5438
Copy CRC BFBA5438
Copy OK

No errors occurred

End of status report

==== Log checksum 30E172DD9C54B8A168848C68E2AAF05116E6B95E88FB38662F4824E8A297F600 ====
CD11
Exact Audio Copy V1.3 from 2. September 2016

EAC extraction logfile from 12. October 2017, 20:59

Murray Perahia, English Chamber Orchestra / Mozart - Piano Concertos Nos.25-26

Used drive : HL-DT-STDVDRAM GH24NS95 Adapter: 1 ID: 0

Read mode : Secure
Utilize accurate stream : Yes
Defeat audio cache : Yes
Make use of C2 pointers : No

Read offset correction : 6
Overread into Lead-In and Lead-Out : No
Fill up missing offset samples with silence : Yes
Delete leading and trailing silent blocks : No
Null samples used in CRC calculations : Yes
Used interface : Native Win32 interface for Win NT & 2000

Used output format : User Defined Encoder
Selected bitrate : 128 kBit/s
Quality : High
Add ID3 tag : No
Command line compressor : C:\Program Files\Exact Audio Copy\Flac\flac.exe
Additional command line options : -V -8 -T "Date=%year%" -T "Genre=%genre%" %source%


TOC of the extracted CD

Track | Start | Length | Start sector | End sector
––––––––––––––––––––––––––––-
1 | 0:00.00 | 15:20.47 | 0 | 69046
2 | 15:20.47 | 7:30.29 | 69047 | 102825
3 | 22:51.01 | 8:59.39 | 102826 | 143289
4 | 31:50.40 | 14:14.29 | 143290 | 207368
5 | 46:04.69 | 7:15.44 | 207369 | 240037
6 | 53:20.38 | 10:04.72 | 240038 | 285409


Range status and errors

Selected range

Filename C:\Program Files\Exact Audio Copy\Flac\Mozart - Piano Concertos Nos.25-26.wav

Peak level 98.8 %
Extraction speed 7.9 X
Range quality 100.0 %
Test CRC 8457AF4B
Copy CRC 8457AF4B
Copy OK

No errors occurred

End of status report

==== Log checksum F44F467BDABAC3043B780618D7A68D230A95D6DBDA31492A099476B38373429E ====
CD12
Exact Audio Copy V1.3 from 2. September 2016

EAC extraction logfile from 12. October 2017, 21:20

Murray Perahia, English Chamber Orchestra / Mozart - Piano Concerto No.27, Rondos

Used drive : HL-DT-STDVDRAM GH24NS95 Adapter: 1 ID: 0

Read mode : Secure
Utilize accurate stream : Yes
Defeat audio cache : Yes
Make use of C2 pointers : No

Read offset correction : 6
Overread into Lead-In and Lead-Out : No
Fill up missing offset samples with silence : Yes
Delete leading and trailing silent blocks : No
Null samples used in CRC calculations : Yes
Used interface : Native Win32 interface for Win NT & 2000

Used output format : User Defined Encoder
Selected bitrate : 128 kBit/s
Quality : High
Add ID3 tag : No
Command line compressor : C:\Program Files\Exact Audio Copy\Flac\flac.exe
Additional command line options : -V -8 -T "Date=%year%" -T "Genre=%genre%" %source%


TOC of the extracted CD

Track | Start | Length | Start sector | End sector
––––––––––––––––––––––––––––-
1 | 0:00.00 | 13:18.25 | 0 | 59874
2 | 13:18.25 | 8:17.16 | 59875 | 97165
3 | 21:35.41 | 8:38.46 | 97166 | 136061
4 | 30:14.12 | 10:22.24 | 136062 | 182735
5 | 40:36.36 | 9:27.47 | 182736 | 225307


Range status and errors

Selected range

Filename C:\Program Files\Exact Audio Copy\Flac\Mozart - Piano Concerto No.27, Rondos.wav

Peak level 98.8 %
Extraction speed 7.1 X
Range quality 100.0 %
Test CRC 4CE0F22D
Copy CRC 4CE0F22D
Copy OK

No errors occurred

End of status report

==== Log checksum E107F7CC5B65652BD9938475A2000650DD847201E8A17E25CC7E12A35A6657A5 ====