Subcategories
Tags
Language
Tags

Nat King Cole - Every Time I Feel The Spirit (1959) Expanded Remastered 2007

Posted By: Designol
Nat King Cole - Every Time I Feel The Spirit (1959) Expanded Remastered 2007

Nat King Cole - Every Time I Feel The Spirit (1959) Expanded Remastered 2007
Gordon Jenkins conducts First Church Of Deliverance Choir

EAC | FLAC | Tracks (Cue&Log) ~ 249 Mb | Mp3 (CBR320) ~ 100 Mb | Scans included
Label: Collectors' Choice/EMI | # CCM-868, 509995-01997-2-3 | Time: 00:42:13
Gospel, Spiritual, Vocal Pop, Vocal Jazz

Every Time I Feel the Spirit is a 1959 studio album by Nat King Cole, of spirituals, arranged by Gordon Jenkins. Cole is accompanied by the First Church of Deliverance Choir of Chicago, Illinois. The album was re-issued by Capitol Records in 1966 under the new title, Nat King Cole Sings Hymns and Spirituals. Several bonus tracks, recorded between 1951 and 1961 and arranged by Nelson Riddle and others, were added to later CD re-issues.

I have always appreciated the unaffected atmosphere and astute artistry of gospel music, and in the early 1960s I bought a copy of the World Records Club LP titled `Nat King Cole Sings Spirituals'. Quality suffered as it was played so frequently and it disappeared into a cupboard as CDs took over. I was delighted to come across this recently released CD `Every Time I Feel The Spirit' and listen again to Nat's scintillating and sincere spirituals. The original LP contained 12 short numbers and all have been repeated on this CD plus what are referred to as 6 bonus tracks. These are pleasant enough (typical Nat King Cole plus more orchestration than for simple spirituals) but it is the original 12 numbers that without doubt grant 5-star status. One of these `I Found The Answer' was composed independently, but the other 11 are traditional spirituals with blues influence, and are arranged by Nat King Cole and Gordon Jenkins the conductor of the choir of Chicago's First Church of Deliverance. Each one is a marvellous and inspired authentic example of this form of music as both Nat and the choir treat them with the dedication and devotion they deserve. My favourites include the opening title track `Every Time I Feel The Spirit' together with `I Want To Be Ready', `Standin' In The Need Of Prayer', `Go Down Moses' and `I Couldn't Hear Nobody Pray', and my most favoured favourite is `Oh Mary Don't You Weep'. Listen to the pulse and intonation of the Hammond organ and the passionate support and syncopated clapping of the church choir - this track alone makes for a 5-star CD. I cannot better the sleeve note of my LP: "Nat King Cole's great warmth and sincerity perfectly capture the moods of joy and sadness as he lifts his voice in praise to sing twelve great spirituals."

Review by D. Elliott, Amazon.com

On paper, a gospel album by preacher's son Nat King Cole recorded in his hometown of Chicago with a local church choir would seem like a sure thing. Why then is Every Time I Feel the Spirit such a disappointment? The blame cannot be put on the First Church of Deliverance Choir, which gives strong readings of some excellent spirituals, including "Ain't Gonna Study War No More," "Oh, Mary, Don't You Weep," and "I Couldn't Hear Nobody Pray." It must be ascribed to Cole himself, who sounds like he is overdubbing his part (though this apparently was not the case), especially because there seems to be no connection between him and the choir. Cole simply sings in his usual easygoing, well-articulated style, never seeming particularly involved with the songs' messages. He swings, but he never works up a sweat and gets soulful. For this reason, the best numbers are the slow ones like "Go Down, Moses" and "Nobody Knows the Trouble I've Seen," on which he can at least seem reverent. Still, despite its title, this is an album on which Nat King Cole never seems to have felt the spirit.

Review by William Ruhlmann, Allmusic.com

Nat King Cole - Every Time I Feel The Spirit (1959) Expanded Remastered 2007



Original 12-track album released in 1959 on Capitol as ST-1249.
Tracks 1-12 recorded in September 1958.
Bonus tracks 13 to 18 recorded between 1951 to 1961.

Tracklist:

01. Every Time I Feel The Spirit (1:50)
02. I Want To Be Ready (1:47)
03. Sweet Hour Of Prayer (1:51)
04. Ain't Gonna Study War No More (2:39)
05. I Found The Answer (2:01)
06. Standin' In The Need Of Prayer (2:13)
07. Oh, Mary, Don't You Weep (1:59)
08. Go Down, Moses (1:52)
09. Nobody Knows The Trouble I've Seen (2:46)
10. In The Sweet By And By (1:56)
11. I Couldn't Hear Nobody Pray (1:54)
12. Steal Away (2:49)

Bonus Tracks:
13. The First Baseball Game (2:30)
14. This Holy Love (3:05)
15. Peace Of Mind (2:56)
16. Easter Sunday Morning (3:03)
17. Believe (2:23)
18. The Lighthouse In The Sky (2:38)


Exact Audio Copy V1.1 from 23. June 2015

EAC extraction logfile from 22. October 2016, 17:38

Nat King Cole / Every Time I Feel The Spirit

Used drive : PBDS CD-ROM DH-48N1S Adapter: 1 ID: 0

Read mode : Secure
Utilize accurate stream : Yes
Defeat audio cache : Yes
Make use of C2 pointers : No

Read offset correction : 6
Overread into Lead-In and Lead-Out : No
Fill up missing offset samples with silence : Yes
Delete leading and trailing silent blocks : No
Null samples used in CRC calculations : Yes
Used interface : Native Win32 interface for Win NT & 2000
Gap handling : Appended to previous track

Used output format : User Defined Encoder
Selected bitrate : 768 kBit/s
Quality : High
Add ID3 tag : No
Command line compressor : C:\Program Files (x86)\Exact Audio Copy\FLAC\FLAC.EXE
Additional command line options : -8 -V -T "ARTIST=%artist%" -T "TITLE=%title%" -T "ALBUM=%albumtitle%" -T "DATE=%year%" -T "TRACKNUMBER=%tracknr%" -T "GENRE=%genre%" -T "PERFORMER=%albuminterpret%" -T "COMPOSER=%composer%" %haslyrics%–tag-from-file=LYRICS="%lyricsfile%"%haslyrics% -T "ALBUMARTIST=%albumartist%" -T "DISCNUMBER=%cdnumber%" -T "TOTALDISCS=%totalcds%" -T "TOTALTRACKS=%numtracks%" -T "COMMENT=%comment%" %source% -o %dest%


TOC of the extracted CD

Track | Start | Length | Start sector | End sector
––––––––––––––––––––––––––––-
1 | 0:00.00 | 1:49.72 | 0 | 8246
2 | 1:49.72 | 1:47.21 | 8247 | 16292
3 | 3:37.18 | 1:50.66 | 16293 | 24608
4 | 5:28.09 | 2:39.18 | 24609 | 36551
5 | 8:07.27 | 2:00.51 | 36552 | 45602
6 | 10:08.03 | 2:13.04 | 45603 | 55581
7 | 12:21.07 | 1:58.48 | 55582 | 64479
8 | 14:19.55 | 1:51.73 | 64480 | 72877
9 | 16:11.53 | 2:46.16 | 72878 | 85343
10 | 18:57.69 | 1:55.41 | 85344 | 94009
11 | 20:53.35 | 1:54.20 | 94010 | 102579
12 | 22:47.55 | 2:49.11 | 102580 | 115265
13 | 25:36.66 | 2:30.36 | 115266 | 126551
14 | 28:07.27 | 3:05.25 | 126552 | 140451
15 | 31:12.52 | 2:56.24 | 140452 | 153675
16 | 34:09.01 | 3:02.55 | 153676 | 167380
17 | 37:11.56 | 2:23.18 | 167381 | 178123
18 | 39:34.74 | 2:37.58 | 178124 | 189956


Track 1

Filename C:\EACRips\01 - Every Time I Feel The Spirit.wav

Pre-gap length 0:00:02.00

Peak level 97.9 %
Extraction speed 1.3 X
Track quality 100.0 %
Test CRC DFD0A311
Copy CRC DFD0A311
Accurately ripped (confidence 2) [6DDFC9AB] (AR v2)
Copy OK

Track 2

Filename C:\EACRips\02 - I Want To Be Ready.wav

Pre-gap length 0:00:02.00

Peak level 99.9 %
Extraction speed 3.4 X
Track quality 100.0 %
Test CRC A5FF0CAF
Copy CRC A5FF0CAF
Accurately ripped (confidence 2) [78DD6E17] (AR v2)
Copy OK

Track 3

Filename C:\EACRips\03 - Sweet Hour Of Prayer.wav

Pre-gap length 0:00:02.00

Peak level 99.9 %
Extraction speed 1.9 X
Track quality 99.9 %
Test CRC BD830BCF
Copy CRC BD830BCF
Accurately ripped (confidence 2) [F8741AD0] (AR v2)
Copy OK

Track 4

Filename C:\EACRips\04 - Ain't Gonna Study War No More.wav

Pre-gap length 0:00:02.00

Peak level 99.9 %
Extraction speed 2.7 X
Track quality 100.0 %
Test CRC E712E511
Copy CRC E712E511
Accurately ripped (confidence 2) [0F9C117A] (AR v2)
Copy OK

Track 5

Filename C:\EACRips\05 - I Found The Answer.wav

Pre-gap length 0:00:02.00

Peak level 99.9 %
Extraction speed 2.7 X
Track quality 100.0 %
Test CRC DE5A1A05
Copy CRC DE5A1A05
Accurately ripped (confidence 2) [B7D7F35D] (AR v2)
Copy OK

Track 6

Filename C:\EACRips\06 - Standin' In The Need Of Prayer.wav

Pre-gap length 0:00:02.00

Peak level 97.9 %
Extraction speed 4.2 X
Track quality 100.0 %
Test CRC 215E09C9
Copy CRC 215E09C9
Accurately ripped (confidence 2) [60B643DA] (AR v2)
Copy OK

Track 7

Filename C:\EACRips\07 - Oh, Mary, Don't You Weep.wav

Pre-gap length 0:00:02.00

Peak level 92.5 %
Extraction speed 3.0 X
Track quality 100.0 %
Test CRC 89D28031
Copy CRC 89D28031
Accurately ripped (confidence 2) [9BCFAF9B] (AR v2)
Copy OK

Track 8

Filename C:\EACRips\08 - Go Down, Moses.wav

Pre-gap length 0:00:02.00

Peak level 99.9 %
Extraction speed 3.7 X
Track quality 100.0 %
Test CRC FD36A42B
Copy CRC FD36A42B
Accurately ripped (confidence 2) [0E909B57] (AR v2)
Copy OK

Track 9

Filename C:\EACRips\09 - Nobody Knows The Trouble I've Seen.wav

Pre-gap length 0:00:02.00

Peak level 97.9 %
Extraction speed 4.9 X
Track quality 100.0 %
Test CRC 39C9237C
Copy CRC 39C9237C
Accurately ripped (confidence 2) [A28918A8] (AR v2)
Copy OK

Track 10

Filename C:\EACRips\10 - In The Sweet By And By.wav

Pre-gap length 0:00:02.00

Peak level 99.9 %
Extraction speed 2.2 X
Track quality 99.9 %
Test CRC E6673D90
Copy CRC E6673D90
Accurately ripped (confidence 2) [5139A223] (AR v2)
Copy OK

Track 11

Filename C:\EACRips\11 - I Couldn't Hear Nobody Pray.wav

Pre-gap length 0:00:02.00

Peak level 97.9 %
Extraction speed 4.0 X
Track quality 100.0 %
Test CRC 068DE938
Copy CRC 068DE938
Accurately ripped (confidence 2) [883859A7] (AR v2)
Copy OK

Track 12

Filename C:\EACRips\12 - Steal Away.wav

Pre-gap length 0:00:02.00

Peak level 98.5 %
Extraction speed 3.0 X
Track quality 100.0 %
Test CRC 789272A7
Copy CRC 789272A7
Accurately ripped (confidence 2) [D94E7A89] (AR v2)
Copy OK

Track 13

Filename C:\EACRips\13 - The First Baseball Game.wav

Pre-gap length 0:00:02.00

Peak level 97.7 %
Extraction speed 3.9 X
Track quality 100.0 %
Test CRC 3F9C5374
Copy CRC 3F9C5374
Accurately ripped (confidence 2) [055431B2] (AR v2)
Copy OK

Track 14

Filename C:\EACRips\14 - This Holy Love.wav

Pre-gap length 0:00:02.00

Peak level 99.9 %
Extraction speed 5.1 X
Track quality 100.0 %
Test CRC 3A041F8D
Copy CRC 3A041F8D
Accurately ripped (confidence 2) [BC42CA78] (AR v2)
Copy OK

Track 15

Filename C:\EACRips\15 - Peace Of Mind.wav

Pre-gap length 0:00:02.00

Peak level 97.9 %
Extraction speed 4.5 X
Track quality 100.0 %
Test CRC 163982B2
Copy CRC 163982B2
Accurately ripped (confidence 2) [804E6C93] (AR v2)
Copy OK

Track 16

Filename C:\EACRips\16 - Easter Sunday Morning.wav

Pre-gap length 0:00:02.00

Peak level 99.9 %
Extraction speed 4.8 X
Track quality 100.0 %
Test CRC 5AF0EC3A
Copy CRC 5AF0EC3A
Accurately ripped (confidence 2) [BE00CA04] (AR v2)
Copy OK

Track 17

Filename C:\EACRips\17 - Believe.wav

Pre-gap length 0:00:02.00

Peak level 99.9 %
Extraction speed 3.4 X
Track quality 100.0 %
Test CRC 73259F2F
Copy CRC 73259F2F
Accurately ripped (confidence 2) [85BAA62F] (AR v2)
Copy OK

Track 18

Filename C:\EACRips\18 - The Lighthouse In The Sky.wav

Pre-gap length 0:00:02.00

Peak level 99.9 %
Extraction speed 4.2 X
Track quality 100.0 %
Test CRC EFCF281A
Copy CRC EFCF281A
Accurately ripped (confidence 2) [9897ED7C] (AR v2)
Copy OK


All tracks accurately ripped

No errors occurred

End of status report

–– CUETools DB Plugin V2.1.6

[CTDB TOCID: IVAJ.89AL24wxzZLL8uBOkTjOiw-] found
Submit result: IVAJ.89AL24wxzZLL8uBOkTjOiw- has been confirmed
Track | CTDB Status
1 | (2/2) Accurately ripped
2 | (2/2) Accurately ripped
3 | (2/2) Accurately ripped
4 | (2/2) Accurately ripped
5 | (2/2) Accurately ripped
6 | (2/2) Accurately ripped
7 | (2/2) Accurately ripped
8 | (2/2) Accurately ripped
9 | (2/2) Accurately ripped
10 | (2/2) Accurately ripped
11 | (2/2) Accurately ripped
12 | (2/2) Accurately ripped
13 | (2/2) Accurately ripped
14 | (2/2) Accurately ripped
15 | (2/2) Accurately ripped
16 | (2/2) Accurately ripped
17 | (2/2) Accurately ripped
18 | (2/2) Accurately ripped


==== Log checksum 0BD43A86AB5EDE628299701EBBEFB68167354ED041029B181384795D794EC489 ====

foobar2000 1.2 / Dynamic Range Meter 1.1.1
log date: 2017-07-04 22:39:12

––––––––––––––––––––––––––––––––––––––––
Analyzed: Nat King Cole / Every Time I Feel The Spirit
––––––––––––––––––––––––––––––––––––––––

DR Peak RMS Duration Track
––––––––––––––––––––––––––––––––––––––––
DR11 -0.18 dB -13.68 dB 1:50 01-Every Time I Feel The Spirit
DR11 0.00 dB -14.16 dB 1:47 02-I Want To Be Ready
DR12 0.00 dB -16.15 dB 1:51 03-Sweet Hour Of Prayer
DR11 0.00 dB -12.82 dB 2:39 04-Ain't Gonna Study War No More
DR12 0.00 dB -15.35 dB 2:01 05-I Found The Answer
DR11 -0.18 dB -13.74 dB 2:13 06-Standin' In The Need Of Prayer
DR9 -0.67 dB -13.06 dB 1:59 07-Oh, Mary, Don't You Weep
DR11 0.00 dB -14.81 dB 1:52 08-Go Down, Moses
DR11 -0.18 dB -14.69 dB 2:46 09-Nobody Knows The Trouble I've Seen
DR11 0.00 dB -15.63 dB 1:56 10-In The Sweet By And By
DR10 -0.18 dB -14.34 dB 1:54 11-I Couldn't Hear Nobody Pray
DR12 -0.13 dB -16.14 dB 2:49 12-Steal Away
DR11 -0.19 dB -13.63 dB 2:30 13-The First Baseball Game
DR11 0.00 dB -14.48 dB 3:05 14-This Holy Love
DR11 -0.18 dB -14.26 dB 2:56 15-Peace Of Mind
DR10 0.00 dB -12.39 dB 3:03 16-Easter Sunday Morning
DR10 0.00 dB -12.84 dB 2:23 17-Believe
DR11 0.00 dB -12.62 dB 2:38 18-The Lighthouse In The Sky
––––––––––––––––––––––––––––––––––––––––

Number of tracks: 18
Official DR value: DR11

Samplerate: 44100 Hz
Channels: 2
Bits per sample: 16
Bitrate: 833 kbps
Codec: FLAC
================================================================================

Nat King Cole - Every Time I Feel The Spirit (1959) Expanded Remastered 2007

All thanks to original releaser - robman62

More interesting music in My Blog