Subcategories
Tags
Language
Tags

Nat King Cole - Top Pops (1963) Remastered 2007

Posted By: Designol
Nat King Cole - Top Pops (1963) Remastered 2007

Nat King Cole - Top Pops (1963) Remastered 2007
EAC | FLAC | Tracks (Cue&Log) ~ 286 Mb | Mp3 (CBR320) ~ 108 Mb | Scans included
Label: Collectors' Choice Music | CCM-871, 509995-01984-2-9 | Time: 00:46:08
Vocal Jazz, Swing, Vocal Pop

In 1954, Capitol Records released the 10" LP collection Eight Top Pops, compiling eight songs that had appeared on singles by Nat King Cole during 1952. The first two, "Somewhere Along the Way" and "Walkin' My Baby Back Home," were the biggest hits, both reaching number eight in Billboard. "Because You're Mine," Cole's cover of the Mario Lanza movie song (done in a far more relaxed style than Lanza's, of course), was also a major hit, reaching number 16. "Faith Can Move Mountains" and "The Ruby and the Pearl" were somewhat less successful, but still lodged in the Top 30, as did the B-sides "Funny (Not Much)" and "I'm Never Satisfied." The only one of the eight songs not to earn a chart placing was "A Weaver of Dreams," the B-side of the single "Wine, Women and Song." In 1963, Capitol expanded Eight Top Pops into the 12" LP Top Pops by adding two tracks at the end of either side of the original release. These four songs all came from an EP recorded by Cole in 1954, on which he covered hits by other performers, including Doris Day's "If I Give My Heart to You," the De Castro Singers' "Teach Me Tonight," and Perry Como's "Papa Loves Mambo." On the various tracks, Cole addresses charts written by his conductors Les Baxter, Billy May, Nelson Riddle, and Pete Rugolo, varying the mood from lightly romantic to lightly melancholic, but always remaining as smooth a crooner as ever.

Review by William Ruhlmann, Allmusic.com

Nat King Cole at Allmusic
Nat King Cole at Wiki

Tracklist:

01. Somewhere Along The Way (02:52)
02. Walkin' My Baby Back Home (02:38)
03. Faith Can Move Mountains (03:12)
04. Funny (02:57)
05. Hold My Hand (03:03)
06. Teach Me Tonight (03:09)
07. I'm Never Satisfied (02:11)
08. Because You're Mine (03:10)
09. The Ruby And The Pearl (03:12)
10. A Weaver Of Dreams (02:45)
11. Papa Loves Mambo (02:39)
12. If I Give My Heart To You (02:58)
13. You Will Never Grow Old (02:49)
14. How (How Do I Go About It?) (02:45)
15. When I'm Alone (02:49)
16. A Fool Was I (02:50)


Exact Audio Copy V1.1 from 23. June 2015

EAC extraction logfile from 22. October 2016, 18:11

Nat King Cole / Top Pops

Used drive : PBDS CD-ROM DH-48N1S Adapter: 1 ID: 0

Read mode : Secure
Utilize accurate stream : Yes
Defeat audio cache : Yes
Make use of C2 pointers : No

Read offset correction : 6
Overread into Lead-In and Lead-Out : No
Fill up missing offset samples with silence : Yes
Delete leading and trailing silent blocks : No
Null samples used in CRC calculations : Yes
Used interface : Native Win32 interface for Win NT & 2000
Gap handling : Appended to previous track

Used output format : User Defined Encoder
Selected bitrate : 768 kBit/s
Quality : High
Add ID3 tag : No
Command line compressor : C:\Program Files (x86)\Exact Audio Copy\FLAC\FLAC.EXE
Additional command line options : -8 -V -T "ARTIST=%artist%" -T "TITLE=%title%" -T "ALBUM=%albumtitle%" -T "DATE=%year%" -T "TRACKNUMBER=%tracknr%" -T "GENRE=%genre%" -T "PERFORMER=%albuminterpret%" -T "COMPOSER=%composer%" %haslyrics%–tag-from-file=LYRICS="%lyricsfile%"%haslyrics% -T "ALBUMARTIST=%albumartist%" -T "DISCNUMBER=%cdnumber%" -T "TOTALDISCS=%totalcds%" -T "TOTALTRACKS=%numtracks%" -T "COMMENT=%comment%" %source% -o %dest%


TOC of the extracted CD

Track | Start | Length | Start sector | End sector
––––––––––––––––––––––––––––-
1 | 0:00.00 | 2:52.74 | 0 | 12973
2 | 2:52.74 | 2:38.71 | 12974 | 24894
3 | 5:31.70 | 3:12.33 | 24895 | 39327
4 | 8:44.28 | 2:57.40 | 39328 | 52642
5 | 11:41.68 | 3:03.51 | 52643 | 66418
6 | 14:45.44 | 3:09.53 | 66419 | 80646
7 | 17:55.22 | 2:11.22 | 80647 | 90493
8 | 20:06.44 | 3:10.42 | 90494 | 104785
9 | 23:17.11 | 3:12.20 | 104786 | 119205
10 | 26:29.31 | 2:45.63 | 119206 | 131643
11 | 29:15.19 | 2:39.06 | 131644 | 143574
12 | 31:54.25 | 2:58.51 | 143575 | 156975
13 | 34:53.01 | 2:49.22 | 156976 | 169672
14 | 37:42.23 | 2:45.69 | 169673 | 182116
15 | 40:28.17 | 2:49.74 | 182117 | 194865
16 | 43:18.16 | 2:50.18 | 194866 | 207633


Track 1

Filename C:\EACRips\01 - Somewhere Along The Way.wav

Pre-gap length 0:00:02.00

Peak level 96.5 %
Extraction speed 1.4 X
Track quality 99.9 %
Test CRC BF2B5DED
Copy CRC BF2B5DED
Accurately ripped (confidence 4) [F28445A2] (AR v2)
Copy OK

Track 2

Filename C:\EACRips\02 - Walkin' My Baby Back Home.wav

Peak level 99.2 %
Extraction speed 1.8 X
Track quality 100.0 %
Test CRC F3015F84
Copy CRC F3015F84
Accurately ripped (confidence 4) [D5867F4D] (AR v2)
Copy OK

Track 3

Filename C:\EACRips\03 - Faith Can Move Mountains.wav

Peak level 98.2 %
Extraction speed 3.0 X
Track quality 100.0 %
Test CRC 5104CC48
Copy CRC 5104CC48
Accurately ripped (confidence 4) [CFA45253] (AR v2)
Copy OK

Track 4

Filename C:\EACRips\04 - Funny.wav

Peak level 97.6 %
Extraction speed 3.2 X
Track quality 100.0 %
Test CRC 46F39263
Copy CRC 46F39263
Accurately ripped (confidence 4) [D524D5B4] (AR v2)
Copy OK

Track 5

Filename C:\EACRips\05 - Hold My Hand.wav

Peak level 96.9 %
Extraction speed 3.4 X
Track quality 100.0 %
Test CRC 8F8C7710
Copy CRC 8F8C7710
Accurately ripped (confidence 4) [FEC44D58] (AR v2)
Copy OK

Track 6

Filename C:\EACRips\06 - Teach Me Tonight.wav

Peak level 100.0 %
Extraction speed 4.2 X
Track quality 100.0 %
Test CRC C821824D
Copy CRC C821824D
Accurately ripped (confidence 4) [ADE084DE] (AR v2)
Copy OK

Track 7

Filename C:\EACRips\07 - I'm Never Satisfied.wav

Peak level 99.9 %
Extraction speed 2.7 X
Track quality 100.0 %
Test CRC 3B4D970B
Copy CRC 3B4D970B
Accurately ripped (confidence 4) [696BF61F] (AR v2)
Copy OK

Track 8

Filename C:\EACRips\08 - Because You're Mine.wav

Peak level 100.0 %
Extraction speed 3.6 X
Track quality 99.9 %
Test CRC C579579C
Copy CRC C579579C
Accurately ripped (confidence 4) [4DF99C4E] (AR v2)
Copy OK

Track 9

Filename C:\EACRips\09 - The Ruby And The Pearl.wav

Peak level 93.9 %
Extraction speed 4.3 X
Track quality 100.0 %
Test CRC AEA9ACFD
Copy CRC AEA9ACFD
Accurately ripped (confidence 4) [6A4B5E04] (AR v2)
Copy OK

Track 10

Filename C:\EACRips\10 - A Weaver Of Dreams.wav

Peak level 94.7 %
Extraction speed 4.1 X
Track quality 100.0 %
Test CRC 120AB674
Copy CRC 120AB674
Accurately ripped (confidence 4) [F3E2D436] (AR v2)
Copy OK

Track 11

Filename C:\EACRips\11 - Papa Loves Mambo.wav

Peak level 100.0 %
Extraction speed 4.0 X
Track quality 100.0 %
Test CRC 9DA56C41
Copy CRC 9DA56C41
Accurately ripped (confidence 4) [67A2531F] (AR v2)
Copy OK

Track 12

Filename C:\EACRips\12 - If I Give My Heart To You.wav

Peak level 97.2 %
Extraction speed 3.6 X
Track quality 100.0 %
Test CRC 524260A4
Copy CRC 524260A4
Accurately ripped (confidence 4) [DF805376] (AR v2)
Copy OK

Track 13

Filename C:\EACRips\13 - You Will Never Grow Old.wav

Peak level 97.9 %
Extraction speed 4.5 X
Track quality 99.9 %
Test CRC 43C2005D
Copy CRC 43C2005D
Accurately ripped (confidence 4) [A5D356F3] (AR v2)
Copy OK

Track 14

Filename C:\EACRips\14 - How (How Do I Go About It~).wav

Peak level 98.5 %
Extraction speed 6.0 X
Track quality 100.0 %
Test CRC 79AA8CDA
Copy CRC 79AA8CDA
Accurately ripped (confidence 4) [437E7176] (AR v2)
Copy OK

Track 15

Filename C:\EACRips\15 - When I'm Alone.wav

Peak level 98.6 %
Extraction speed 4.7 X
Track quality 99.9 %
Test CRC 9D35E096
Copy CRC 9D35E096
Accurately ripped (confidence 4) [181B9DA2] (AR v2)
Copy OK

Track 16

Filename C:\EACRips\16 - A Fool Was I.wav

Peak level 100.0 %
Extraction speed 5.9 X
Track quality 100.0 %
Test CRC 1689FE82
Copy CRC 1689FE82
Accurately ripped (confidence 4) [873DBCAD] (AR v2)
Copy OK


All tracks accurately ripped

No errors occurred

End of status report

–– CUETools DB Plugin V2.1.6

[CTDB TOCID: _J3rlWQTJ79ts9BuNrRX62Nq0Ls-] found
Submit result: _J3rlWQTJ79ts9BuNrRX62Nq0Ls- has been confirmed
Track | CTDB Status
1 | (1/1) Accurately ripped
2 | (1/1) Accurately ripped
3 | (1/1) Accurately ripped
4 | (1/1) Accurately ripped
5 | (1/1) Accurately ripped
6 | (1/1) Accurately ripped
7 | (1/1) Accurately ripped
8 | (1/1) Accurately ripped
9 | (1/1) Accurately ripped
10 | (1/1) Accurately ripped
11 | (1/1) Accurately ripped
12 | (1/1) Accurately ripped
13 | (1/1) Accurately ripped
14 | (1/1) Accurately ripped
15 | (1/1) Accurately ripped
16 | (1/1) Accurately ripped


==== Log checksum 0ADD444567AAC3BA36065376A16FBB0E2F15B7FC208ADA55270BBFEE2E58A0AD ====

foobar2000 1.2 / Dynamic Range Meter 1.1.1
log date: 2016-11-03 18:18:11

––––––––––––––––––––––––––––––––––––––––
Analyzed: Nat King Cole / Top Pops
––––––––––––––––––––––––––––––––––––––––

DR Peak RMS Duration Track
––––––––––––––––––––––––––––––––––––––––
DR10 -0.30 dB -12.24 dB 2:53 01-Somewhere Along The Way
DR10 -0.06 dB -12.22 dB 2:39 02-Walkin' My Baby Back Home
DR8 -0.16 dB -11.00 dB 3:12 03-Faith Can Move Mountains
DR10 -0.20 dB -12.47 dB 2:58 04-Funny
DR9 -0.27 dB -11.90 dB 3:04 05-Hold My Hand
DR9 0.00 dB -11.74 dB 3:10 06-Teach Me Tonight
DR8 0.00 dB -9.57 dB 2:11 07-I'm Never Satisfied
DR9 0.00 dB -11.28 dB 3:11 08-Because You're Mine
DR10 -0.54 dB -12.46 dB 3:12 09-The Ruby And The Pearl
DR10 -0.47 dB -13.22 dB 2:46 10-A Weaver Of Dreams
DR9 0.00 dB -10.71 dB 2:39 11-Papa Loves Mambo
DR10 -0.24 dB -13.04 dB 2:59 12-If I Give My Heart To You
DR9 -0.18 dB -10.83 dB 2:49 13-You Will Never Grow Old
DR11 -0.13 dB -13.20 dB 2:46 14-How (How Do I Go About It?)
DR9 -0.12 dB -11.74 dB 2:50 15-When I'm Alone
DR10 0.00 dB -11.91 dB 2:50 16-A Fool Was I
––––––––––––––––––––––––––––––––––––––––

Number of tracks: 16
Official DR value: DR9

Samplerate: 44100 Hz
Channels: 2
Bits per sample: 16
Bitrate: 837 kbps
Codec: FLAC
================================================================================

Nat King Cole - Top Pops (1963) Remastered 2007

All thanks to original releaser - robman62

More interesting music in My Blog