Tags
Language
Tags

Natalie Cole - I Love You So (1979) [1997, Reissue]

Posted By: BlondStyle
Natalie Cole - I Love You So (1979) [1997, Reissue]

Natalie Cole - I Love You So (1979) [1997, Reissue]
R&B, Soul, Jazz-Pop, Urban | EAC Rip | FLAC, Img+CUE+LOG+Scans (PNG) | 39:15 | 387,62 Mb
Label: EMI-Capitol/One Way Records (USA) | Cat.# 72438 19086 24 | Released: 1997-01-21 (1979-03-19)
Natalie Cole - I Love You So (1979) [1997, Reissue]

"I Love You So" is a 1979 album by American singer Natalie Cole. Released on March 19, 1979 by Capitol Records, The album reached peak positions of #52 on the Billboard 200 and #11 on the Billboard R&B Albums chart.
~Wikipedia

Natalie Cole - I Love You So (1979) [1997, Reissue]

If, in 1979, anyone still had illusions about Natalie Cole being a hardcore soul purist, they were shattered by I Love You So. Although this is primarily an R&B effort, Cole laces her R&B with a big dose of pop. And that isn't necessarily a bad thing, because most of the material is solid and enjoyable. Those who like Cole as gritty, funky soul shouter should appreciate "You're So Good," but she also gets into everything from sleek disco ("I Love You So") and a Fleetwood Mac cover ("Oh, Daddy") to a commercial R&B/adult contemporary blend ("Who Will Carry On"). Meanwhile, "Your Lonely Heart" (a Cole original that also appeared on her We're the Best of Friends album with Peabo Bryson) is the sort of pop-country ballad that wouldn't be out of place at a Dolly Parton or Reba McEntire session. I Love You So isn't among Cole's essential releases, but it's a satisfying effort that underscores her ability to successfully tackle a variety of musical styles.
~Review by Alex Henderson

Natalie Cole - I Love You So (1979) [1997, Reissue]

Natalie Cole - I Love You So (1979) [1997, Reissue]




Release of the album: 1979, March, 19 [LP Capitol Records, Cat.# SO-11928, USA]
Release of this CD: 1997, January, 21 [CD EMI-Capitol Music/One Way Records (USA), Cat.# 72438 19086 24 / UPC: 724381908624]
℗ 1979 Capitol Records, Inc.
℗&© 1996 EMI-Capitol Music Special Markets
Manufactured by EMI-Capitol Music Special Marketsю
Printed/Made in U.S.A.


Credits:

Arranged By [Horn & String] – Paul Riser
Arranged By [Rhythm, Horn & String] – Gene Barge
Background Vocalists – The Colettes, The 'N' Sisters, Anita Anderson, Sissy Peoples (track: 7); Chuck Bynum (track: 4)
Executive Producer: Kevin Hunter
Keyboards – Linda Williams, Sonny Burke, Marvin Yancy
Keyboards, Arranged By [Rhythm] – Mark Davis
Producers: Chuck Jackson, Gene Barge, Marvin Yancy


Tracklist:

01. I Love You So (05:05)
(C. Jackson / M. Yancy)
02. You're So Good (03:50)
(F. Freeman / H. Nehls)
03. It's Been You (04:57)
(C. Jackson / M. Yancy)
04. Your Lonely Heart (04:47)
(N. Cole)
05. The Winner (03:47)
(C. Jackson / M. Yancy / G. Barge)
06. Oh, Daddy (04:05)
(C. McVie)
07. Sorry (04:48)
(C. Jackson / M. Yancy / J. Dixon)
08. Stand By (04:18)
(N. Cole / M. Yancy)
09. Who Will Carry On (03:39)
(N. Cole)

Exact Audio Copy V1.3 from 2. September 2016

EAC extraction logfile from 19. October 2021, 20:45

Natalie Cole / I Love You So

Used drive : PIONEER BD-RW BDR-208D Adapter: 1 ID: 0

Read mode : Secure
Utilize accurate stream : Yes
Defeat audio cache : Yes
Make use of C2 pointers : No

Read offset correction : 667
Overread into Lead-In and Lead-Out : No
Fill up missing offset samples with silence : Yes
Delete leading and trailing silent blocks : No
Null samples used in CRC calculations : Yes
Used interface : Native Win32 interface for Win NT & 2000

Used output format : Internal WAV Routines
Sample format : 44.100 Hz; 16 Bit; Stereo


TOC of the extracted CD

Track | Start | Length | Start sector | End sector
––––––––––––––––––––––––––––-
1 | 0:00.00 | 5:05.12 | 0 | 22886
2 | 5:05.12 | 3:50.20 | 22887 | 40156
3 | 8:55.32 | 4:56.60 | 40157 | 62416
4 | 13:52.17 | 4:46.38 | 62417 | 83904
5 | 18:38.55 | 3:46.57 | 83905 | 100911
6 | 22:25.37 | 4:05.23 | 100912 | 119309
7 | 26:30.60 | 4:47.67 | 119310 | 140901
8 | 31:18.52 | 4:18.10 | 140902 | 160261
9 | 35:36.62 | 3:38.40 | 160262 | 176651


Range status and errors

Selected range

Filename D:\BlondStyle\Natalie Cole - I Love You So.wav

Peak level 93.9 %
Extraction speed 6.6 X
Range quality 100.0 %
Test CRC F4C3C992
Copy CRC F4C3C992
Copy OK

No errors occurred


AccurateRip summary

Track 1 accurately ripped (confidence 6) [5E1DB1F4] (AR v2)
Track 2 accurately ripped (confidence 6) [BF78FD32] (AR v2)
Track 3 accurately ripped (confidence 6) [90FCD262] (AR v2)
Track 4 accurately ripped (confidence 6) [1CD6D4D0] (AR v2)
Track 5 accurately ripped (confidence 6) [3ABFCB72] (AR v2)
Track 6 accurately ripped (confidence 6) [22B18222] (AR v2)
Track 7 accurately ripped (confidence 6) [20FCBD7C] (AR v2)
Track 8 accurately ripped (confidence 6) [937CFB8B] (AR v2)
Track 9 accurately ripped (confidence 6) [A78398F9] (AR v2)

All tracks accurately ripped

End of status report

–– CUETools DB Plugin V2.1.6

[CTDB TOCID: sjZq9DJbuCz3sgcBwLxGHNDEUEI-] found
Submit result: already submitted
Track | CTDB Status
1 | (2/2) Accurately ripped
2 | (2/2) Accurately ripped
3 | (2/2) Accurately ripped
4 | (2/2) Accurately ripped
5 | (2/2) Accurately ripped
6 | (2/2) Accurately ripped
7 | (2/2) Accurately ripped
8 | (2/2) Accurately ripped
9 | (2/2) Accurately ripped


==== Log checksum E7FDB0FF341F2349EB34D9557F56B4E91B7952F9D1A1A36978DFBC132041AC20 ====

––––––––––––––––––––––––––––––––––––––––
Analyzed: Natalie Cole / I Love You So
––––––––––––––––––––––––––––––––––––––––

DR Peak RMS Duration Track
––––––––––––––––––––––––––––––––––––––––
DR13 -0.54 dB -15.18 dB 5:05 01-I Love You So
DR12 -0.90 dB -15.63 dB 3:50 02-You're So Good
DR13 -1.58 dB -18.28 dB 4:57 03-It's Been You
DR12 -1.86 dB -17.01 dB 4:47 04-Your Lonely Heart
DR13 -1.60 dB -17.66 dB 3:47 05-The Winner
DR13 -0.75 dB -16.74 dB 4:05 06-Oh, Daddy
DR13 -2.51 dB -18.78 dB 4:48 07-Sorry
DR12 -1.33 dB -16.31 dB 4:18 08-Stand By
DR12 -1.30 dB -16.88 dB 3:39 09-Who Will Carry On
––––––––––––––––––––––––––––––––––––––––

Number of tracks: 9
Official DR value: DR12

Samplerate: 44100 Hz
Channels: 2
Bits per sample: 16
Bitrate: 833 kbps
Codec: FLAC
================================================================================

See also:

♫~Welcome To My Blog~♫

password: BlondStyle