Subcategories

Nino Katamadze & Insight - White (2006)

Posted By: gribovar
Nino Katamadze & Insight - White (2006)

Nino Katamadze & Insight - White (2006)
EAC Rip | WavPack (image+.cue+log) - 366 MB | MP3 CBR 320 kbps (LAME 3.93) - 136 MB | Covers (15 MB) included
Genre: Jazz Rock, Vocal Jazz | RAR 3% Rec. | Label: Мистерия Рекордс (MZ 324-2), 2007

Described as a "Georgian Janis Joplin," Nino Katamadze, from Batumi, is one of Georgia's most renowned singers. Defining the exact style of Katamadze's music is difficult; Nino calls it "art jazz." She sings mostly about love, sometimes spontaneously composing songs onstage."Musical motifs appear in my head unpredictably," she explains. In 1999, Nino Katamadze founded her 4 piece band - Insight. Since then they have been performing across Georgia, in Moscow and in some European countries. Band’s repertoire includes a lot of originally arranged Georgian folk songs. The strong side of the band is Nino’s vocal and extraordinariness in both music and stage performance.
Tracklist:
01. I Came
02. I Will Come as a Snow
03. Uto
04. Lip
05. Once in the Street
06. Olei
07. One Night Blues
08. Wave
09. Me, the Sea and You
10. What's My Fault
11. The Ordinary Day

Total time: 51:12

Exact Audio Copy V1.0 beta 1 from 15. November 2010

EAC extraction logfile from 25. January 2011, 21:11

Нино Катамадзе & Insight / White

Used drive : TSSTcorpCDDVDW TS-L633A Adapter: 1 ID: 0

Read mode : Secure
Utilize accurate stream : Yes
Defeat audio cache : Yes
Make use of C2 pointers : No

Read offset correction : 6
Overread into Lead-In and Lead-Out : No
Fill up missing offset samples with silence : Yes
Delete leading and trailing silent blocks : No
Null samples used in CRC calculations : Yes
Used interface : Native Win32 interface for Win NT & 2000

Used output format : User Defined Encoder
Selected bitrate : 1024 kBit/s
Quality : High
Add ID3 tag : No
Command line compressor : C:\Program Files\Exact Audio Copy\wavpack.exe
Additional command line options : -hlm %s


TOC of the extracted CD

Track | Start | Length | Start sector | End sector
––––––––––––––––––––––––––––-
1 | 0:00.00 | 4:44.54 | 0 | 21353
2 | 4:44.54 | 5:19.32 | 21354 | 45310
3 | 10:04.11 | 4:27.64 | 45311 | 65399
4 | 14:32.00 | 4:35.63 | 65400 | 86087
5 | 19:07.63 | 6:04.41 | 86088 | 113428
6 | 25:12.29 | 6:00.28 | 113429 | 140456
7 | 31:12.57 | 4:17.08 | 140457 | 159739
8 | 35:29.65 | 4:05.22 | 159740 | 178136
9 | 39:35.12 | 3:58.63 | 178137 | 196049
10 | 43:34.00 | 4:27.16 | 196050 | 216090
11 | 48:01.16 | 3:10.24 | 216091 | 230364


Range status and errors

Selected range

Filename C:\Nino WHITE\Нино Катамадзе & Insight - White.wav

Peak level 98.8 %
Extraction speed 0.1 X
Range quality 100.0 %
Test CRC 9D12DB04
Copy CRC 9D12DB04
Copy OK

No errors occurred


AccurateRip summary

Track 1 accurately ripped (confidence 2) [A9D75E85]
Track 2 accurately ripped (confidence 2) [C3B9F330]
Track 3 accurately ripped (confidence 2) [83413262]
Track 4 accurately ripped (confidence 2) [00A13929]
Track 5 accurately ripped (confidence 2) [6529F46E]
Track 6 accurately ripped (confidence 2) [9C369528]
Track 7 accurately ripped (confidence 2) [21C09BC3]
Track 8 accurately ripped (confidence 2) [FADC7777]
Track 9 accurately ripped (confidence 2) [EB37785D]
Track 10 accurately ripped (confidence 2) [8EDA93F2]
Track 11 accurately ripped (confidence 2) [8880E0A7]

All tracks accurately ripped

End of status report

==== Log checksum 0A0AC3305B0FC4086A229FB180D7750122768A7C190C5D76741046DAD2E32AA9 ====

[CUETools log; Date: 23.09.2019 18:17:12; Version: 2.1.4]
[CTDB TOCID: K_grBsqKljPBfHYwprFy72AdpqM-] found.
Track | CTDB Status
1 | (18/18) Accurately ripped
2 | (18/18) Accurately ripped
3 | (18/18) Accurately ripped
4 | (18/18) Accurately ripped
5 | (18/18) Accurately ripped
6 | (18/18) Accurately ripped
7 | (18/18) Accurately ripped
8 | (18/18) Accurately ripped
9 | (18/18) Accurately ripped
10 | (18/18) Accurately ripped
11 | (18/18) Accurately ripped
[AccurateRip ID: 00162986-00bf0071-9d0bff0b] found.
Track [ CRC | V2 ] Status
01 [a9d75e85|615270d8] (02+02/17) Accurately ripped
02 [c3b9f330|f3a0fbd6] (02+02/16) Accurately ripped
03 [83413262|91363feb] (02+02/16) Accurately ripped
04 [00a13929|8ffe33a8] (02+02/16) Accurately ripped
05 [6529f46e|41762158] (02+02/16) Accurately ripped
06 [9c369528|03d7e54c] (02+03/17) Accurately ripped
07 [21c09bc3|20da177f] (02+02/16) Accurately ripped
08 [fadc7777|503793f1] (02+02/16) Accurately ripped
09 [eb37785d|3d5bc2e9] (02+02/15) Accurately ripped
10 [8eda93f2|357282c5] (02+02/16) Accurately ripped
11 [8880e0a7|309ac892] (02+02/16) Accurately ripped
Offsetted by 664:
01 [af5553fd] (07/17) Accurately ripped
02 [17731ab5] (06/16) Accurately ripped
03 [2a9488d3] (06/16) Accurately ripped
04 [02d52316] (06/16) Accurately ripped
05 [a8fd5120] (06/16) Accurately ripped
06 [80ec3d1a] (06/17) Accurately ripped
07 [c05ab6cf] (06/16) Accurately ripped
08 [6a65f997] (06/16) Accurately ripped
09 [f6944040] (05/15) Accurately ripped
10 [0b5cfd01] (06/16) Accurately ripped
11 [f7ee618a] (06/16) Accurately ripped
Offsetted by 1328:
01 [17929fea] (04/17) Accurately ripped
02 [e5b8d8a5] (04/16) Accurately ripped
03 [c00a807f] (04/16) Accurately ripped
04 [8c6c95b8] (04/16) Accurately ripped
05 [ba6939df] (04/16) Accurately ripped
06 [2314729c] (04/17) Accurately ripped
07 [c1647c02] (04/16) Accurately ripped
08 [8ed18ce7] (04/16) Accurately ripped
09 [b871e819] (04/15) Accurately ripped
10 [92b88be3] (04/16) Accurately ripped
11 [cefee6d2] (04/16) Accurately ripped

Track Peak [ CRC32 ] [W/O NULL] [ LOG ]
– 98,8 [9D12DB04] [A073064D] CRC32
01 98,8 [1889F446] [F4EB2F22]
02 98,8 [3DA9A3C9] [59C6F4E4]
03 98,8 [7AB6451C] [645D7EFD]
04 98,8 [3203DBE3] [94169CB0]
05 98,8 [F68C467C] [4F835A58]
06 98,8 [113365CD] [932C4CE4]
07 98,8 [A3D142FD] [6A37A675]
08 98,8 [9672CD90] [B2AE8B0F]
09 98,8 [AF8E6D7C] [6BD26A54]
10 98,8 [E6434635] [7DA1CBEF]
11 98,8 [45E9A7FF] [3D821FF4]

Thanks to triGada

See also:
Nino Katamadze & Insight - Black (2006)
Nino Katamadze & Insight - Blue (2008)
Nino Katamadze & Insight - Red (2010)