Subcategories
Tags
Language
Tags

Ocean Colour Scene - B-Sides, Seasides & Freerides (1997)

Posted By: Designol
Ocean Colour Scene - B-Sides, Seasides & Freerides (1997)

Ocean Colour Scene - B-Sides, Seasides & Freerides (1997)
EAC | FLAC | Tracks (Cue&Log) ~ 332 Mb | Mp3 (CBR320) ~ 133 Mb | Scans included
British Trad Rock, BritPop, Alternative Rock | Label: MCA | # MCD 60034 | 00:52:03

Rounding up all the B-sides, demos and rarities Ocean Colour Scene released over the course of 1996, when the band was riding the crest of their popularity, B-Sides: Seasides & Freerides, for all its inconsistency, illustrates the depth of their ambition, as well as their flaws. Primarily comprised of acoustic material, including a demo of "The Circle" and a fine, stripped-down version of "The Day We Caught the Train," the 16 tracks on B-Sides can tend to sound a little samey, but when the group branches out to the neo-prog-rock of the very English "Huckleberry Grove" or to the funky instrumental "Chicken Bones and Stones," they sound better than ever, and a couple of early songs by the pre-Ocean Colour Scene band the Fanatics are interesting. Still, about half of the songs suggest that OCS may be a little too reverent in their appreciation for late-'60s rock, since they come across as only stylistic exercise, not full songs. And their live cover of "Day Tripper," featuring Noel Gallagher on guitar and Liam Gallagher on vocals, is an embarassment, simply because Liam's restrained vocals slay Simon Fowler's bellowing. But this is an isolated moment on B-Sides: Seasides & Freerides, since it contains enough first-rate material to make it necessary for dedicated fans.

Review by Stephen Thomas Erlewine, Allmusic.com

Ocean Colour Scene - B-Sides, Seasides & Freerides (1997)



Tracklist:

01. Huckleberry Grove (02:59)
02. The Day We Caught The Train (Acoustic) (03:21)
03. Mrs Jones (02:59)
04. Top Of The World (03:48)
05. Here In My Heart (03:01)
06. I Wanna Stay Alive With You (03:36)
07. Robin Hood (03:35)
08. Chelsea Walk (03:12)
09. Outside Of A Circle (03:06)
10. The Clock Struck 15 Hours Ago (03:06)
11. Alibis (03:01)
12. Chicken Bones And Stones (03:35)
13. Cool Cool Water (02:40)
14. Charlie Brown Says (02:55)
15. Day Tripper (Live) (04:23)
16. Beautiful Losers (02:38)


Exact Audio Copy V1.0 beta 3 from 29. August 2011

EAC extraction logfile from 24. October 2014, 19:09

Ocean Colour Scene / B-Sides, Seasides & Freerides

Used drive : HL-DT-STDVDRAM GSA-T50L Adapter: 1 ID: 0

Read mode : Secure
Utilize accurate stream : Yes
Defeat audio cache : No
Make use of C2 pointers : No

Read offset correction : 667
Overread into Lead-In and Lead-Out : No
Fill up missing offset samples with silence : Yes
Delete leading and trailing silent blocks : No
Null samples used in CRC calculations : Yes
Used interface : Native Win32 interface for Win NT & 2000
Gap handling : Appended to previous track

Used output format : User Defined Encoder
Selected bitrate : 1024 kBit/s
Quality : High
Add ID3 tag : No
Command line compressor : C:\Program Files\Exact Audio Copy\Flac\flac.exe
Additional command line options : -8 -V -T "ARTIST=%artist%" -T "TITLE=%title%" -T "ALBUM=%albumtitle%" -T "DATE=%year%" -T "TRACKNUMBER=%tracknr%" -T "GENRE=%genre%" -T "PERFORMER=%albuminterpret%" -T "COMPOSER=%composer%" %haslyrics%–tag-from-file=LYRICS="%lyricsfile%"%haslyrics% -T "ALBUMARTIST=%albumartist%" -T "DISCNUMBER=%cdnumber%" -T "TOTALDISCS=%totalcds%" -T "TOTALTRACKS=%numtracks%" -T "COMMENT=%comment%" %source% -o %dest%


TOC of the extracted CD

Track | Start | Length | Start sector | End sector
––––––––––––––––––––––––––––-
1 | 0:00.00 | 2:59.27 | 0 | 13451
2 | 2:59.27 | 3:21.53 | 13452 | 28579
3 | 6:21.05 | 2:59.62 | 28580 | 42066
4 | 9:20.67 | 3:48.68 | 42067 | 59234
5 | 13:09.60 | 3:01.52 | 59235 | 72861
6 | 16:11.37 | 3:36.18 | 72862 | 89079
7 | 19:47.55 | 3:35.25 | 89080 | 105229
8 | 23:23.05 | 3:12.30 | 105230 | 119659
9 | 26:35.35 | 3:06.07 | 119660 | 133616
10 | 29:41.42 | 3:06.15 | 133617 | 147581
11 | 32:47.57 | 3:01.20 | 147582 | 161176
12 | 35:49.02 | 3:35.35 | 161177 | 177336
13 | 39:24.37 | 2:40.58 | 177337 | 189394
14 | 42:05.20 | 2:55.27 | 189395 | 202546
15 | 45:00.47 | 4:23.68 | 202547 | 222339
16 | 49:24.40 | 2:38.55 | 222340 | 234244


Track 1

Filename C:\FLAC\01 Huckleberry Grove.wav

Pre-gap length 0:00:02.00

Peak level 99.7 %
Extraction speed 4.3 X
Track quality 100.0 %
Test CRC BB41209D
Copy CRC BB41209D
Accurately ripped (confidence 49) [57188E71] (AR v2)
Copy OK

Track 2

Filename C:\FLAC\02 The Day We Caught The Train (Acoustic).wav

Pre-gap length 0:00:00.09

Peak level 100.0 %
Extraction speed 4.5 X
Track quality 100.0 %
Test CRC DC2204E2
Copy CRC DC2204E2
Accurately ripped (confidence 50) [57BE0219] (AR v2)
Copy OK

Track 3

Filename C:\FLAC\03 Mrs Jones.wav

Pre-gap length 0:00:00.64

Peak level 86.1 %
Extraction speed 4.8 X
Track quality 100.0 %
Test CRC A0AE88E0
Copy CRC A0AE88E0
Accurately ripped (confidence 50) [B2311BA0] (AR v2)
Copy OK

Track 4

Filename C:\FLAC\04 Top Of The World.wav

Pre-gap length 0:00:01.69

Peak level 90.2 %
Extraction speed 5.2 X
Track quality 100.0 %
Test CRC DE365C54
Copy CRC DE365C54
Accurately ripped (confidence 50) [0837945C] (AR v2)
Copy OK

Track 5

Filename C:\FLAC\05 Here In My Heart.wav

Pre-gap length 0:00:01.10

Peak level 99.7 %
Extraction speed 5.7 X
Track quality 100.0 %
Test CRC 9B18D530
Copy CRC 9B18D530
Accurately ripped (confidence 50) [3A55368A] (AR v2)
Copy OK

Track 6

Filename C:\FLAC\06 I Wanna Stay Alive With You.wav

Pre-gap length 0:00:00.02

Peak level 98.6 %
Extraction speed 6.0 X
Track quality 100.0 %
Test CRC 2986B7B6
Copy CRC 2986B7B6
Accurately ripped (confidence 50) [F090BB85] (AR v2)
Copy OK

Track 7

Filename C:\FLAC\07 Robin Hood.wav

Pre-gap length 0:00:01.37

Peak level 92.8 %
Extraction speed 6.1 X
Track quality 100.0 %
Test CRC A30DD926
Copy CRC A30DD926
Accurately ripped (confidence 50) [ED4D651F] (AR v2)
Copy OK

Track 8

Filename C:\FLAC\08 Chelsea Walk.wav

Pre-gap length 0:00:00.04

Peak level 90.2 %
Extraction speed 6.4 X
Track quality 100.0 %
Test CRC 3C45FC46
Copy CRC 3C45FC46
Accurately ripped (confidence 50) [58DC6DE2] (AR v2)
Copy OK

Track 9

Filename C:\FLAC\09 Outside Of A Circle.wav

Pre-gap length 0:00:01.86

Peak level 96.3 %
Extraction speed 6.6 X
Track quality 100.0 %
Test CRC 53D00F04
Copy CRC 53D00F04
Accurately ripped (confidence 50) [8F4CEE0A] (AR v2)
Copy OK

Track 10

Filename C:\FLAC\10 The Clock Struck 15 Hours Ago.wav

Pre-gap length 0:00:00.80

Peak level 97.5 %
Extraction speed 6.8 X
Track quality 100.0 %
Test CRC 368121D3
Copy CRC 368121D3
Accurately ripped (confidence 50) [AB95BDB3] (AR v2)
Copy OK

Track 11

Filename C:\FLAC\11 Alibis.wav

Pre-gap length 0:00:01.56

Peak level 90.4 %
Extraction speed 7.0 X
Track quality 99.9 %
Test CRC 0AE42DD7
Copy CRC 0AE42DD7
Accurately ripped (confidence 50) [30449CF8] (AR v2)
Copy OK

Track 12

Filename C:\FLAC\12 Chicken Bones And Stones.wav

Pre-gap length 0:00:01.89

Peak level 100.0 %
Extraction speed 7.1 X
Track quality 99.9 %
Test CRC 60291B49
Copy CRC 60291B49
Accurately ripped (confidence 50) [FB392CEC] (AR v2)
Copy OK

Track 13

Filename C:\FLAC\13 Cool Cool Water.wav

Pre-gap length 0:00:01.26

Peak level 97.1 %
Extraction speed 7.7 X
Track quality 100.0 %
Test CRC C4675633
Copy CRC C4675633
Accurately ripped (confidence 50) [A7AA3BB0] (AR v2)
Copy OK

Track 14

Filename C:\FLAC\14 Charlie Brown Says.wav

Pre-gap length 0:00:01.20

Peak level 90.2 %
Extraction speed 7.9 X
Track quality 100.0 %
Test CRC 89207CC2
Copy CRC 89207CC2
Accurately ripped (confidence 49) [16A4E4FB] (AR v2)
Copy OK

Track 15

Filename C:\FLAC\15 Day Tripper (Live).wav

Pre-gap length 0:00:01.46

Peak level 90.2 %
Extraction speed 7.9 X
Track quality 99.9 %
Test CRC E5B09A47
Copy CRC E5B09A47
Accurately ripped (confidence 50) [258642F4] (AR v2)
Copy OK

Track 16

Filename C:\FLAC\16 Beautiful Losers.wav

Pre-gap length 0:00:01.60

Peak level 95.3 %
Extraction speed 8.4 X
Track quality 99.9 %
Test CRC CBB94278
Copy CRC CBB94278
Accurately ripped (confidence 50) [A144548A] (AR v2)
Copy OK


All tracks accurately ripped

No errors occurred

End of status report

–– CUETools DB Plugin V2.1.3

[CTDB TOCID: RCah9uXmdTUhPWa7riIGfj5_I9Q-] found, Submit result: RCah9uXmdTUhPWa7riIGfj5_I9Q- has been confirmed
[c9ee353d] (01/16) No match
[45b3023c] (15/16) Accurately ripped


==== Log checksum F5DC8A6A6F245F02E5552E2511F43D8D2868211FDA62AB7999591B6D8FFAF836 ====

foobar2000 1.2 / Dynamic Range Meter 1.1.1
log date: 2014-10-25 13:57:02

––––––––––––––––––––––––––––––––––––––––
Analyzed: Ocean Colour Scene / B-Sides, Seasides & Freerides
––––––––––––––––––––––––––––––––––––––––

DR Peak RMS Duration Track
––––––––––––––––––––––––––––––––––––––––
DR7 -0.02 dB -8.96 dB 2:59 01-Huckleberry Grove
DR11 0.00 dB -13.24 dB 3:22 02-The Day We Caught The Train (Acoustic)
DR8 -1.30 dB -13.35 dB 3:00 03-Mrs Jones
DR6 -0.89 dB -9.46 dB 3:49 04-Top Of The World
DR9 -0.02 dB -13.24 dB 3:02 05-Here In My Heart
DR9 -0.12 dB -12.38 dB 3:36 06-I Wanna Stay Alive With You
DR12 -0.64 dB -17.69 dB 3:35 07-Robin Hood
DR7 -0.89 dB -10.26 dB 3:12 08-Chelsea Walk
DR11 -0.33 dB -15.40 dB 3:06 09-Outside Of A Circle
DR9 -0.21 dB -11.72 dB 3:06 10-The Clock Struck 15 Hours Ago
DR9 -0.87 dB -12.86 dB 3:01 11-Alibis
DR8 0.00 dB -10.02 dB 3:35 12-Chicken Bones And Stones
DR9 -0.25 dB -12.01 dB 2:41 13-Cool Cool Water
DR10 -0.89 dB -14.83 dB 2:55 14-Charlie Brown Says
DR5 -0.89 dB -8.03 dB 4:24 15-Day Tripper (Live)
DR11 -0.42 dB -15.05 dB 2:39 16-Beautiful Losers
––––––––––––––––––––––––––––––––––––––––

Number of tracks: 16
Official DR value: DR9

Samplerate: 44100 Hz
Channels: 2
Bits per sample: 16
Bitrate: 744 kbps
Codec: FLAC
================================================================================

Ocean Colour Scene - B-Sides, Seasides & Freerides (1997)

Ocean Colour Scene - B-Sides, Seasides & Freerides (1997)

All thanks to original releaser

More interesting music in My Blog