Tags
Language
Tags

Overkill - 6 Songs (2012)

Posted By: v3122
Overkill - 6 Songs (2012)

Overkill - 6 Songs (2012)
EAC | Flac(Image) + Cue + Log & MP3 CBR 320Kbps
Nuclear Blast | ~ 240 or 71 Mb | Scans(jpg) -> 29 Mb
Thrash Metal

6 Songs represents a functional-enough trial run of the supercharged inner workings dwelling inside The Electric Age. It also tosses in a bevy of modern live recordings that prove that Overkill can still deliver the goods up close and personal. While "Electric Rattlesnake" suffers from the common problem of most Overkill singles in that it is at least two minutes too long, it manages to squeeze by without flagging too much primarily due to surprises like the doomy break right before the solo. The chorus is markedly ridiculous, with Ellsworth throwing around terms like "shake and bake", but the incendiary speed metal cooking under the verses is dead serious and thrashes as such.

Just like the rest of The Electric Age, "Wish You Were Dead" exists as a throwback variant of the modern style introduced in earnest on Ironbound. While not a personal favorite, it features a high-octane main riff and more off the wall lyrics than you can shake a stick at. These two album cuts benefit from the massive production values present on The Electric Age, achieving the precarious balance between underproduced grit and modern sheen. I would have rather preferred "Black Daze" or "Drop the Hammer Down", but you can't win 'em all, even with Overkill.

The four live tracks from Rock Hard Festival 2011 bring Overkill's output full circle, featuring two of the band's earliest compositions alongside two current live staples. "Give a Little" is undoubtedly the more interesting of the two modern cuts from a songwriting viewpoint alone. The operatic warbling Ellsworth busts out near the midway point of the song is something rarely seen post-Taking Over and worth the price of admission on it's own. Otherwise the song is just one of the few more measured stompers present on Ironbound, serving as the final throes of the groovier post-'90s style that came to a head on albums like ReliXIV.

The real unmistakable treat on 6 Songs is the inclusion of two ancient classics delivered with a modern twist. "The Beast Within" is my personal favorite pre-Feel the Fire track, and to this day I believe it would have served the band well to include it on their first full-length as opposed to the pointless cover or "Raise the Dead". "Death Rider" is certainly nothing to scoff at either, exuding more sinister speed metal attitude than nearly anything else written in '83. While these songs were originally written when Ellsworth's vocals were so high-pitched he sounded nearly female, the grittier tone he espouses today gives them a whole new layer of attitude that breathes new life into otherwise archaic compositions.

While Overkill's current lineup lacks stage presence, they have no problem delivering material both old and new with flawless tenacity. Linsk has such complete control over his instrument, he often experiments and adds new twists and passages to solos. The gravely inflection Ellsworth has recently been playing up converts well into the live arena. As usual, his between-song banter is anything but boring, and he can still nail the operatic warbling present on old classics like "The Beast Within".

6 Songs could have easily been yet another pointless little EP pumped out due to contractual obligations with the label. Overkill manages to fly in the face of convention yet again, giving fans plenty of material to chew on, including rare cuts that give this EP value unique to itself. Well done, guys.

by Diamhea, metal-archives.com
Overkill - 6 Songs (2012):

Overkill - 6 Songs (2012)

Tracklist:

01. Electric Rattlesnake (6:20)
02. Wish You Were Dead (4:20)
03. Give A Little (5:08)
04. Bring Me The Night (5:20)
05. Deathrider (3:57)
06. The Beast Within (4:20)

Exact Audio Copy V1.0 beta 3 from 29. August 2011

EAC extraction logfile from 24. March 2013, 12:29

Overkill / 6 Songs [Nuclear Blast, Germany]

Used drive : PIONEER DVD-RW DVR-112D Adapter: 1 ID: 0

Read mode : Secure
Utilize accurate stream : Yes
Defeat audio cache : Yes
Make use of C2 pointers : No

Read offset correction : 48
Overread into Lead-In and Lead-Out : No
Fill up missing offset samples with silence : Yes
Delete leading and trailing silent blocks : No
Null samples used in CRC calculations : Yes
Used interface : Installed external ASPI interface

Used output format : User Defined Encoder
Selected bitrate : 1024 kBit/s
Quality : High
Add ID3 tag : No
Command line compressor : C:\Program Files\Exact Audio Copy\FLAC\FLAC.EXE
Additional command line options : -V -8 -T "Date=%year%" -T "Genre=%genre%" %source%


TOC of the extracted CD

Track | Start | Length | Start sector | End sector
––––––––––––––––––––––––––––-
1 | 0:00.00 | 6:20.33 | 0 | 28532
2 | 6:20.33 | 4:20.11 | 28533 | 48043
3 | 10:40.44 | 5:08.04 | 48044 | 71147
4 | 15:48.48 | 5:19.53 | 71148 | 95125
5 | 21:08.26 | 3:56.51 | 95126 | 112876
6 | 25:05.02 | 4:19.73 | 112877 | 132374


Range status and errors

Selected range

Filename E:\CDRip by Deminbek\Overkill - 6 Songs [Nuclear Blast, Germany].wav

Peak level 98.8 %
Extraction speed 6.5 X
Range quality 100.0 %
Test CRC CD2E12FE
Copy CRC CD2E12FE
Copy OK

No errors occurred


AccurateRip summary

Track 1 accurately ripped (confidence 3) [CB053614] (AR v2)
Track 2 accurately ripped (confidence 3) [2AA3E771] (AR v2)
Track 3 accurately ripped (confidence 3) [32069BF3] (AR v2)
Track 4 accurately ripped (confidence 3) [F3EF6B28] (AR v2)
Track 5 accurately ripped (confidence 3) [EDEE0F74] (AR v2)
Track 6 accurately ripped (confidence 3) [69F9D821] (AR v2)

All tracks accurately ripped

End of status report

–– CUETools DB Plugin V2.1.3

[CTDB TOCID: CHGvqTu77GY031xd5VCPtbskVwU-] found, Submit result: CHGvqTu77GY031xd5VCPtbskVwU- has been confirmed
[6466440c] (13/14) Accurately ripped
[406de1f1] (01/14) No match


==== Log checksum 0B9154897836DADC04AD34EBBED00427871EC6804CC5EA63D1C0A2EB7B66932D ====


[CUETools log; Date: 17.12.2017 23:02:02; Version: 2.1.5]
[AccurateRip ID: 000772a7-002724bc-4006e506] found.
Track [ CRC | V2 ] Status
01 [58164722|cb053614] (02+33/35) Accurately ripped
02 [6633327f|2aa3e771] (02+32/34) Accurately ripped
03 [a8756d0f|32069bf3] (02+33/35) Accurately ripped
04 [b6443e7d|f3ef6b28] (02+32/34) Accurately ripped
05 [220dd97f|edee0f74] (02+33/35) Accurately ripped
06 [3917127a|69f9d821] (02+32/34) Accurately ripped

Track Peak [ CRC32 ] [W/O NULL] [ LOG ]
– 98,8 [CD2E12FE] [93D75100] CRC32
01 98,8 [8020AAAB] [413EC9EE]
02 98,8 [C57465A4] [DF8F2760]
03 98,8 [272936FA] [942DD451]
04 98,8 [74682BE1] [CFE832BF]
05 98,8 [E9480187] [1E107F59]
06 98,8 [4D6151C6] [ABEEAC01]


Overkill - 6 Songs (2012)

All thanks go to the original releaser

Overkill in my Blog

Download Overkill - 6 Songs (2012):