Tags
Language
Tags

VA - Pave The Earth (1990) {A&M promo Sampler} **[RE-UP]**

Posted By: TestTickles
VA - Pave The Earth (1990) {A&M promo Sampler} **[RE-UP]**

VA - Pave The Earth (1990) {A&M promo Sampler}
EAC Rip | FLAC with CUE and log | scans | 455 mb
MP3 CBR 320kbps | RAR | 201 mb
Genre: alternative, folk, pop, R&B, soul, hip-hop, grunge, rap, jazz

Pave The Earth is a 1900 sampler CD made by A&M Records. It explores new and then-upcoming music the label had worked on or were working to release, with material from Soundgarden, Blues Traveler, Del Amitri, Intelligent Hoodlum, Sun Ra. Suzanne Vega, and many more.

VA - Pave The Earth (1990) {A&M promo Sampler} **[RE-UP]**

1. Soul Asylum - Easy Street
2. Soundgarden - Fresh Deadly Roses
3. Extreme - Get The Funk Out
4. David Baerwald - Stranger
5. Suzanne Vega - Men In A War
6. Zachary Richard - Too Many Women
7. Del Amitri - Nothing Ever Happens
8. Blues Traveler - But Anyway
9. The Neville Brothers - Brother Jake
10. John Hiatt - Through Your Hands
11. Sun Ra - Purple Night Blues
12. Trip Shakespeare - The Slacks
13. Groove B Chill - Where Were You
14. Robyn Hitchcock - Birdshead (Live)
15. Gin Blossoms - Cajun Song
16. Intelligent Hoodlum - Keep Striving
17. Joe Henry - Helena By The Avenue

Exact Audio Copy V1.1 from 23. June 2015

EAC extraction logfile from 29. March 2017, 8:50

Various Artists / Pave The Earth

Used drive : TEAC DVD-ROM DV-28SW Adapter: 1 ID: 0

Read mode : Secure
Utilize accurate stream : Yes
Defeat audio cache : Yes
Make use of C2 pointers : No

Read offset correction : 6
Overread into Lead-In and Lead-Out : No
Fill up missing offset samples with silence : Yes
Delete leading and trailing silent blocks : No
Null samples used in CRC calculations : Yes
Used interface : Native Win32 interface for Win NT & 2000
Gap handling : Appended to previous track

Used output format : Internal WAV Routines
Sample format : 44.100 Hz; 16 Bit; Stereo


TOC of the extracted CD

Track | Start | Length | Start sector | End sector
––––––––––––––––––––––––––––-
1 | 0:00.00 | 3:34.20 | 0 | 16069
2 | 3:34.20 | 4:53.28 | 16070 | 38072
3 | 8:27.48 | 4:26.20 | 38073 | 58042
4 | 12:53.68 | 3:53.32 | 58043 | 75549
5 | 16:47.25 | 4:49.33 | 75550 | 97257
6 | 21:36.58 | 3:22.07 | 97258 | 112414
7 | 24:58.65 | 3:52.18 | 112415 | 129832
8 | 28:51.08 | 4:11.57 | 129833 | 148714
9 | 33:02.65 | 4:31.00 | 148715 | 169039
10 | 37:33.65 | 4:52.45 | 169040 | 190984
11 | 42:26.35 | 4:05.15 | 190985 | 209374
12 | 46:31.50 | 4:03.35 | 209375 | 227634
13 | 50:35.10 | 3:58.03 | 227635 | 245487
14 | 54:33.13 | 3:38.52 | 245488 | 261889
15 | 58:11.65 | 2:44.25 | 261890 | 274214
16 | 60:56.15 | 4:09.55 | 274215 | 292944
17 | 65:05.70 | 4:01.20 | 292945 | 311039


Track 1

Filename C:\My Documents\My FLAC\VA - Pave The Earth (1990) [FLAC] {A&M}\01 - Soul Asylum - Easy Street.wav

Pre-gap length 0:00:02.00

Peak level 97.7 %
Extraction speed 2.7 X
Track quality 100.0 %
Test CRC 5FA1B5EF
Copy CRC 5FA1B5EF
Accurately ripped (confidence 3) [FCA98675] (AR v2)
Copy OK

Track 2

Filename C:\My Documents\My FLAC\VA - Pave The Earth (1990) [FLAC] {A&M}\02 - Soundgarden - Fresh Dead Roses.wav

Pre-gap length 0:00:01.02

Peak level 88.0 %
Extraction speed 2.8 X
Track quality 100.0 %
Test CRC A6EC91AB
Copy CRC A6EC91AB
Accurately ripped (confidence 3) [9992C76A] (AR v2)
Copy OK

Track 3

Filename C:\My Documents\My FLAC\VA - Pave The Earth (1990) [FLAC] {A&M}\03 - Extreme - Get The Funk Out.wav

Pre-gap length 0:00:01.73

Peak level 79.4 %
Extraction speed 2.6 X
Track quality 99.9 %
Test CRC 048B4005
Copy CRC 048B4005
Accurately ripped (confidence 3) [BC4C9608] (AR v2)
Copy OK

Track 4

Filename C:\My Documents\My FLAC\VA - Pave The Earth (1990) [FLAC] {A&M}\04 - David Baerwald - Stranger.wav

Pre-gap length 0:00:02.25

Peak level 48.8 %
Extraction speed 3.4 X
Track quality 100.0 %
Test CRC 1BC983F2
Copy CRC 1BC983F2
Accurately ripped (confidence 3) [6BAB8793] (AR v2)
Copy OK

Track 5

Filename C:\My Documents\My FLAC\VA - Pave The Earth (1990) [FLAC] {A&M}\05 - Suzanne Vega - Men In A War.wav

Pre-gap length 0:00:01.35

Peak level 97.2 %
Extraction speed 3.8 X
Track quality 100.0 %
Test CRC 0E46C5F7
Copy CRC 0E46C5F7
Accurately ripped (confidence 3) [8DF9FD35] (AR v2)
Copy OK

Track 6

Filename C:\My Documents\My FLAC\VA - Pave The Earth (1990) [FLAC] {A&M}\06 - Zachary Richard - Too Many Women.wav

Pre-gap length 0:00:02.43

Peak level 95.5 %
Extraction speed 3.3 X
Track quality 100.0 %
Test CRC F657083A
Copy CRC F657083A
Accurately ripped (confidence 3) [34437BC7] (AR v2)
Copy OK

Track 7

Filename C:\My Documents\My FLAC\VA - Pave The Earth (1990) [FLAC] {A&M}\07 - Del Amitri - Nothing Ever Happens.wav

Pre-gap length 0:00:01.45

Peak level 90.6 %
Extraction speed 3.8 X
Track quality 100.0 %
Test CRC A8BEED21
Copy CRC A8BEED21
Accurately ripped (confidence 3) [8B344945] (AR v2)
Copy OK

Track 8

Filename C:\My Documents\My FLAC\VA - Pave The Earth (1990) [FLAC] {A&M}\08 - Blues Traveler - But Anyway.wav

Pre-gap length 0:00:01.33

Peak level 93.3 %
Extraction speed 3.9 X
Track quality 100.0 %
Test CRC BABD7C97
Copy CRC BABD7C97
Accurately ripped (confidence 3) [649B7660] (AR v2)
Copy OK

Track 9

Filename C:\My Documents\My FLAC\VA - Pave The Earth (1990) [FLAC] {A&M}\09 - The Neville Brothers - Brother Jake.wav

Pre-gap length 0:00:02.15

Peak level 99.7 %
Extraction speed 3.5 X
Track quality 100.0 %
Test CRC 425F38FE
Copy CRC 425F38FE
Accurately ripped (confidence 3) [5F4A52F8] (AR v2)
Copy OK

Track 10

Filename C:\My Documents\My FLAC\VA - Pave The Earth (1990) [FLAC] {A&M}\10 - John Hiatt - Through Your Hands.wav

Pre-gap length 0:00:01.72

Peak level 97.7 %
Extraction speed 3.8 X
Track quality 100.0 %
Test CRC D03A74B6
Copy CRC D03A74B6
Accurately ripped (confidence 3) [AAF8DD77] (AR v2)
Copy OK

Track 11

Filename C:\My Documents\My FLAC\VA - Pave The Earth (1990) [FLAC] {A&M}\11 - Sun Ra - Purple Night Blues.wav

Pre-gap length 0:00:04.20

Peak level 90.5 %
Extraction speed 3.5 X
Track quality 100.0 %
Test CRC 9D27AEEF
Copy CRC 9D27AEEF
Accurately ripped (confidence 3) [C363BA96] (AR v2)
Copy OK

Track 12

Filename C:\My Documents\My FLAC\VA - Pave The Earth (1990) [FLAC] {A&M}\12 - Trip Shakespeare - The Slacks.wav

Pre-gap length 0:00:03.07

Peak level 96.6 %
Extraction speed 3.4 X
Track quality 100.0 %
Test CRC 46B5CD21
Copy CRC 46B5CD21
Accurately ripped (confidence 3) [2BFBBA88] (AR v2)
Copy OK

Track 13

Filename C:\My Documents\My FLAC\VA - Pave The Earth (1990) [FLAC] {A&M}\13 - Groove B Chill - Where Were You.wav

Pre-gap length 0:00:03.45

Peak level 78.5 %
Extraction speed 0.6 X
Track quality 99.9 %
Test CRC DB62ECF6
Copy CRC DB62ECF6
Accurately ripped (confidence 3) [3F6239B5] (AR v2)
Copy OK

Track 14

Filename C:\My Documents\My FLAC\VA - Pave The Earth (1990) [FLAC] {A&M}\14 - Robyn Hitchcock - Birdshead (Live).wav

Pre-gap length 0:00:01.48

Peak level 91.1 %
Extraction speed 4.4 X
Track quality 100.0 %
Test CRC 4CBCE639
Copy CRC 4CBCE639
Accurately ripped (confidence 3) [8485C2E7] (AR v2)
Copy OK

Track 15

Filename C:\My Documents\My FLAC\VA - Pave The Earth (1990) [FLAC] {A&M}\15 - Gin Blossoms - Cajun Song.wav

Pre-gap length 0:00:00.37

Peak level 71.6 %
Extraction speed 2.8 X
Track quality 99.9 %
Test CRC 1869BCB1
Copy CRC 1869BCB1
Accurately ripped (confidence 3) [64F52951] (AR v2)
Copy OK

Track 16

Filename C:\My Documents\My FLAC\VA - Pave The Earth (1990) [FLAC] {A&M}\16 - Intelligent Hoodlum - Keep Striving.wav

Pre-gap length 0:00:00.62

Peak level 78.4 %
Extraction speed 2.9 X
Track quality 100.0 %
Test CRC 3CE30FC4
Copy CRC 3CE30FC4
Accurately ripped (confidence 3) [0E1E9511] (AR v2)
Copy OK

Track 17

Filename C:\My Documents\My FLAC\VA - Pave The Earth (1990) [FLAC] {A&M}\17 - Joe Henry - Helena By The Avenue.wav

Pre-gap length 0:00:02.12

Peak level 99.5 %
Extraction speed 4.5 X
Track quality 100.0 %
Test CRC 4C5E8434
Copy CRC 4C5E8434
Accurately ripped (confidence 3) [5C78CE50] (AR v2)
Copy OK


All tracks accurately ripped

No errors occurred

End of status report

–– CUETools DB Plugin V2.1.6

[CTDB TOCID: .0WFuxmN0AGnjJA.oRCVkFU74LU-] disk not present in database
Submit result: .0WFuxmN0AGnjJA.oRCVkFU74LU- has been uploaded


==== Log checksum 29C11ECDD5BA6556CFDFD8C7949064C3B3FAA8F9EC1619D9DFE224AE9EC65579 ====


VA - Pave The Earth (1990) {A&M promo Sampler} **[RE-UP]**